#TITLE:Sour Patch Kids;
#SUBTITLE:;
#ARTIST:Bryce Vine;
#TITLETRANSLIT:;
#SUBTITLETRANSLIT:;
#ARTISTTRANSLIT:;
#GENRE:Lazy Fair;
#CREDIT:[Ness];
#BANNER:Sour Patch Kids.png;
#BACKGROUND:Sour Patch Kids-bg.png;
#LYRICSPATH:Sour Patch Kids.lrc;
#CDTITLE:;
#MUSIC:Sour Patch Kids.mp3;
#OFFSET:-0.015000;
#SAMPLESTART:50.260113;
#SAMPLELENGTH:24.121586;
#LASTBEATHINT:344.002258;
#SELECTABLE:YES;
#BPMS:0.000000=152.975006
;
#STOPS:112.000000=1.970000,
193.000000=0.392000,
224.000000=0.392000,
270.000000=0.784000
;
#BGCHANGES:0.000=Sour Patch Kids.avi=1.000=1=0=0=StretchNoLoop==CrossFade==,
343.000=Sour Patch Kids-bg.png=1.000=0=0=1=====,
99999=-nosongbg-=1.000=0=0=0 // don't automatically add -songbackground-
;
#KEYSOUNDS:;
#ATTACKS:;

//---------------dance-single - ----------------
#NOTES:
     dance-single:
     :
     Hard:
     8:
     0.551811,0.524710,0.375438,0.202159,0.018050,535.000000,483.000000,52.000000,28.000000,0.000000,0.000000,0.551811,0.524710,0.375438,0.202159,0.018050,535.000000,483.000000,52.000000,28.000000,0.000000,0.000000:
// measure 0
0000
0000
0000
0000
,  // measure 1
0000
0000
0000
0000
,  // measure 2
0000
0000
0000
0000
,  // measure 3
0000
0000
0000
0000
,  // measure 4
0200
0000
0301
0010
1000
0000
0110
0000
,  // measure 5
0020
0000
1030
0100
0001
0000
0110
0000
,  // measure 6
0200
0000
1300
0010
0001
0000
0110
0000
,  // measure 7
0020
0000
0031
0100
1000
0000
0110
0000
,  // measure 8
0100
0001
0010
1000
0000
0000
1000
0010
,  // measure 9
0001
0010
1000
0000
1010
0000
0100
0000
,  // measure 10
0100
1000
0010
0001
0000
0000
1000
0001
,  // measure 11
1000
0010
0000
0100
0001
0010
0001
0100
,  // measure 12
0021
0000
0130
0000
0001
1000
0001
1000
,  // measure 13
0021
0000
0130
0010
0100
0000
0001
0100
,  // measure 14
0020
0000
1000
0000
0130
0010
1000
0010
,  // measure 15
0200
1000
0310
1001
,  // measure 16
0010
1000
0100
0001
0001
0000
0001
0100
,  // measure 17
1000
0100
0001
0000
0101
0000
0010
0000
,  // measure 18
0010
0001
0100
1000
1000
0000
1000
0010
,  // measure 19
0100
0010
1000
0000
1100
0000
0010
0000
,  // measure 20
1020
0000
0130
0000
1000
0100
1000
0100
,  // measure 21
0020
0000
0130
0000
0001
1000
0010
0100
,  // measure 22
0001
0000
0011
0000
1010
0000
1000
0001
,  // measure 23
1000
0000
0010
0100
0001
0001
1000
0001
,  // measure 24
0010
0000
0100
1000
0001
1000
0100
0010
,  // measure 25
0000
0010
0100
1000
0001
1000
0010
0000
,  // measure 26
0110
0000
1000
0001
0100
0010
0100
0001
,  // measure 27
0000
0001
0010
0100
1000
0100
0010
0001
,  // measure 28
1000
0000
1001
0000
0010
1000
0001
0100
,  // measure 29
0001
0100
0010
0000
0010
0001
0100
0001
,  // measure 30
1000
0100
1000
0000
0001
0010
0110
0100
,  // measure 31
1000
0100
0010
0001
0010
0000
0001
1000
,  // measure 32
0100
0010
0002
0000
0000
0000
1003
0010
,  // measure 33
0100
0001
0100
0010
1000
0000
1000
0100
,  // measure 34
0001
0100
1000
0000
1100
0000
0011
0000
,  // measure 35
0101
0000
1010
1000
0010
1000
0001
0000
,  // measure 36
1000
0000
0110
0000
1000
0001
0001
0100
,  // measure 37
0001
0000
1001
0000
0001
1000
0100
0000
,  // measure 38
1100
0000
0021
0000
0130
0000
0001
1000
,  // measure 39
0010
0100
0001
1000
0001
0000
0001
0010
,  // measure 40
0100
1000
0001
0000
0000
0000
1000
0100
,  // measure 41
0010
0001
1000
0100
1000
0000
1000
0100
,  // measure 42
0001
0100
1000
0000
0110
0000
0011
0000
,  // measure 43
1010
0000
0101
0001
1000
0100
0010
0000
,  // measure 44
0100
0000
0110
0000
0010
1000
1000
0001
,  // measure 45
1000
0000
1001
0000
0010
0001
0100
0000
,  // measure 46
0101
0000
0001
1000
0001
0000
1000
0001
,  // measure 47
0100
1000
1000
0000
0001
0010
1000
0001
,  // measure 48
0001
0000
0000
0000
0001
0100
1000
0001
,  // measure 49
0001
0000
0010
1000
0001
0010
0010
0000
,  // measure 50
0101
0000
0000
0000
1010
0000
0000
0000
1000
0000
0001
0000
1000
0100
1000
0000
,  // measure 51
0001
0000
0001
0000
0000
0000
0000
0000
1000
0000
0001
0000
0100
0001
0100
0000
,  // measure 52
0010
0000
0010
0000
0000
0000
0000
0000
1000
0000
0000
0001
0000
0000
0010
0000
,  // measure 53
0100
0000
0000
0001
0000
0000
0100
0000
1000
0000
0000
0010
0000
0000
0100
0000
,  // measure 54
0001
1000
0001
0010
0001
1000
0001
0100
,  // measure 55
0001
0010
0001
0100
0001
1000
0100
1000
,  // measure 56
0002
0000
1003
0100
1000
0010
1000
0001
,  // measure 57
0010
0001
1000
0001
0100
0001
2000
0000
,  // measure 58
3001
0000
2200
0000
3300
0000
0010
1000
,  // measure 59
0100
0000
1000
0001
0100
0100
0102
0000
,  // measure 60
0013
0000
0020
0000
0031
1000
1000
0000
,  // measure 61
0001
0000
0100
0010
1000
0001
1001
0000
,  // measure 62
0100
1000
0010
0010
1000
0000
0010
0010
,  // measure 63
0001
0001
0000
0001
1000
0000
0001
0100
,  // measure 64
0001
0101
0000
0100
0010
0000
0010
1000
,  // measure 65
0100
1000
0000
0100
0001
0000
0110
0000
,  // measure 66
0001
0000
0101
0000
0000
0001
1000
0010
,  // measure 67
0100
0001
1000
0000
1001
0000
0001
0100
,  // measure 68
0001
1000
0101
0000
1000
0010
1000
0100
,  // measure 69
1000
0001
1100
0000
0010
1000
0100
0001
,  // measure 70
0100
1000
0010
0100
0010
0000
0010
0001
,  // measure 71
0010
1000
0200
0000
0000
0000
1300
0001
,  // measure 72
0100
0010
1000
0010
0001
0000
0001
0010
,  // measure 73
1000
0010
0210
0000
1300
0000
1100
0000
,  // measure 74
0101
0000
1000
0100
1000
0001
0200
0000
,  // measure 75
0310
0000
0001
0010
0001
0000
1000
0001
,  // measure 76
0100
0201
0310
0021
,  // measure 77
0130
0000
0201
0000
0310
0000
0001
0100
,  // measure 78
0001
1000
0100
1000
0002
0000
1003
0010
,  // measure 79
1000
0100
0020
0000
0000
0000
0130
1000
,  // measure 80
0001
0100
0010
1000
0002
0000
1003
0100
,  // measure 81
1000
0001
0200
0000
0000
0000
0310
0000
,  // measure 82
1000
0100
0000
0100
0010
0000
0001
0000
,  // measure 83
0001
0100
0000
0100
0010
0000
0001
0000
,  // measure 84
0100
1000
0000
1000
0100
0000
0101
0000
,  // measure 85
1100
0101
1100
0000
;

//---------------dance-single - ----------------
#NOTES:
     dance-single:
     :
     Medium:
     6:
     0.379563,0.370384,0.064980,0.007220,0.000000,368.000000,359.000000,9.000000,1.000000,0.000000,0.000000,0.379563,0.370384,0.064980,0.007220,0.000000,368.000000,359.000000,9.000000,1.000000,0.000000,0.000000:
0000
0000
0000
0000
,
0000
0000
0000
0000
,
0000
0000
0000
0000
,
0000
0000
0000
0000
,
1000
0001
1000
0100
,
0001
0000
1000
0001
1000
0000
0010
0000
,
0100
0001
1000
0001
,
0010
0000
0001
1000
0001
0000
0100
0000
,
1000
0100
1000
0000
0000
0000
0001
0100
,
0010
0000
0001
0010
,
1000
0010
1000
0000
0000
0000
0001
0100
,
0001
0000
0110
1000
,
0100
0000
0010
0100
0000
1000
0000
0000
,
0001
1000
0000
0100
0000
0000
0000
0000
,
1000
0000
0010
0100
0000
0001
0000
0000
,
1000
0001
0000
0100
0000
0000
0000
0000
,
0010
1000
0100
0000
1000
0000
0100
0001
,
0010
1000
0010
0100
,
0001
0100
0010
0000
0001
0000
0010
1000
,
0100
1000
0001
0100
,
0010
0000
1000
0100
0000
0001
0000
0000
,
1000
0001
0000
0100
0000
0000
0000
0000
,
0010
0000
0001
0100
0000
1000
0000
0000
,
0100
0010
0000
0100
1000
0000
0100
0000
,
0001
0000
1000
0000
0100
0000
1000
0100
,
0000
0010
0001
0000
1000
0000
0001
0000
,
0100
0000
0010
0000
1000
0000
0001
0100
,
0000
0010
1000
0000
0100
0000
0010
0000
,
0110
0001
1000
0100
,
0100
0000
0001
0000
1000
0100
1000
0000
,
0001
0100
0100
1001
,
0100
0000
0001
0000
0001
0000
1000
0100
,
1000
0100
0010
0000
0000
0000
0001
0000
,
1000
0000
0010
0000
0100
0000
0001
0100
,
0001
0100
1000
0000
0100
0000
0001
0000
,
0001
0000
1000
0001
1000
0000
0010
0000
,
0100
0000
0001
0000
0010
0000
0100
1000
,
0100
0010
0001
1000
,
0001
0000
0100
0000
0010
0000
1000
0010
,
0100
0000
0001
0000
1000
0000
0001
0010
,
0001
0010
0100
0000
0000
0000
0001
0000
,
1000
0000
0100
0000
0010
0000
0001
0100
,
0001
0100
0010
0000
0001
0000
0100
0000
,
1000
0100
0001
1000
,
0100
0000
1000
0000
0001
0000
1000
0100
,
0010
0001
1000
0001
,
0100
0000
0010
0000
1000
0000
0100
1000
,
0100
1000
0000
0000
0100
0001
0100
0001
,
0000
0000
0000
0000
0010
0100
0010
0100
,
0000
0000
0001
1000
0001
1000
0000
0000
,
0001
0010
1000
1000
,
0100
0000
0010
0000
0100
1000
0100
0000
,
1000
0000
0001
1000
,
0010
0100
0001
0100
,
1000
0100
1000
0000
0001
0100
0001
0000
,
0010
0100
1000
0001
,
0100
0001
0100
1000
,
0100
0001
0100
0110
,
0001
0000
0020
0000
0030
0000
0001
1000
,
0001
1000
0100
0010
,
0100
1000
1000
0001
,
0001
0000
1000
0010
1000
0010
0100
0000
,
0000
0001
0010
1000
,
0010
0100
0001
1000
,
0100
0010
0100
1000
,
0001
1000
0000
0001
1000
0000
0001
0000
,
0100
0010
0000
1000
,
0100
0110
0110
0001
,
0001
1000
1000
0001
,
0100
0010
1000
1001
,
0100
0000
1000
0000
0010
0000
0001
0100
,
0001
0100
0010
0000
0000
0000
1000
0000
,
0100
0000
0001
0000
1000
0000
0100
1000
,
0100
1000
0010
0000
0100
0000
0001
0000
,
1000
0000
0001
0100
0001
0000
1000
0000
,
0001
0000
1000
0100
1000
0000
0110
0000
,
0001
0010
0001
0110
,
1000
0000
0100
0000
1000
0000
0001
0100
,
0001
0000
0010
0000
1000
0000
0010
0100
,
0010
0100
0010
0000
0000
0000
1000
0100
,
1000
0000
0001
0000
1000
0000
0010
0100
,
0010
0100
0010
0000
0000
0000
1000
0000
,
0100
0001
1000
0100
,
0100
1000
0001
0100
,
0100
1000
0001
0100
,
0100
0100
0100
0000
;

//---------------dance-single - ----------------
#NOTES:
     dance-single:
     :
     Easy:
     4:
     0.252698,0.277788,0.014440,0.303238,0.000000,245.000000,243.000000,2.000000,42.000000,0.000000,0.000000,0.252698,0.277788,0.014440,0.303238,0.000000,245.000000,243.000000,2.000000,42.000000,0.000000,0.000000:
0000
0000
0000
0000
,
0000
0000
0000
0000
,
0000
0000
0000
0000
,
0000
0000
0000
0000
,
1000
0000
0001
1000
,
0100
0000
1000
0100
,
1000
0000
0001
0010
,
0100
0000
0010
0001
,
2000
0000
3001
0000
,
0002
0000
0103
0000
,
2000
0000
3010
0000
,
0200
0000
0310
1000
,
0200
0000
0310
0000
,
0002
0000
1003
0001
,
0200
0000
0301
0000
,
2000
0000
3100
0000
,
0020
0000
0130
0010
,
0200
0000
0310
0001
,
0200
0000
0301
1000
,
0002
0000
1003
0010
,
2000
0000
3100
0010
,
0002
0000
0013
0100
,
1000
0100
0010
0001
,
2000
0000
3100
0000
,
0020
0000
0031
0100
,
0020
0000
0130
0001
,
2000
0000
3010
0100
,
0001
0100
0010
1000
,
0001
0000
0000
0010
,
0100
2000
0000
3010
,
0100
0002
0000
1003
,
0100
1000
0100
0010
,
0100
2000
0000
3001
,
0100
0001
0100
0010
,
0100
0001
0000
2000
,
0010
3001
0000
0002
,
0010
1003
0000
2000
,
0010
3001
0000
0002
,
0010
1003
0000
0010
,
1000
0010
1000
0100
,
1000
0002
0000
0013
,
0001
0010
0001
0100
,
0001
1000
0000
0002
,
0100
1003
0000
2000
,
0100
3001
0000
0002
,
0100
1003
0000
2000
,
0100
3001
0000
1001
,
0000
0010
0000
1000
,
0000
0000
0000
0000
,
0001
0000
0010
0000
,
0110
0000
2000
0000
,
3100
0001
0020
0000
,
0031
0100
2000
0000
,
3002
0000
1003
0010
,
0100
0001
1000
1000
,
0001
0001
1000
0001
,
0100
0000
0000
0001
,
0001
1000
1000
0200
,
0000
0310
0000
0100
,
1000
0100
1000
0001
,
0000
1000
0010
1000
,
0010
0001
0010
0001
,
0010
0001
0000
0200
,
0000
0301
0010
0100
,
0000
2000
0000
3100
,
0000
1000
0001
0200
,
0000
0301
0000
0100
,
0001
0010
0010
0000
,
0000
0001
1000
0100
,
0000
1000
0010
0100
,
0001
0100
0010
1000
,
0010
1000
0000
1000
,
0100
0010
0100
0010
,
0001
0100
0000
0002
,
1000
0103
0000
2000
,
0001
3100
0000
0002
,
1000
0103
0000
2000
,
0001
3100
0000
1000
,
0100
1000
0100
0001
,
0100
1000
0000
0001
,
0100
0001
0100
0010
,
0100
0001
0000
1000
,
0010
0001
0000
0001
,
1000
0001
0000
1000
,
0010
0001
0000
0100
,
0100
0100
0100
0000
;

//---------------dance-single - ----------------
#NOTES:
     dance-single:
     :
     Beginner:
     2:
     0.146462,0.184650,0.014440,0.000000,0.000000,142.000000,140.000000,2.000000,0.000000,0.000000,0.000000,0.146462,0.184650,0.014440,0.000000,0.000000,142.000000,140.000000,2.000000,0.000000,0.000000,0.000000:
0000
0000
0000
0000
,
0000
0000
0000
0000
,
0000
0000
0000
0000
,
0000
0000
0000
0000
,
0010
0000
0010
0000
,
0100
0000
0100
0000
,
0010
0000
0010
0000
,
0100
0000
0100
0000
,
0001
0000
0001
0000
,
0001
0000
0000
0000
,
1000
0000
1000
0000
,
1000
0000
0000
0000
,
0100
0000
0100
0000
,
0100
0000
0000
0000
,
0010
0000
0010
0000
,
0010
0000
0000
0000
,
0001
0000
0001
0000
,
0001
0000
0001
0000
,
1000
0000
1000
0000
,
1000
0000
1000
0000
,
0010
0000
0000
0000
,
0100
0000
0000
0000
,
0010
0000
0010
0000
,
0010
0000
0000
0000
,
1000
0000
0000
0000
,
0001
0000
0000
0000
,
0010
0000
0000
0000
,
0100
0000
0000
0000
,
1000
0000
0000
0001
,
0000
0000
0000
0100
,
0000
0000
0000
1001
,
0000
0010
0000
1000
,
0000
0010
0000
0001
,
0000
0010
0000
0001
,
0000
0010
0000
0100
,
0000
0100
0000
0100
,
0000
0100
0000
0010
,
0000
0010
0000
0010
,
0000
0010
0000
0001
,
0000
0001
0000
1000
,
0000
1000
0000
0001
,
0000
0001
0000
0100
,
0000
0010
0000
1000
,
0000
1000
0000
0001
,
0000
0001
0000
0010
,
0000
0100
0000
1000
,
0000
0001
0000
0100
,
0000
0100
0000
0010
,
0000
0000
0000
0000
,
0010
0000
1000
0000
,
0100
0000
0001
0000
,
0001
0000
1000
0000
,
1000
0000
0100
0000
,
0100
0000
0100
0000
,
0100
0000
0010
0000
,
0010
0000
0010
0000
,
0000
0000
0000
0010
,
0000
0001
0000
0001
,
0000
1000
0000
0000
,
0000
0100
0000
0000
,
0000
0010
0000
0000
,
0000
0100
0000
0000
,
0000
0001
0000
0001
,
0000
1000
0000
1000
,
0000
0100
0000
0100
,
0000
0010
0000
0010
,
0000
0001
0000
0000
,
0000
1000
0000
0000
,
0000
0010
0000
0000
,
0000
0010
0000
1001
,
0000
0010
0000
0010
,
0000
0010
0000
1000
,
0000
0100
0000
0010
,
0000
0001
0000
0010
,
0000
0010
0000
0100
,
0000
0100
0000
1000
,
0000
0001
0000
0100
,
0000
0010
0000
1000
,
0000
1000
0000
1000
,
0000
0100
0000
0001
,
0000
0001
0000
0001
,
0000
0010
0000
1000
,
0000
1000
0000
0001
,
0000
0001
0000
1000
,
0000
1000
0000
0100
,
0000
0100
0000
0000
;
