#VERSION:0.83;
#TITLE:Solo;
#SUBTITLE:;
#ARTIST:Clean Bandit feat. Demi Lovato;
#TITLETRANSLIT:;
#SUBTITLETRANSLIT:;
#ARTISTTRANSLIT:;
#GENRE:What Is Love?;
#ORIGIN:;
#CREDIT:;
#BANNER:Solo-bn.png;
#BACKGROUND:Black.png;
#PREVIEWVID:Solo-preview.avi;
#JACKET:Solo-jacket.png;
#CDIMAGE:;
#DISCIMAGE:Solo-bg.png;
#LYRICSPATH:;
#CDTITLE:;
#MUSIC:Solo.mp3;
#OFFSET:-0.017000;
#SAMPLESTART:64.017387;
#SAMPLELENGTH:18.857140;
#SELECTABLE:YES;
#BPMS:0.000=105.000;
#STOPS:;
#DELAYS:;
#WARPS:;
#TIMESIGNATURES:0.000=4=4;
#TICKCOUNTS:0.000=2;
#COMBOS:0.000=1;
#SPEEDS:0.000=1.000=0.000=0;
#SCROLLS:0.000=1.000;
#FAKES:;
#LABELS:0.000=Song Start;
#LASTSECONDHINT:110.914520;
#BGCHANGES:0.000=Solo-video.avi=1.000=0=0=1=====,
99999=-nosongbg-=1.000=0=0=0 // don't automatically add -songbackground-
;
#KEYSOUNDS:;
#ATTACKS:
;

//---------------dance-single - ----------------
#NOTEDATA:;
#CHARTNAME:;
#STEPSTYPE:dance-single;
#DESCRIPTION:;
#CHARTSTYLE:;
#DIFFICULTY:Hard;
#METER:8;
#RADARVALUES:0.391347,0.409567,0.000000,0.170653,0.134726,305.000000,305.000000,0.000000,19.000000,0.000000,0.000000,0.000000,0.000000,0.000000,0.391347,0.409567,0.000000,0.170653,0.134726,305.000000,305.000000,0.000000,19.000000,0.000000,0.000000,0.000000,0.000000,0.000000;
#CREDIT:;
#NOTES:
// measure 0
0000
0000
0000
0000
,  // measure 1
0000
0000
0000
0000
,  // measure 2
0000
0000
0000
0000
,  // measure 3
0000
0000
0000
0000
,  // measure 4
1000
0000
0000
0000
0001
0000
0000
0000
1000
0100
1000
0100
1000
0000
0001
0000
,  // measure 5
0100
0000
0001
0000
0100
0000
0000
0000
0001
1000
0001
1000
0001
0000
0010
0000
,  // measure 6
0100
0010
0100
0000
1000
0100
0010
0001
,  // measure 7
1000
0001
0100
0010
,  // measure 8
0100
0000
0000
0000
0001
0000
0000
0000
1000
0001
1000
0001
1000
0000
0100
0000
,  // measure 9
0010
0000
0001
0000
0010
0000
0000
0000
0100
1000
0100
1000
0100
0000
0010
0000
,  // measure 10
0001
0100
0001
0000
1000
0010
0100
0001
,  // measure 11
1000
0000
0001
0000
0100
0000
0010
1000
,  // measure 12
0200
0000
0300
0000
1000
0001
0100
0010
,  // measure 13
0100
0001
0100
0000
0010
1000
0001
1000
,  // measure 14
0100
1000
0100
0000
0010
0001
0100
0010
,  // measure 15
1000
0001
0010
0010
,  // measure 16
0100
1000
0100
0000
0010
0001
1000
0001
,  // measure 17
0100
0010
0100
0000
0001
1000
0010
0100
,  // measure 18
0001
0000
1000
0100
1000
0000
0001
0100
,  // measure 19
0020
0000
2030
0000
3002
0000
0103
0010
,  // measure 20
0100
0100
0100
0001
1000
0001
1000
0000
,  // measure 21
0010
0010
0010
1000
0001
1000
0001
0000
,  // measure 22
1000
1000
1000
0100
0010
0001
0100
0010
,  // measure 23
1000
0000
0000
0001
0000
0000
0010
0000
0100
0000
0000
0000
1000
0000
0100
0000
,  // measure 24
0010
0010
0010
0001
1000
0001
1000
0000
,  // measure 25
0001
0001
0001
0100
0010
0100
0010
0000
,  // measure 26
1000
1000
1000
0001
0010
0100
1000
0001
,  // measure 27
0010
0000
0000
0001
0000
0000
1000
0000
0020
0000
0000
0000
0230
0000
0000
0000
,  // measure 28
0301
0000
0100
0000
1000
0000
0100
0000
0001
0000
0100
0000
0010
1000
0010
0000
,  // measure 29
0100
0000
1000
0000
0100
0000
0001
0000
1000
0001
1000
0000
0010
0000
1000
0000
,  // measure 30
0001
0000
0010
0000
0001
0000
1000
0000
0001
0000
0100
0000
0010
0100
0010
0000
,  // measure 31
1000
0000
0000
0100
0000
0000
0010
0000
0002
0000
0000
0000
2003
0000
0000
0000
,  // measure 32
3100
0000
0010
0000
0001
0000
0010
0000
0100
0000
1000
0000
0001
0010
0001
0000
,  // measure 33
1000
0000
0010
0000
1000
0000
0001
0000
1000
0100
1000
0000
0001
0000
1000
0000
,  // measure 34
0010
0000
0100
0000
0001
0000
0100
0000
0010
0000
1000
0000
0001
0010
0001
0000
,  // measure 35
0010
0000
0000
0100
0000
0000
1000
0000
0002
0000
0000
0000
2003
0000
0000
0000
,  // measure 36
3100
0000
0001
0000
0100
0000
1000
0000
0001
0000
1000
0000
0010
1000
0010
0000
,  // measure 37
0100
0000
0001
0000
1000
0000
0001
0000
0100
0010
0100
0000
0001
0000
1000
0000
,  // measure 38
0010
0000
1000
0000
0001
0000
1000
0000
0100
0000
0001
0000
0100
0010
0100
0000
,  // measure 39
0010
0000
0000
0001
0000
0000
1000
0000
0020
0000
0000
0000
0230
0000
0000
0000
,  // measure 40
0301
0000
0100
0000
1000
0000
0100
0000
0001
0000
1000
0000
0001
0010
0001
0000
,  // measure 41
1000
0000
0100
0000
0001
0000
0100
0000
1000
0100
1000
0000
0010
0000
1000
0000
,  // measure 42
0001
0000
1000
0000
0010
0000
1000
0000
0001
0000
0100
0000
0010
0100
0010
0000
,  // measure 43
1000
0000
0000
0100
0000
0000
0010
0000
0002
0000
0000
0000
2003
0000
0000
0000
,  // measure 44
3100
0000
0000
0000
0020
0000
0000
0000
0000
0000
0000
0000
0030
0001
1000
0001
,  // measure 45
0200
0000
0000
0000
0000
0000
0000
0000
0300
0000
0000
0000
0010
0000
1000
0010
,  // measure 46
2000
0000
0000
0000
0000
0000
3000
0001
,  // measure 47
0010
0000
0000
0100
0000
0000
1000
0000
0002
0000
0000
0000
2003
0000
0000
0000
,  // measure 48
3100
0000
0000
0000
;

//---------------dance-single - ----------------
#NOTEDATA:;
#CHARTNAME:;
#STEPSTYPE:dance-single;
#DESCRIPTION:;
#CHARTSTYLE:;
#DIFFICULTY:Medium;
#METER:5;
#RADARVALUES:0.251489,0.280230,0.000000,0.143708,0.000000,196.000000,196.000000,0.000000,16.000000,0.000000,0.000000,0.000000,0.000000,0.000000,0.251489,0.280230,0.000000,0.143708,0.000000,196.000000,196.000000,0.000000,16.000000,0.000000,0.000000,0.000000,0.000000,0.000000;
#CREDIT:;
#NOTES:
0000
0000
0000
0000
,
0000
0000
0000
0000
,
0000
0000
0000
0000
,
0000
0000
0000
0000
,
1000
0000
0100
0000
0010
0100
0010
0000
,
0001
0000
0100
0000
0010
0100
0010
0000
,
1000
0000
0001
0000
0010
0010
0010
0000
,
0001
1000
0100
0010
,
0001
0000
1000
0000
0100
0100
0100
0000
,
1000
0000
0001
0000
0100
0100
0100
0000
,
0010
0000
1000
0000
0001
0001
0001
0000
,
0010
0100
1000
0001
,
0020
0000
0031
0100
,
0020
0000
1030
0001
,
2000
0000
3100
0010
,
0002
0000
1003
0010
,
2000
0000
3100
0010
,
0002
0000
1003
0001
,
0200
0000
0320
0000
,
1030
0010
0200
0300
,
0010
0010
0010
0000
1000
0000
0001
0000
,
0010
0010
0010
0000
0100
0000
1000
0000
,
0010
0010
0010
0000
1000
0000
0100
0000
,
0010
0001
0200
0300
,
0001
0001
0001
0000
0100
0000
0010
0000
,
1000
1000
1000
0000
0100
0000
0010
0000
,
0100
0100
0100
0000
0010
0000
0001
0000
,
2000
3000
0002
0003
,
0100
0001
0100
0001
0010
0000
0010
0000
,
0100
1000
0100
1000
0010
0000
0010
0000
,
1000
0001
0100
0010
1000
0000
0001
0000
,
0010
0100
1000
0001
,
0010
0001
0010
0001
1000
0000
0010
0000
,
1000
0100
1000
0100
0010
0000
0001
0000
,
1000
0010
1000
0010
0100
0000
0001
0000
,
1000
0010
0100
0001
,
1000
0001
1000
0010
1000
0000
0001
0000
,
0010
0001
0010
0001
1000
0000
0001
0000
,
0100
0001
1000
0001
0100
0000
0010
0000
,
1000
0100
0010
0001
,
1000
0100
1000
0001
1000
0000
0100
0000
,
0010
0001
1000
0001
0010
0000
0100
0000
,
0010
0001
0100
0001
0010
0000
0100
0000
,
1000
0100
0010
0100
1000
0000
0001
0000
,
2000
0000
0000
0000
,
3010
0100
0001
1000
,
0020
0000
0000
0000
,
0130
0000
0002
2003
,
3100
0000
0000
0000
;

//---------------dance-single - ----------------
#NOTEDATA:;
#CHARTNAME:;
#STEPSTYPE:dance-single;
#DESCRIPTION:;
#CHARTSTYLE:;
#DIFFICULTY:Easy;
#METER:2;
#RADARVALUES:0.150123,0.168857,0.000000,0.000000,0.000000,117.000000,117.000000,0.000000,0.000000,0.000000,0.000000,0.000000,0.000000,0.000000,0.150123,0.168857,0.000000,0.000000,0.000000,117.000000,117.000000,0.000000,0.000000,0.000000,0.000000,0.000000,0.000000,0.000000;
#CREDIT:;
#NOTES:
0000
0000
0000
0000
,
0000
0000
0000
0000
,
0000
0000
0000
0000
,
0000
0000
0000
0000
,
1000
1000
0100
0000
,
0001
0001
0001
0000
,
0010
0010
0100
0000
,
1000
0000
0001
0000
,
0100
0000
0010
0010
,
1000
0000
0100
0100
,
0100
0000
0010
0010
,
0001
0000
1000
0000
,
0001
0000
0100
0100
,
0010
0000
1000
1000
,
0100
0000
0010
0010
,
0010
0000
0000
0001
,
0001
0000
1000
1000
,
1000
0000
0010
0010
,
0100
0000
0001
0000
,
1000
0000
0000
0000
,
0010
0010
1000
0100
,
1000
0000
0001
0001
,
0010
0100
0010
0000
,
0001
0000
1000
0000
,
0100
0100
1000
0001
,
1000
0000
0010
0100
,
0010
0010
1000
0001
,
1000
0000
0000
0000
,
0001
0001
0010
0000
,
1000
0000
0100
0000
,
0010
0010
0100
0000
,
1000
1000
1000
0001
,
0100
0000
0000
0000
,
0010
0010
1000
0000
,
0001
0010
0001
0000
,
0100
0100
0100
0001
,
1000
0000
0100
0000
,
0010
0000
0001
0001
,
1000
0000
0010
0000
,
0100
0100
0100
0010
,
1000
0000
0100
0000
,
0010
0010
0100
0000
,
1000
1000
0010
0000
,
0100
0100
0100
0001
,
1000
0000
0000
0000
,
0001
0000
0000
0010
,
0100
0000
0000
0000
,
1000
0000
0000
0000
;

//---------------dance-single - ----------------
#NOTEDATA:;
#CHARTNAME:;
#STEPSTYPE:dance-single;
#DESCRIPTION:;
#CHARTSTYLE:;
#DIFFICULTY:Beginner;
#METER:1;
#RADARVALUES:0.103932,0.105535,0.000000,0.000000,0.000000,81.000000,81.000000,0.000000,0.000000,0.000000,0.000000,0.000000,0.000000,0.000000,0.103932,0.105535,0.000000,0.000000,0.000000,81.000000,81.000000,0.000000,0.000000,0.000000,0.000000,0.000000,0.000000,0.000000;
#CREDIT:;
#NOTES:
0000
0000
0000
0000
,
0000
0000
0000
0000
,
0000
0000
0000
0000
,
0000
0000
0000
0000
,
1000
0000
0100
0000
,
0001
0000
0001
0000
,
0010
0000
0100
0000
,
1000
0000
0001
0000
,
0100
0000
0010
0000
,
1000
0000
0100
0000
,
0100
0000
0010
0000
,
0001
0000
1000
0000
,
0001
0000
0100
0000
,
0010
0000
1000
0000
,
0100
0000
0010
0000
,
0010
0000
0000
0000
,
0001
0000
1000
0000
,
1000
0000
0010
0000
,
0100
0000
0001
0000
,
1000
0000
0000
0000
,
0010
0000
1000
0000
,
0100
0000
0010
0000
,
0001
0000
0010
0000
,
0001
0000
1000
0000
,
0100
0000
1000
0000
,
0001
0000
0010
0000
,
0100
0000
1000
0000
,
0001
0000
0000
0000
,
0100
0000
0010
0000
,
1000
0000
0100
0000
,
0010
0000
0100
0000
,
1000
0000
1000
0000
,
0100
0000
0000
0000
,
0010
0000
0001
0000
,
1000
0000
1000
0000
,
0010
0000
0100
0000
,
0001
0000
0100
0000
,
0010
0000
0001
0000
,
1000
0000
0010
0000
,
0100
0000
0100
0000
,
1000
0000
0100
0000
,
0010
0000
0100
0000
,
1000
0000
0010
0000
,
0100
0000
0001
0000
,
1000
0000
0000
0000
,
0001
0000
0000
0010
,
0010
0000
0000
0000
,
0100
0000
0000
0000
;
