#TITLE:Snowbound;
#SUBTITLE:-Challenge-;
#ARTIST:bLiNd;
#TITLETRANSLIT:;
#SUBTITLETRANSLIT:;
#ARTISTTRANSLIT:;
#GENRE:EarthBound;
#CREDIT:;
#BANNER:Snowbound [A]-bn.png;
#BACKGROUND:Snowbound [A]-bg.png;
#LYRICSPATH:;
#CDTITLE:;
#MUSIC:Snowbound [A].mp3;
#OFFSET:0.036000;
#SAMPLESTART:94.760002;
#SAMPLELENGTH:12.000000;
#SELECTABLE:YES;
#BPMS:0.000000=36.240002
,4.000000=36.799999
,15.000000=38.000000
,15.250000=40.000000
,15.500000=44.599998
,15.750000=139.940002
;
#STOPS:
;
#BGCHANGES:;
#KEYSOUNDS:;
#ATTACKS:;

//---------------dance-single - ----------------
#NOTES:
     dance-single:
     :
     Challenge:
     10:
     0.648801,0.743057,0.326064,0.395935,0.819042,585.000000,543.000000,42.000000,51.000000,0.000000,0.000000,0.648801,0.743057,0.326064,0.395935,0.819042,585.000000,543.000000,42.000000,51.000000,0.000000,0.000000:
// measure 0
0000
0000
0000
0000
,  // measure 1
0020
0000
1030
0100
0010
0001
0200
0000
2300
0000
3200
0000
0302
0000
0013
0100
1000
0001
0200
0000
2300
0000
3200
0000
,  // measure 2
0302
0000
0100
0000
0103
0000
2000
0000
0100
0000
3100
0000
0002
0000
0013
0100
1000
0010
0200
0000
2300
0000
3020
0000
,  // measure 3
0230
0000
0000
0000
1300
0000
0010
0000
0100
0000
0001
0000
0020
0000
0000
0000
0230
0000
0000
0000
0302
0000
0000
0000
0023
0000
0000
0000
1000
0000
0000
0000
1030
0000
0000
0000
0002
0000
0000
0000
0000
0000
0000
0000
0000
1003
0000
0000
,  // measure 4
0010
0000
0100
0000
2001
0000
0000
0001
0000
0000
0001
0000
0000
0100
0000
0000
,  // measure 5
3001
0000
0000
0000
1002
0000
0000
0100
0000
0000
1000
0000
0000
0100
0000
0000
,  // measure 6
1003
0000
0100
0000
2000
0000
0000
0100
0000
0000
0001
0000
0000
0010
0000
0000
,  // measure 7
3001
0000
0000
0000
0002
0000
0000
0100
0000
0000
1000
0000
0000
0010
0000
0000
,  // measure 8
1003
0010
2000
0000
0000
0001
0000
0100
,  // measure 9
3100
0000
0002
0000
0000
1000
0000
0100
,  // measure 10
0103
0000
0020
0000
0000
1000
0000
0001
,  // measure 11
0130
0000
0200
0000
0000
0001
0000
1000
,  // measure 12
0310
0000
0000
0000
0101
0000
0100
1000
0000
0100
0001
0000
0010
1000
0000
0010
,  // measure 13
0001
0010
0000
0000
1000
0000
0100
0001
0000
0100
1000
0000
0010
0001
0000
0010
,  // measure 14
1000
0010
0000
0000
1000
0000
0100
0010
0000
1000
0010
0000
0100
1000
0000
0100
,  // measure 15
0010
1000
0000
0000
0010
0000
0100
1000
0000
0001
0100
0000
0010
0001
0000
0010
,  // measure 16
0100
0001
0000
0000
0100
0000
0000
0020
2000
0030
0200
3000
0020
0300
0002
0030
,  // measure 17
1000
0003
0101
0000
0002
0000
0000
0000
0000
0000
0010
0000
0003
0000
0100
0000
,  // measure 18
1001
0000
1200
0000
0000
0001
0000
1000
,  // measure 19
0310
0000
0021
0000
0000
1000
0000
0100
,  // measure 20
0031
0000
0000
0000
0110
0000
0000
0100
1000
0000
0010
0100
0000
1000
0100
0000
,  // measure 21
0001
0100
0000
0000
0110
0000
0000
0010
0001
0000
0010
1000
0000
0010
0001
0000
,  // measure 22
0010
1000
0000
0000
0110
0000
0000
0100
1000
0000
0100
0001
0000
0100
1000
0000
,  // measure 23
0100
0010
0000
0000
0110
0000
0000
0100
0001
0000
0100
1000
0000
0100
0010
0000
,  // measure 24
1000
0010
0000
0000
1010
0000
0000
0020
0200
0030
0002
0300
0020
0003
0200
0030
,  // measure 25
1000
0310
0110
0000
0000
1100
0000
0002
,  // measure 26
0100
0003
0101
0000
0000
1001
0000
2000
,  // measure 27
0100
3000
0011
0000
0000
0020
0000
1000
,  // measure 28
0031
0000
0000
0000
0010
0001
0100
0010
0000
0100
0001
0000
1000
0100
0000
0010
,  // measure 29
0001
0100
0010
0100
0001
0010
0100
0010
0000
0100
1000
0000
0010
0100
0000
0001
,  // measure 30
1000
0100
1000
0001
1000
0010
0100
0001
0000
1000
0100
0000
0010
0001
0000
1000
,  // measure 31
0010
0100
0001
0100
0010
1000
0100
1000
0000
0001
0100
0000
0010
1000
0000
0100
,  // measure 32
0010
0001
1000
0010
1000
0100
0010
0100
0000
1000
0100
0000
0010
0001
0000
0010
,  // measure 33
0100
1000
0001
0100
0010
0100
0001
0100
0000
0010
1000
0000
0100
0010
0000
0001
,  // measure 34
0100
0010
0100
0001
1000
0100
0010
0001
0000
1000
0010
0000
1000
0001
0000
0100
,  // measure 35
0010
0100
0001
0010
0100
1000
0010
1000
0000
0100
0010
0000
0001
1000
0000
0010
,  // measure 36
0100
0001
0100
0010
1000
0000
0000
0110
0000
0000
1100
0000
0100
0010
0000
0001
,  // measure 37
0000
0011
0000
0000
1001
0000
0000
0101
0000
0000
1100
0000
1000
0010
0000
1000
,  // measure 38
0000
0100
0010
0000
0011
0000
0000
0101
0000
0000
1001
0000
0001
1000
0000
0100
,  // measure 39
0000
1100
0000
0000
1001
0000
0000
0101
0000
0000
0110
0000
0100
0001
0000
1000
,  // measure 40
0000
0100
0010
0000
1001
0000
0000
2000
0010
0000
0001
0000
0100
0000
3100
0000
,  // measure 41
1100
0000
1001
0000
0100
0000
0010
0100
0010
0000
1000
0010
1000
0000
0001
0000
,  // measure 42
0110
0000
1001
0000
0001
0000
1000
0100
1000
0000
0001
0010
0001
0000
0100
0000
,  // measure 43
0110
0000
1001
0000
0100
0000
0010
0000
1000
0000
0100
0000
0010
0001
0010
0000
,  // measure 44
0100
0000
1000
0100
2000
0000
3100
0010
0001
0100
0010
0000
2000
0000
3001
0010
,  // measure 45
0001
0100
0010
0000
0200
0000
0301
1000
0100
1000
0001
0000
0020
0000
0031
0000
,  // measure 46
0110
0000
1100
0000
1001
0000
0100
0001
0100
0010
1000
0000
0110
0000
0010
1000
,  // measure 47
0010
0100
0001
0000
1000
0000
0100
0000
0010
0000
0001
0000
0010
0000
0100
0000
,  // measure 48
1000
0000
0001
0000
1000
0000
0010
0100
0001
0000
0010
0000
0001
0000
0010
0100
,  // measure 49
1000
0000
0010
0000
1000
0000
0100
0010
0001
0000
0100
0000
0001
0000
0100
0010
,  // measure 50
1000
0000
0100
0000
1000
0000
0010
1000
0001
0000
0010
0000
0001
0000
0010
0001
,  // measure 51
1000
0000
0100
0000
1000
0000
0010
1000
0001
0000
0010
0000
0001
0000
0100
0000
,  // measure 52
0010
0000
0000
0100
0000
0000
0001
0000
0000
0000
0010
0000
0100
0000
1000
0000
0010
0000
0100
0000
1000
0000
0100
0000
,  // measure 53
0010
0100
0001
1000
0000
0010
0100
1000
0100
0010
0100
0001
,  // measure 54
0010
0100
1000
0001
0000
1000
0010
0001
0010
0100
0001
0100
,  // measure 55
1000
0100
0010
1000
0000
0010
0001
0010
1000
0100
0010
0100
,  // measure 56
1000
0000
0001
0000
0100
0000
0010
0000
1000
0010
1000
0000
0001
0000
0000
0100
0000
0000
0001
0000
0100
0010
0100
0000
,  // measure 57
0001
0000
0000
0010
0000
0000
0100
0000
1000
0100
1000
0000
0010
0000
0000
0100
0000
0000
0001
0000
1000
0001
1000
0000
,  // measure 58
0010
0000
0000
0100
0000
0000
0001
0000
1000
0001
1000
0000
0100
0000
0000
0010
0000
0000
0001
0000
0100
0010
0100
0000
,  // measure 59
0001
0000
0000
1000
0000
0000
0100
0000
0010
0100
0010
0000
0100
0000
0000
1000
0000
0000
0001
0000
0000
0100
0000
0000
,  // measure 60
0001
1000
2002
0000
0000
0000
0000
0000
,  // measure 61
0000
0000
0000
3003
;
