#VERSION:0.81;
#TITLE:Sleepyhead;
#SUBTITLE:(Instrumental);
#ARTIST:Passion Pit;
#TITLETRANSLIT:;
#SUBTITLETRANSLIT:;
#ARTISTTRANSLIT:;
#GENRE:Chunk of Change;
#ORIGIN:;
#CREDIT:;
#BANNER:Sleepyhead (Instrumental)-bn.png;
#BACKGROUND:Sleepyhead (Instrumental)-bg.png;
#PREVIEWVID:;
#JACKET:;
#CDIMAGE:;
#DISCIMAGE:;
#LYRICSPATH:;
#CDTITLE:;
#MUSIC:Sleepyhead (Instrumental).mp3;
#OFFSET:-6.830000;
#SAMPLESTART:63.428001;
#SAMPLELENGTH:18.112000;
#SELECTABLE:YES;
#BPMS:0.000=106.010;
#STOPS:;
#DELAYS:;
#WARPS:;
#TIMESIGNATURES:0.000=4=4,
180.000=3=4,
183.000=4=4;
#TICKCOUNTS:0.000=4;
#COMBOS:0.000=1;
#SPEEDS:0.000=1.000=0.000=0;
#SCROLLS:0.000=1.000;
#FAKES:;
#LABELS:0.000=Song Start;
#BGCHANGES:;
#KEYSOUNDS:;
#ATTACKS:
;

//---------------dance-single - Blank----------------
#NOTEDATA:;
#CHARTNAME:;
#STEPSTYPE:dance-single;
#DESCRIPTION:Blank;
#CHARTSTYLE:;
#DIFFICULTY:Hard;
#METER:8;
#RADARVALUES:0.469227,0.445766,0.110908,0.546010,0.085314,308.000000,13.000000,64.000000,0.000000,0.000000,0.000000,0.000000,0.000000,0.469227,0.445766,0.110908,0.546010,0.085314,308.000000,13.000000,64.000000,0.000000,0.000000,0.000000,0.000000,0.000000;
#CREDIT:;
#OFFSET:-6.830000;
#BPMS:0.000000=106.010002
;
#STOPS:;
#DELAYS:;
#WARPS:;
#TIMESIGNATURES:0.000000=4=4
;
#TICKCOUNTS:0.000000=4
;
#COMBOS:0.000000=1
;
#SPEEDS:0.000000=1.000000=0.000000=0
;
#SCROLLS:0.000000=1.000000
;
#FAKES:;
#LABELS:0.000000=Song Start
;
#NOTES:
0000
0000
0000
0000
,
0010
0000
1000
0100
0110
0000
0010
0001
,
0100
0000
0000
0000
0010
0000
1000
0100
0000
1000
0000
0001
1000
0000
0001
0000
,
0010
0000
0001
0100
0110
0000
0010
1000
,
0100
0000
0000
0000
0010
0000
0001
0100
0001
0000
1000
0000
1001
0000
0000
0000
,
2010
0000
3001
1000
0100
0000
1000
0100
,
0001
0010
0001
0100
2000
0000
3010
1000
,
0001
0000
0010
0100
2000
0000
3010
0100
,
0001
0000
0100
0010
0000
0000
2010
0000
0000
0000
3002
0000
0000
0010
0003
0010
,
0002
0000
1003
0001
0100
0000
0001
0100
,
1000
0010
1000
0100
0002
0000
0013
0001
,
1000
0000
0001
1000
0200
0000
1300
0001
,
0200
0000
0000
0000
0301
0000
1000
0001
0100
0000
0010
0000
1001
0000
0000
0000
,
2000
0000
3010
1000
0002
0000
0013
0001
,
1000
0010
0001
0100
2000
0000
0000
0000
,
3002
0000
0013
0001
2000
0000
3010
1000
,
0001
0010
1000
0100
0002
0000
0000
0000
,
2003
0000
3020
2030
3002
0000
0023
0032
,
2003
3020
0032
0203
2300
0000
0000
0000
,
3002
0000
0023
0032
2003
0000
3020
2030
,
3001
0010
1000
0100
0001
0010
1000
0100
,
0110
0000
0010
0000
0001
0000
1000
0000
0001
0000
0100
0010
1000
0002
0000
0000
,
1003
0010
0100
0001
0100
0010
2002
0000
,
3003
0000
0001
0000
1000
0000
0100
0000
0010
0000
0001
0100
0010
1000
0000
0000
,
0010
1000
0100
0010
0001
1000
2002
0000
,
3003
0000
1000
0000
0100
0000
0010
0000
0001
0000
0010
0100
1000
0000
0000
0000
,
0001
0100
0010
1000
0010
0100
0001
0000
,
0000
0000
1000
0000
0001
0000
0100
0000
0010
0000
1000
0001
0100
0000
0000
0000
,
0010
0100
0001
1000
0010
0100
0001
0000
,
2000
0000
3010
1000
0200
0000
0310
0001
,
0100
1000
0010
0001
2000
0000
0000
0000
,
3002
0000
0013
0001
0200
0000
0310
1000
,
0100
0001
0010
1000
0002
0000
0000
0000
,
2003
0000
3020
2030
3200
0000
0302
0023
,
2030
3002
0203
2300
3020
0000
0000
0000
,
0230
0000
2300
3020
0032
0000
2003
3200
,
0310
1000
0100
0001
0010
1000
0100
0001
,
1000
0010
0001
0100
2000
0000
3001
0000
,
1001
0000
0001
0000
1000
0000
0100
0000
0010
0000
0001
1000
0010
0100
0000
0000
,
0001
0100
1000
0100
0010
1000
1100
0000
,
1000
0000
0100
0000
0010
0000
0001
0000
1000
0000
0010
0100
0001
1000
0000
0000
,
0010
0100
0001
0010
0100
1000
1001
0000
,
0000
0000
1000
0000
0100
0000
0001
0000
1000
0000
0010
0001
1000
0000
0000
0000
,
0010
1000
0001
0100
0010
0100
1001
0000
,
0000
0000
0001
0000
0100
0000
1000
0000
0001
0000
0010
1000
0001
0000
0000
0000
,
0010
0100
1000
0010
0001
0100
2000
0000
,
3010
1000
0002
0000
0013
0001
1000
0010
,
0001
0100
2000
0000
3000
0000
0000
0000
;

//---------------dance-single - Blank----------------
#NOTEDATA:;
#CHARTNAME:;
#STEPSTYPE:dance-single;
#DESCRIPTION:Blank;
#CHARTSTYLE:;
#DIFFICULTY:Medium;
#METER:6;
#RADARVALUES:0.313224,0.282176,0.179159,0.264474,0.000000,205.000000,21.000000,31.000000,0.000000,0.000000,0.000000,0.000000,0.000000,0.313224,0.282176,0.179159,0.264474,0.000000,205.000000,21.000000,31.000000,0.000000,0.000000,0.000000,0.000000,0.000000;
#CREDIT:;
#OFFSET:-6.830000;
#BPMS:0.000000=106.010002
;
#STOPS:;
#DELAYS:;
#WARPS:;
#TIMESIGNATURES:0.000000=4=4
,180.000000=3=4
,183.000000=4=4
;
#TICKCOUNTS:0.000000=4
;
#COMBOS:0.000000=1
;
#SPEEDS:0.000000=1.000000=0.000000=0
;
#SCROLLS:0.000000=1.000000
;
#FAKES:;
#LABELS:0.000000=Song Start
;
#NOTES:
0000
0000
0000
0000
,
0001
0001
1000
1000
,
0001
0001
1000
1000
,
0001
0000
1000
0001
1000
0000
0001
1000
,
0001
0000
1000
0001
1000
0000
0001
1000
,
0002
0000
0013
0001
0010
0000
0001
0000
,
1000
0010
0220
0330
,
0010
1000
0001
0100
,
0010
1000
0100
0001
,
2000
0000
3010
1000
0010
0000
0100
0000
,
0001
0010
0220
0330
,
0010
0001
1000
0100
,
0010
0001
0100
1000
,
0002
1000
2003
0001
,
3001
1000
2002
3003
,
2000
0001
3002
1000
,
1003
0001
2002
3003
,
0010
1000
0010
0110
,
0100
0001
2002
3003
,
0001
0010
0100
0110
,
0200
0320
0230
0320
,
0031
0000
0100
0000
0010
1000
0100
0000
,
1000
0100
0001
0000
0010
0000
1001
0000
,
0001
0000
0100
0000
0010
0100
0001
0000
,
1000
0100
0010
0000
0100
0000
1001
0000
,
0000
1000
0010
0100
0001
0000
1000
0000
,
0000
0001
0010
0100
1000
0000
0001
0000
,
0000
1000
0100
1000
0100
0000
0101
0000
,
0000
0001
0010
0001
0010
0000
1010
0000
,
0010
2000
3100
0002
,
0013
0000
0100
0010
0001
0000
0000
0000
,
0010
0002
0103
2000
,
3010
0000
0100
0010
1000
0000
0000
0000
,
0001
0101
1000
1100
,
0001
0000
1000
0001
0100
0000
0000
0000
,
1000
1100
0001
0101
,
2000
3002
2003
3002
,
0023
0230
2000
3300
,
1100
0000
0001
0000
1000
0001
0100
0000
,
0010
1000
0100
0000
0010
0000
1001
0000
,
0010
0000
0001
0000
1000
0001
0100
0000
,
0010
1000
0100
0000
0010
0000
1001
0000
,
0000
0001
0100
0010
1000
0000
1100
0000
,
0000
1000
0010
0100
0001
0000
0011
0000
,
0000
0001
1000
0010
1000
0000
1001
0000
,
0000
1000
0001
0010
0001
0000
1000
0000
,
0010
1000
0001
0000
0010
0001
1000
0000
,
0010
0001
0100
0000
0000
0000
0000
0000
;

//---------------dance-single - Blank----------------
#NOTEDATA:;
#CHARTNAME:;
#STEPSTYPE:dance-single;
#DESCRIPTION:Blank;
#CHARTSTYLE:;
#DIFFICULTY:Easy;
#METER:3;
#RADARVALUES:0.199879,0.161244,0.136502,0.298599,0.000000,113.000000,16.000000,35.000000,0.000000,0.000000,0.000000,0.000000,0.000000,0.199879,0.161244,0.136502,0.298599,0.000000,113.000000,16.000000,35.000000,0.000000,0.000000,0.000000,0.000000,0.000000;
#CREDIT:;
#OFFSET:-6.830000;
#BPMS:0.000000=106.010002
;
#STOPS:;
#DELAYS:;
#WARPS:;
#TIMESIGNATURES:0.000000=4=4
,180.000000=3=4
,183.000000=4=4
;
#TICKCOUNTS:0.000000=4
;
#COMBOS:0.000000=1
;
#SPEEDS:0.000000=1.000000=0.000000=0
;
#SCROLLS:0.000000=1.000000
;
#FAKES:;
#LABELS:0.000000=Song Start
;
#NOTES:
// measure 0
0000
0000
0000
0000
,  // measure 1
0001
0000
1000
0000
,  // measure 2
0001
0000
1000
0000
,  // measure 3
0001
0001
1000
1000
,  // measure 4
0001
0001
1000
1000
,  // measure 5
0020
0030
0200
0300
,  // measure 6
0001
0010
0100
1000
,  // measure 7
0002
0003
2000
3000
,  // measure 8
0020
0030
0200
0300
,  // measure 9
0002
0003
2000
3000
,  // measure 10
0010
0100
0001
1000
,  // measure 11
0020
0030
0200
0300
,  // measure 12
0002
0003
2000
3000
,  // measure 13
0020
0000
0130
0000
,  // measure 14
0001
0100
0001
0000
,  // measure 15
0020
0000
0130
0000
,  // measure 16
1000
0100
1000
0000
,  // measure 17
0020
0000
0130
0000
,  // measure 18
0001
1000
0001
0000
,  // measure 19
0020
0000
0130
0000
,  // measure 20
1000
0001
1000
0001
,  // measure 21
0000
0010
0000
0011
,  // measure 22
0000
0100
0000
2002
,  // measure 23
3003
0100
0000
1100
,  // measure 24
0000
0010
0000
2002
,  // measure 25
3003
0010
0000
1010
,  // measure 26
0000
0010
0000
2002
,  // measure 27
3003
0010
0000
0011
,  // measure 28
0000
0010
0000
2002
,  // measure 29
3003
0000
0001
0000
,  // measure 30
1000
0001
0100
0000
,  // measure 31
0020
0000
1030
0000
,  // measure 32
0001
1000
0100
0000
,  // measure 33
0020
0000
0130
0000
,  // measure 34
1000
0010
0100
0000
,  // measure 35
0020
0000
0130
0000
,  // measure 36
0001
0010
0001
0010
,  // measure 37
0100
1000
0100
1000
,  // measure 38
0000
0010
0000
1100
,  // measure 39
0000
0100
0000
0220
,  // measure 40
0330
0010
0000
0101
,  // measure 41
0000
0100
0000
0220
,  // measure 42
0330
0001
0000
1010
,  // measure 43
0000
1000
0000
2002
,  // measure 44
3003
1000
0000
0011
,  // measure 45
0000
1000
0000
2002
,  // measure 46
3003
0001
0000
0010
,  // measure 47
0100
1000
0000
0000
;

//---------------dance-single - Blank----------------
#NOTEDATA:;
#CHARTNAME:;
#STEPSTYPE:dance-single;
#DESCRIPTION:Blank;
#CHARTSTYLE:;
#DIFFICULTY:Beginner;
#METER:1;
#RADARVALUES:0.082876,0.097045,0.017063,0.068251,0.000000,58.000000,2.000000,8.000000,0.000000,0.000000,0.000000,0.000000,0.000000,0.082876,0.097045,0.017063,0.068251,0.000000,58.000000,2.000000,8.000000,0.000000,0.000000,0.000000,0.000000,0.000000;
#CREDIT:;
#OFFSET:-6.830000;
#BPMS:0.000000=106.010002
;
#STOPS:;
#DELAYS:;
#WARPS:;
#TIMESIGNATURES:0.000000=4=4
,180.000000=3=4
,183.000000=4=4
;
#TICKCOUNTS:0.000000=4
;
#COMBOS:0.000000=1
;
#SPEEDS:0.000000=1.000000=0.000000=0
;
#SCROLLS:0.000000=1.000000
;
#FAKES:;
#LABELS:0.000000=Song Start
;
#NOTES:
0000
0000
0000
0000
,
0010
0000
0000
0000
,
0010
0000
0000
0000
,
0010
0000
0000
0000
,
0010
0000
0000
0000
,
0010
0000
0000
0000
,
0100
0000
0000
0000
,
0001
0000
0000
0000
,
1000
0000
0000
0000
,
0010
0000
0000
0000
,
1000
0000
0000
0000
,
0001
0000
0000
0000
,
0100
0000
0000
0000
,
0020
0000
0000
0000
,
0030
0000
0100
0000
,
0020
0000
0000
0000
,
0030
0000
0100
0000
,
0002
0000
0000
0000
,
0003
0000
1000
0000
,
0002
0000
0000
0000
,
0003
0000
0000
0000
,
1001
0000
0010
0000
,
1000
0000
0001
0000
,
1000
0000
0100
0000
,
0001
0000
1000
0000
,
0001
0000
0010
0000
,
0100
0000
1000
0000
,
0001
0000
0100
0000
,
0010
0000
1000
0000
,
0002
0000
0000
0000
,
0003
0000
0010
0000
,
2000
0000
0000
0000
,
3000
0000
0010
0000
,
0002
0000
0000
0000
,
0003
0000
0100
0000
,
2000
0000
0000
0000
,
3000
0000
0000
0000
,
0000
0000
0000
0000
,
1001
0000
0100
0000
,
0001
0000
1000
0000
,
0010
0000
0001
0000
,
1000
0000
0001
0000
,
0100
0000
1000
0000
,
0001
0000
1000
0000
,
0010
0000
0100
0000
,
0001
0000
1000
0000
;

//---------------dance-single - Blank----------------
#NOTEDATA:;
#CHARTNAME:;
#STEPSTYPE:dance-single;
#DESCRIPTION:Blank;
#CHARTSTYLE:;
#DIFFICULTY:Challenge;
#METER:8;
#RADARVALUES:0.482634,0.448112,0.315662,0.375382,0.089580,315.000000,37.000000,44.000000,0.000000,0.000000,4.000000,0.000000,0.000000,0.482634,0.448112,0.315662,0.375382,0.089580,315.000000,37.000000,44.000000,0.000000,0.000000,4.000000,0.000000,0.000000;
#CREDIT:;
#OFFSET:-6.830000;
#BPMS:0.000000=106.010002
;
#STOPS:;
#DELAYS:;
#WARPS:;
#TIMESIGNATURES:0.000000=4=4
,180.000000=3=4
,183.000000=4=4
;
#TICKCOUNTS:0.000000=4
;
#COMBOS:0.000000=1
;
#SPEEDS:0.000000=1.000000=0.000000=0
;
#SCROLLS:0.000000=1.000000
;
#FAKES:;
#LABELS:0.000000=Song Start
;
#NOTES:
0000
0000
0000
0000
,
0010
0000
0000
0000
1000
0000
0010
0100
0001
0000
0000
0000
1000
0000
0010
0100
,
0001
0000
0000
0000
1000
0000
0010
0100
0001
0000
1000
0000
0100
0000
0010
0100
,
1000
0000
0000
0000
0001
0000
0010
0100
1000
0000
0000
0000
0001
0000
0010
0100
,
1000
0000
0000
0000
0001
0000
0010
0100
1000
0000
0001
0000
0010
0000
0100
1000
,
0001
0000
0001
1000
0100
0000
1000
0100
,
0001
0010
0001
0100
2000
0000
3010
1000
,
0001
0000
0010
0100
2000
0000
3010
0100
,
0001
0000
0100
0010
0000
0000
2010
0000
0000
0000
3002
0000
0000
0010
0003
0010
,
0002
0000
1003
0001
0100
0000
0001
0100
,
1000
0010
1000
0100
0002
0000
0013
0001
,
1000
0000
0001
1000
0200
0000
1300
0001
,
0200
0000
0000
0000
0301
0000
1000
0001
0100
0000
0010
0000
1001
0000
0000
0000
,
2000
0000
3010
1000
0002
0000
0013
0001
,
1000
0010
0001
0100
2000
0000
0000
0000
,
3002
0000
0013
0001
2000
0000
3010
1000
,
0001
0010
1000
0100
0002
0000
0000
0000
,
2003
0000
3020
2030
3002
0000
0023
0032
,
2003
3020
0032
0203
2300
0000
0000
0000
,
3002
0000
0023
0032
2003
0000
3020
2030
,
3001
0010
1000
0100
0001
0010
1000
0100
,
0000
0000
0011
0000
1000
0000
0001
0000
0100
0000
0010
0100
0001
0000
1010
0000
,
0001
1000
0000
0011
1000
0001
1010
0000
,
0101
0000
1000
0000
0001
0000
0010
0000
0100
0000
0010
0001
0100
0000
1010
0000
,
0001
1000
0000
0101
1000
0001
1010
0000
,
0000
0000
1100
0000
0001
0000
1000
0000
0010
0000
1000
0100
0010
0000
0011
0000
,
1000
0001
0000
1100
0001
1000
0011
0000
,
0101
0000
0001
0000
1000
0000
0010
0000
0100
0000
0010
1000
0100
0000
0011
0000
,
1000
0001
0000
1010
0001
1000
0011
0000
,
2001
0000
3010
1000
0002
0000
0013
0001
,
0100
1000
0010
0001
2000
0000
0000
0000
,
3002
0000
0013
0001
2000
0000
3010
1000
,
0100
0001
0010
1000
0002
0000
0000
0003
,
1200
0000
0301
1000
0200
0000
0301
1000
,
0100
0000
0001
0000
0010
0000
1000
0000
0100
0000
0000
0000
0010
0000
0001
0100
,
0020
0000
1030
0100
0020
0000
1030
0100
,
0001
0010
1000
0100
0001
0010
1000
0100
,
0010
0000
0000
0001
0000
0000
0100
0000
0000
1000
0000
0000
0044
0000
0000
0000
0033
0000
4400
0000
0000
0000
3300
0000
,
0000
0000
1010
0000
0001
0000
1000
0000
0100
0000
0010
0100
1000
0000
0011
0000
,
1000
0001
0000
1010
0001
1000
0011
0000
,
1100
0000
0001
0000
1000
0000
0010
0000
0100
0000
0010
1000
0100
0000
0011
0000
,
1000
0001
0000
1100
0001
1000
0011
0000
,
0000
0000
0101
0000
1000
0000
0001
0000
0010
0000
0001
0100
0010
0000
1010
0000
,
0001
1000
0000
0101
1000
0001
1010
0000
,
1100
0000
1000
0000
0001
0000
0010
0000
0100
0000
0010
0001
0100
0000
1010
0000
,
0001
1000
0000
0011
1000
0001
2000
0000
,
3010
1000
0002
0000
0013
0001
1000
0010
,
0001
0100
2000
0000
0000
0000
3000
0000
;
