#VERSION:0.83;
#TITLE:Simple and Clean;
#SUBTITLE:(Planit B Remix);
#ARTIST:宇多田ひかる;
#TITLETRANSLIT:;
#SUBTITLETRANSLIT:;
#ARTISTTRANSLIT:Utada Hikaru;
#GENRE:Kingdom Hearts;
#ORIGIN:;
#TAGS:;
#CREDIT:[Ness];
#BANNER:Simple and Clean (Planit B remix).png;
#BACKGROUND:Black.png;
#PREVIEWVID:Simple and Clean (Plainit B Remix)-preview.avi;
#JACKET:Simple and Clean (Planit B remix)-jacket.png;
#CDIMAGE:;
#DISCIMAGE:Simple and Clean (Planit B remix)-bg.png;
#LYRICSPATH:;
#CDTITLE:;
#MUSIC:Simple and Clean (Plainit B Remix).mp3;
#OFFSET:-0.041000;
#SAMPLESTART:60.933205;
#SAMPLELENGTH:14.769230;
#SELECTABLE:YES;
#DISPLAYBPM:65.000000:130.000000;
#BPMS:0.000000=130.000000
,128.000000=65.000000
,130.000000=130.000000
;
#STOPS:;
#DELAYS:;
#WARPS:;
#TIMESIGNATURES:0.000000=4=4
;
#TICKCOUNTS:0.000000=4
;
#COMBOS:0.000000=1
;
#SPEEDS:0.000000=1.000000=0.000000=0
;
#SCROLLS:0.000000=1.000000
;
#XSCROLLS:0.000000=0.000000 ;
#FAKES:;
#LABELS:0.000000=Song Start
;
#BGCHANGES:-1.500=Simple and Clean (Plainit B Remix)-video.avi=1.000=0=0=1=====,
99999=-nosongbg-=1.000=0=0=0 // don't automatically add -songbackground-
;
#KEYSOUNDS:;
#ATTACKS:
;

//---------------dance-single - [Ness]----------------
#NOTEDATA:;
#CHARTNAME:[Ness];
#CHARTHASH:2063751988;
#STEPSTYPE:dance-single;
#BANNER:;
#DESCRIPTION:[Ness];
#CHARTSTYLE:;
#DIFFICULTY:Beginner;
#METER:1;
#METERF:0.000000;
#LASTSECONDHINT:105.271759;
#RADARVALUES:0.137670,0.155567,0.009178,0.321231,0.000000,105.000000,104.000000,1.000000,35.000000,0.000000,0.000000,0.000000,0.000000,0.000000,0.137670,0.155567,0.009178,0.321231,0.000000,105.000000,104.000000,1.000000,35.000000,0.000000,0.000000,0.000000,0.000000,0.000000;
#CREDIT:[Ness];
#DISPLAYBPM:32.000000:130.000000;
#NOTES:
0000
0000
0000
0000
,
0000
0000
0000
0000
,
0000
0000
0000
0000
,
0000
0000
0000
0000
,
0001
0000
0010
0000
,
0100
0000
1000
0000
,
0010
0000
0100
0000
,
0002
0000
0003
0000
,
1000
0000
0010
0000
,
1000
0000
0010
0000
,
0100
0000
0001
0000
,
0100
0000
0001
0000
,
0010
0000
0001
0000
,
0010
0000
0001
0000
,
1000
0000
0100
0000
,
1000
0000
0100
0000
,
0010
0000
0010
0000
,
0001
0000
0001
0000
,
1000
0000
1000
0000
,
0010
0000
0010
0000
,
0100
0000
0100
0000
,
0001
0000
0001
0000
,
0010
0000
0100
0000
,
1000
0000
0001
0000
,
1000
0000
1000
0000
,
0100
0000
0100
0000
,
0002
0000
0003
0000
,
0020
0000
0030
0000
,
0200
0300
2000
3000
,
0020
0030
0200
0300
,
0002
0003
0002
0003
,
0020
0030
0200
0300
,
0000
0000
2000
3000
,
2000
3000
0001
0001
,
0002
0003
0200
0300
,
0200
0300
0010
0010
,
0020
0030
2000
3000
,
0200
0300
0020
0030
,
0002
0003
0200
0000
,
0000
0300
0020
0000
,
0000
0030
0002
0003
,
0002
0003
1000
1000
,
2000
3000
0200
0300
,
0200
0300
0010
0010
,
0020
0030
0002
0003
,
0200
0300
0020
0030
,
2000
3000
0200
0000
,
0000
0300
0020
0030
,
0010
0010
0010
0000
,
0001
0000
1000
0000
,
0010
0000
0100
0000
,
0001
0000
1000
0000
,
0100
0000
0010
0000
,
0001
0000
0100
0000
,
0010
0000
1000
0000
,
0001
0000
0010
0000
,
0100
0000
1001
0000
;

//---------------dance-single - [Ness]----------------
#NOTEDATA:;
#CHARTNAME:[Ness];
#CHARTHASH:2147483647;
#STEPSTYPE:dance-single;
#BANNER:;
#DESCRIPTION:[Ness];
#CHARTSTYLE:;
#DIFFICULTY:Easy;
#METER:3;
#METERF:0.000000;
#LASTSECONDHINT:105.271759;
#RADARVALUES:0.213717,0.233351,0.064246,0.431367,0.000000,163.000000,156.000000,7.000000,47.000000,0.000000,0.000000,0.000000,0.000000,0.000000,0.213717,0.233351,0.064246,0.431367,0.000000,163.000000,156.000000,7.000000,47.000000,0.000000,0.000000,0.000000,0.000000,0.000000;
#CREDIT:[Ness];
#DISPLAYBPM:32.000000:130.000000;
#NOTES:
0000
0000
0000
0000
,
0000
0000
0000
0000
,
0000
0000
0000
0000
,
0000
0000
0000
0000
,
0001
0001
0200
0300
,
1000
1000
0020
0030
,
0100
0001
0020
0030
,
0200
0000
0000
0300
,
2000
3000
0020
0030
,
2000
3000
0100
0010
,
0002
0003
0200
0300
,
0020
0030
1000
0001
,
0200
0300
0010
1000
,
0020
0030
0100
0001
,
2000
3000
0100
0100
,
0020
0030
0002
0003
,
1000
0100
1000
0100
,
0010
0001
0010
0001
,
0200
0300
0020
0030
,
1000
0001
1000
0001
,
2000
3000
0100
0010
,
0100
0010
0001
1000
,
0200
0300
0020
0030
,
0001
0100
0010
1000
,
0001
0000
0010
1001
,
0100
0000
0100
1001
,
0020
0000
0030
0100
,
0002
0000
0003
1000
,
0100
0001
0100
0000
,
0010
1000
0010
0000
,
1000
0000
0001
0000
,
0010
0001
1000
0100
,
0000
0000
2002
3000
,
0200
0303
1000
0100
,
0010
0001
2002
0003
,
0200
3300
0010
1000
,
0002
0003
0010
0100
,
0010
0100
1000
0001
,
1000
0001
0200
0300
,
0020
0030
1000
0100
,
0010
0001
2002
0003
,
0200
3300
0001
0100
,
0010
1000
2002
3000
,
0200
0303
0010
0001
,
2000
3000
0010
0100
,
0010
0100
0001
1000
,
0001
1000
0200
0300
,
0020
0030
0001
0100
,
0010
1000
0001
0001
,
0020
0030
0100
0100
,
2000
3000
0010
0100
,
0001
1000
0100
0010
,
0200
0300
0010
0010
,
0002
0003
1000
1000
,
0020
0030
0200
0300
,
0002
0003
0010
0100
,
1000
0001
1001
0000
;

//---------------dance-single - [Ness]----------------
#NOTEDATA:;
#CHARTNAME:[Ness];
#CHARTHASH:2147483647;
#STEPSTYPE:dance-single;
#BANNER:;
#DESCRIPTION:[Ness];
#CHARTSTYLE:;
#DIFFICULTY:Medium;
#METER:5;
#METERF:0.000000;
#LASTSECONDHINT:105.271759;
#RADARVALUES:0.266162,0.337063,0.036712,0.293697,0.027534,203.000000,199.000000,4.000000,32.000000,0.000000,0.000000,0.000000,0.000000,0.000000,0.266162,0.337063,0.036712,0.293697,0.027534,203.000000,199.000000,4.000000,32.000000,0.000000,0.000000,0.000000,0.000000,0.000000;
#CREDIT:[Ness];
#DISPLAYBPM:32.000000:130.000000;
#NOTES:
0000
0000
0000
0000
,
0000
0000
0000
0000
,
0000
0000
0000
0000
,
0000
0000
0000
0000
,
0001
0100
0001
0000
0010
0000
0010
0000
,
0100
1000
0010
0100
,
0010
1000
0100
0100
,
0020
0000
0000
0030
,
0001
1000
0100
0010
,
0100
1000
0001
0100
,
0010
1000
0100
1000
,
0010
0100
0001
0010
,
0001
0100
0010
1000
,
0100
0010
0100
1000
,
0001
0000
0010
0000
0100
1000
0001
0000
,
0100
0010
0100
0000
,
0010
1000
0100
1100
,
0010
0001
0100
0101
,
2000
3000
0002
0003
,
0010
0100
0010
0001
,
0200
0300
0020
0030
,
1000
0100
0010
0001
,
2000
3000
0002
0003
,
1000
0010
0100
1001
,
0001
0000
0000
0100
0000
0000
0001
0000
0000
0001
0000
0000
0001
0000
0000
0000
,
1000
0000
0000
0010
0000
0000
1000
0000
0000
1000
0000
0000
1000
0000
0000
0000
,
0200
0000
0310
0001
,
0100
0000
0010
0000
1000
0001
1000
0000
,
0100
0000
0000
0100
0000
0000
0100
0000
0010
0000
0000
0000
0001
0000
0000
0000
,
0100
0000
0000
0001
0000
0000
0100
0000
0001
0000
0000
0000
1000
0000
0000
0000
,
0020
0030
0200
0300
,
0002
0003
0010
0100
,
1000
0000
0001
0020
,
0200
0330
1000
0010
,
0100
0001
1000
0010
0100
0000
0002
0000
,
0020
0033
0100
2000
,
0002
3003
0200
0000
,
0020
0330
1000
0001
,
0100
0010
2000
0000
,
0002
3003
0010
0100
,
2000
3001
0010
0002
,
2000
3003
0100
0010
,
1000
0010
0100
0001
1000
0000
0020
0000
,
0200
0330
0001
2000
,
0200
3300
2000
0000
,
0002
3003
0100
0010
,
1000
0001
0200
0000
,
0020
0330
0001
1000
,
0100
0000
0100
0000
0001
0100
0001
0000
,
0010
0010
0100
1000
,
0010
0100
0010
1000
,
0100
0100
0010
0001
,
1000
0001
1000
0000
0001
0010
0001
0000
,
1000
1000
0010
0100
,
0001
0000
0010
0000
0100
0000
1000
0100
,
1000
0000
0001
0100
0001
0000
0010
0000
,
0100
1000
0100
0000
1001
0000
0000
0000
;

//---------------dance-single - [Ness]----------------
#NOTEDATA:;
#CHARTNAME:[Ness];
#CHARTHASH:2001518681;
#STEPSTYPE:dance-single;
#BANNER:;
#DESCRIPTION:[Ness];
#CHARTSTYLE:;
#DIFFICULTY:Hard;
#METER:8;
#METERF:0.000000;
#LASTSECONDHINT:105.271759;
#RADARVALUES:0.426122,0.440774,0.110136,0.192738,0.206505,325.000000,313.000000,12.000000,21.000000,0.000000,0.000000,0.000000,0.000000,0.000000,0.426122,0.440774,0.110136,0.192738,0.206505,325.000000,313.000000,12.000000,21.000000,0.000000,0.000000,0.000000,0.000000,0.000000;
#CREDIT:[Ness];
#DISPLAYBPM:32.000000:130.000000;
#NOTES:
0000
0000
0000
0000
,
0000
0000
0000
0000
,
0000
0000
0000
0000
,
0000
0000
0000
0000
,
0001
0100
0000
0000
0010
0000
0000
1000
0000
1000
0001
0000
0100
0000
0000
0000
,
0010
0000
0000
0000
1000
0000
0000
0100
0000
0000
0100
0000
0010
0000
0001
0000
,
1000
0010
1000
0000
0001
0100
0001
0000
,
0220
0300
0200
0330
,
0100
0000
1000
0000
0001
1000
0100
0000
,
0010
0001
0100
0000
0010
0000
1000
0010
,
0100
0000
0001
0000
0010
0100
0010
0001
,
1000
0000
0100
0010
0100
0000
1000
0010
,
0100
0001
0010
0110
,
1001
0000
0100
0010
0100
0000
1000
0100
,
0001
0000
0100
0000
0010
0100
0010
0001
,
1000
0100
1000
0100
1000
0100
1000
0000
,
0001
0000
0010
0000
0100
0000
1000
0000
0010
0000
0100
0001
0000
0000
0100
0000
,
0000
0001
0010
0100
1000
0010
0100
0001
,
1000
0000
0010
0100
0001
0010
0100
0000
,
0010
0001
1000
0100
0010
0100
1000
0001
,
0010
0000
0000
0000
0100
0000
1000
0001
0000
0000
0100
0000
0000
0010
0000
0000
,
1000
0000
0000
1000
0100
0000
0000
0100
0010
0000
0000
0010
0001
0000
0000
0001
,
1000
0000
0010
1000
0001
0000
0010
0001
,
0100
0000
0000
0010
0000
0000
1000
0000
0001
0000
0000
0000
1001
0000
0000
0000
,
0001
0000
0000
0100
0000
0000
1000
0000
0000
0100
0000
0000
0101
0000
0000
0000
,
1000
0000
0000
0010
0000
0000
0100
0000
0000
0010
0000
0000
1010
0000
0000
0000
,
0002
0000
0010
0000
0100
0000
1003
0001
,
2000
0000
0100
0000
3010
0100
0001
0000
,
0020
0000
0000
0001
0000
0000
0031
0000
2000
0000
0000
0100
0000
0000
3100
0000
,
0010
0000
0000
0001
0000
0000
0100
0000
0010
0000
0000
1000
0000
0000
0001
0000
,
0200
0000
0000
0000
0300
0000
0001
1000
0000
0000
0000
0000
0100
0000
0010
0000
,
0002
0000
0000
0000
1003
0000
0010
0100
0000
0000
0001
0000
0000
1000
0000
0000
,
0000
0000
2001
0100
,
3001
0000
1100
0000
0001
0100
1000
0100
,
0001
0100
1000
0100
0002
0000
1000
0000
,
0103
0000
0000
0000
0001
0100
0001
0000
0010
0000
0000
0100
0000
1000
0000
0001
,
0000
0000
0000
0000
0100
0000
0010
0000
1000
0000
0000
0100
0000
0000
0010
0000
,
0001
0000
0000
0100
0000
0000
0010
0000
1000
0000
0010
0000
0100
0000
0001
0000
,
1000
0010
0100
0001
0020
0000
0130
1000
,
0200
0000
0310
0001
2000
0000
3020
0000
,
0130
0000
0000
0001
0000
0000
1000
0000
1002
0000
0000
0000
0100
0000
0000
0000
,
2000
0000
0000
0000
3003
0000
0000
0000
1000
0000
0000
0001
0000
0000
0100
0000
,
0100
0010
1000
0100
2000
0000
0001
0000
,
3100
0000
0000
0000
1000
0100
1000
0000
0010
0000
0000
0100
0000
0001
0000
1000
,
0000
0000
0000
0000
0100
0000
0010
0000
0001
0000
0000
0100
0000
0000
0010
0000
,
1000
0000
0000
0100
0000
0000
0010
0000
0001
0000
0010
0000
0100
0000
1000
0000
,
0001
1000
0001
0100
0020
0000
1030
0010
,
2000
3100
0020
0031
,
0011
0000
0000
0000
0011
0000
0000
0000
0001
0100
0000
0000
0010
0000
0000
1000
,
0000
1000
0001
0000
0100
0000
0000
0000
0010
0000
0000
0000
1000
0000
0000
0100
,
0000
0100
0010
0001
1000
0010
1000
0000
,
0001
0100
0001
0000
0010
0100
1000
0001
,
0100
0000
0010
0000
1000
0000
1000
0000
0001
1000
0000
0000
0010
0000
0000
1000
,
0000
1000
0100
0000
0010
0000
0001
0000
0100
0000
0000
0000
0010
0000
0000
0100
,
0000
0001
0010
0100
1000
0010
1000
0000
,
0001
0010
0001
0000
1000
0100
0010
0001
,
0100
0010
0100
0000
1001
0000
0000
0000
;
