#VERSION:0.83;
#TITLE:Shine;
#SUBTITLE:;
#ARTIST:Late Night Alumni;
#TITLETRANSLIT:;
#SUBTITLETRANSLIT:;
#ARTISTTRANSLIT:;
#GENRE:The Beat Becomes A Sound;
#ORIGIN:;
#CREDIT:;
#BANNER:Shine-bn.png;
#BACKGROUND:Shine-bg.png;
#PREVIEWVID:;
#JACKET:Shine-jacket.png;
#CDIMAGE:;
#DISCIMAGE:;
#LYRICSPATH:Shine-lyric.lrc;
#CDTITLE:;
#MUSIC:Shine.mp3;
#OFFSET:-0.035000;
#SAMPLESTART:37.513000;
#SAMPLELENGTH:15.000000;
#SELECTABLE:YES;
#DISPLAYBPM:128.000000;
#BPMS:0.000=128.000,
160.000=32.000,
162.000=128.000;
#STOPS:;
#DELAYS:;
#WARPS:;
#TIMESIGNATURES:0.000=4=4,
160.000=2=4,
162.000=4=4;
#TICKCOUNTS:0.000=2;
#COMBOS:0.000=1;
#SPEEDS:0.000=1.000=0.000=0;
#SCROLLS:0.000=1.000;
#FAKES:;
#LABELS:0.000=Song Start;
#BGCHANGES:;
#KEYSOUNDS:;
#ATTACKS:
;

//---------------dance-single - ----------------
#NOTEDATA:;
#CHARTNAME:;
#STEPSTYPE:dance-single;
#DESCRIPTION:;
#CHARTSTYLE:;
#DIFFICULTY:Challenge;
#METER:9;
#RADARVALUES:0.582290,0.700862,0.231690,0.677908,0.231690,475.000000,448.000000,27.000000,79.000000,0.000000,0.000000,10.000000,0.000000,0.000000,0.582290,0.700862,0.231690,0.677908,0.231690,475.000000,448.000000,27.000000,79.000000,0.000000,0.000000,10.000000,0.000000,0.000000;
#CREDIT:;
#DISPLAYBPM:128.000000;
#NOTES:
0000
0000
0000
0000
,
0000
0000
0000
0000
,
0000
0000
0000
0000
,
0000
0000
0000
0000
,
1000
1000
1000
1000
1000
1000
1000
1000
,
1000
1000
1000
1000
1000
1000
1000
1000
,
0001
0001
0001
0001
0001
0001
0001
0001
,
0100
0100
0100
0100
0100
0100
0100
0100
,
0010
0010
0010
0010
0010
0010
0010
0010
,
0010
0000
0010
0100
0010
0000
0010
1000
0010
0000
0010
0100
0010
0000
0010
0001
,
0010
0000
0010
0100
0010
0000
0010
1000
0010
0000
0010
0100
0010
0000
0010
0001
,
0010
0000
0010
0100
0010
0000
0010
1000
0010
0000
0000
0000
0000
0000
0000
0000
,
2002
0000
0000
0000
0000
0000
0000
0003
3200
0000
0000
0000
0000
0000
0000
0300
0120
0000
0000
0000
0000
0000
0000
0000
0032
0000
0000
0000
0000
0000
0000
0000
2003
0000
0000
0000
0000
0000
0000
0000
3002
0000
0000
0000
0000
0000
0000
0000
0100
0000
0000
0000
0000
0000
0000
0000
0203
0000
0000
0000
0000
0000
0000
0000
,
0000
0010
0000
0310
,
2000
0000
0000
0000
0000
0000
3020
0000
0000
0000
0000
0030
0210
0000
0000
0000
0000
0000
0302
0000
0000
0000
0000
0000
2003
0000
0000
0000
0000
0000
3200
0000
0000
0000
0000
0000
0010
0000
0000
0000
0000
0000
0320
0000
0000
0000
0000
0000
,
0000
0030
0001
0004
0403
0340
4030
3004
,
0003
0000
0000
0000
0000
0000
2000
0000
0000
0000
0000
3000
1200
0000
0000
0000
0000
0000
0320
0000
0000
0000
0000
0000
0230
0000
0000
0000
0000
0000
0000
0000
0000
0000
0000
0300
2100
0000
0000
0000
0000
0000
3002
0000
0000
0000
0000
0000
,
0000
2003
0001
3200
0000
0300
0100
0000
,
0000
0000
0000
0000
0000
0000
0020
0000
0000
0000
0000
0030
0012
0000
0000
0000
0000
0000
2003
0000
0000
0000
0000
0000
3020
0000
0000
0000
0000
0000
0000
0000
0000
0000
0000
0030
2010
0000
0000
0000
0000
0000
3002
0000
0000
0000
0000
0000
,
0000
0000
0000
0000
0000
0000
0003
0000
0000
0000
0000
0000
0010
0000
0000
0000
0000
0000
4000
0000
0000
0000
0000
0000
3400
0000
0000
0000
0000
0000
0340
0000
0000
0000
0000
0000
0034
0000
0000
0000
0000
0000
4003
0000
0000
0000
0000
3000
,
1001
0001
0100
0001
0010
0001
0100
0010
,
1000
0100
0001
0100
1000
0010
1000
0100
,
0010
0001
0010
0100
0010
0001
0010
0100
,
1000
0100
0010
0100
1000
0010
0100
0001
,
1000
0100
0001
0100
1000
0010
1000
0100
,
0001
0100
1000
0010
0100
0001
0100
0010
,
1000
0100
0010
0100
1000
0100
0010
0100
,
0010
0001
0100
0001
1000
0010
0100
0001
,
1000
0100
1100
0100
1000
0001
0101
0100
,
0010
1000
1010
0001
0010
0001
0101
0100
,
0010
0100
1001
0100
0010
1000
1010
0001
,
0100
0001
0110
0001
0010
0001
0110
0001
,
1000
0100
0001
0100
1000
0010
1000
0100
,
0001
0100
1000
0010
1000
0100
0010
0001
,
1000
0010
0100
0010
1000
0010
0100
0010
,
1000
0010
0100
0010
1000
0100
0010
0001
,
0100
0010
1000
0001
0100
0001
0010
0001
,
0100
0010
1000
0001
0100
0001
0010
0001
,
0100
0010
1000
0010
0100
0010
1000
0010
,
0100
0010
1000
0010
0100
0001
1000
0100
,
0020
0000
0000
0000
0032
0203
0302
0203
,
0320
2030
3020
2030
3200
2300
3200
2300
,
3002
0023
0230
2300
3020
0230
0302
0023
,
0230
2300
3020
0230
0302
0023
0230
2300
,
3020
0230
0302
0023
0230
2300
3200
2300
,
3002
0203
0302
0203
0320
2030
3020
2030
,
3002
0023
0230
2300
3020
0000
0000
0000
,
1000
0000
0001
0000
,
0100
0000
0000
0000
0030
0101
0100
0010
,
1000
0010
0100
0001
0000
0000
0001
0100
0000
0000
0101
0000
0100
0000
0010
0000
,
1000
0100
0010
0001
0000
0000
1000
0100
0000
0000
1100
0000
1000
0000
0010
0000
,
0100
0001
1000
0100
0000
0000
0100
0010
0000
0000
0110
0000
1000
0000
0010
0000
,
1000
0100
0010
0001
0000
0000
0001
1000
0000
0000
1001
0000
0100
0000
0010
0000
,
1000
0001
0100
0001
0000
0000
1000
0100
0000
0000
1100
0000
0001
0000
0010
0000
,
0001
1000
0100
0010
0000
0000
0100
1000
0000
0000
1100
0000
1000
0000
0010
0000
,
0100
0001
1000
0010
0000
0000
1000
0001
0000
0000
1001
0000
1000
0000
0010
0000
,
1000
0100
0010
0001
0000
0000
0001
0100
0000
0000
0101
0000
0100
0000
0010
1000
,
1000
0010
0100
0001
0000
0000
0001
0100
0000
0000
0101
0000
0100
0000
0010
1000
,
1000
0100
0010
0001
0000
0000
1000
0100
0000
0000
1100
0000
1000
0000
0010
0100
,
0100
0001
1000
0100
0000
0000
0100
0010
0000
0010
0001
1000
0100
0010
0001
1000
,
0100
0010
0001
1000
0100
0010
0001
0100
0010
0000
0000
0000
0000
0000
0000
0000
;

//---------------dance-single - ----------------
#NOTEDATA:;
#CHARTNAME:;
#STEPSTYPE:dance-single;
#DESCRIPTION:;
#CHARTSTYLE:;
#DIFFICULTY:Hard;
#METER:8;
#RADARVALUES:0.447444,0.466276,0.034324,0.223109,0.150169,365.000000,361.000000,4.000000,26.000000,0.000000,0.000000,0.000000,0.000000,0.000000,0.447444,0.466276,0.034324,0.223109,0.150169,365.000000,361.000000,4.000000,26.000000,0.000000,0.000000,0.000000,0.000000,0.000000;
#CREDIT:;
#DISPLAYBPM:128.000000;
#NOTES:
// measure 0
0000
0000
0000
0000
,  // measure 1
0000
0000
0000
0000
,  // measure 2
0000
0000
0000
0000
,  // measure 3
0000
0000
0000
0000
,  // measure 4
1000
0100
1000
0100
1000
0100
1000
0100
,  // measure 5
1000
0100
1000
0100
1000
0100
1000
0100
,  // measure 6
0010
0100
0010
0100
0010
0100
0010
0100
,  // measure 7
0010
0001
0010
0001
0010
0001
0010
0001
,  // measure 8
1000
0001
1000
0001
1000
0001
1000
0001
,  // measure 9
1000
0001
1000
0001
1000
0001
1000
0001
,  // measure 10
1000
0001
1000
0001
1000
0001
1000
0001
,  // measure 11
1000
0001
1000
0001
0100
0000
0000
0000
,  // measure 12
0001
1000
0010
0100
0001
1000
0000
0001
,  // measure 13
0000
0000
1001
0000
0100
0010
1000
0000
,  // measure 14
0001
1000
0100
0010
0001
1000
0000
1001
,  // measure 15
0000
0000
0000
0001
0100
0001
0010
1000
,  // measure 16
0000
0010
0100
0001
1000
0000
1000
0100
,  // measure 17
0000
0010
0000
0001
0000
1000
0001
0100
,  // measure 18
0000
0010
0100
0001
1000
0000
0100
0010
,  // measure 19
0000
0000
0000
0001
1000
0100
0010
0001
,  // measure 20
0000
0100
0001
1001
0000
0001
1000
0002
,  // measure 21
0000
0000
0013
0000
0001
1000
0100
0010
,  // measure 22
0200
0000
1300
0010
0000
1000
0100
0020
,  // measure 23
0000
0000
0031
0000
1000
0010
0100
0001
,  // measure 24
2000
0000
3010
0000
0100
0010
1000
0100
,  // measure 25
0010
0001
0200
0000
0301
0100
0010
1000
,  // measure 26
0002
0000
1003
0200
0000
0310
0001
0020
,  // measure 27
0000
0130
1000
0002
0000
1003
0001
1000
,  // measure 28
0001
0100
0001
0100
0001
0100
0001
0100
,  // measure 29
0001
0100
0001
0100
0001
0100
0001
0100
,  // measure 30
0010
1000
0010
1000
0010
1000
0010
1000
,  // measure 31
0001
1000
0001
1000
0001
1000
0001
1000
,  // measure 32
0001
1000
0100
1001
0000
1000
0001
2000
,  // measure 33
0000
0000
3010
0000
1000
0001
0100
0010
,  // measure 34
0200
0000
0301
0010
0000
0001
0100
0020
,  // measure 35
0000
0000
1030
0000
0001
0010
0100
1000
,  // measure 36
0002
0000
0013
0000
0100
0010
0001
0100
,  // measure 37
0010
1000
0200
0000
1300
0100
0010
0001
,  // measure 38
2000
0000
3001
0200
0000
0310
1000
0020
,  // measure 39
0000
0130
0001
2000
0000
3001
1000
0001
,  // measure 40
0200
0000
0000
0000
0310
1000
0200
0000
,  // measure 41
1300
0100
0020
0000
0130
1000
0002
0000
,  // measure 42
0103
0001
0100
0010
1000
0100
0010
0000
,  // measure 43
0001
0100
1000
0100
,  // measure 44
0001
0000
0010
0000
1000
0001
0020
0000
,  // measure 45
0031
0100
0020
0000
1030
0100
2000
0000
,  // measure 46
3001
0010
0100
1000
0001
1000
0002
0000
,  // measure 47
0000
0000
0000
0000
,  // measure 48
0000
0000
0000
0000
0003
1000
0100
0010
,  // measure 49
0001
0100
0000
0001
0000
0000
0000
1000
0000
0000
0001
0000
0100
0000
0010
0000
,  // measure 50
1000
0100
0000
1000
0000
0000
0000
0001
0000
0000
1000
0000
0010
0000
0100
0000
,  // measure 51
0001
0100
0000
0001
0000
0000
0000
1000
0000
0000
0001
0000
0010
0000
0100
0000
,  // measure 52
1000
0100
0000
1000
0000
0000
0000
0001
0000
0000
0001
0000
1000
0000
0010
0000
,  // measure 53
0100
1000
0000
0100
0000
0000
0000
0001
0000
0000
0100
0000
1000
0000
0010
0000
,  // measure 54
0001
1000
0000
0001
0000
0000
0000
0100
0000
0000
0001
0000
0010
0000
1000
0000
,  // measure 55
0100
1000
0000
0100
0000
0000
0000
0001
0000
0000
0100
0000
0010
0000
1000
0000
,  // measure 56
0001
1000
0000
0001
0000
0000
0000
0100
0000
0000
1000
0000
0100
0000
0010
0000
,  // measure 57
0001
0100
0001
0100
0000
0000
0000
0010
0000
0000
0100
0000
0001
0000
1000
0000
,  // measure 58
0010
1000
0010
1000
0000
0000
0000
0001
0000
0000
0010
0000
0100
0000
1000
0000
,  // measure 59
0001
0010
0001
0010
0000
0000
0000
0100
0000
0000
1000
0000
0010
0000
0100
0000
,  // measure 60
0001
0010
0001
0000
1000
0100
1000
0000
0000
0000
0000
0000
0000
0000
0000
0000
;

//---------------dance-single - ----------------
#NOTEDATA:;
#CHARTNAME:;
#STEPSTYPE:dance-single;
#DESCRIPTION:;
#CHARTSTYLE:;
#DIFFICULTY:Medium;
#METER:6;
#RADARVALUES:0.300339,0.336058,0.017162,0.077230,0.000000,245.000000,243.000000,2.000000,9.000000,0.000000,0.000000,0.000000,0.000000,0.000000,0.300339,0.336058,0.017162,0.077230,0.000000,245.000000,243.000000,2.000000,9.000000,0.000000,0.000000,0.000000,0.000000,0.000000;
#CREDIT:;
#DISPLAYBPM:128.000000;
#NOTES:
0000
0000
0000
0000
,
0000
0000
0000
0000
,
0000
0000
0000
0000
,
0000
0000
0000
0000
,
1000
0010
1000
0010
,
1000
0010
1000
0010
,
1000
0001
1000
0001
,
0100
0001
0100
0001
,
0010
0001
0010
0001
,
0010
0001
0010
0001
,
0010
0001
0010
0001
,
0010
0001
0010
0000
,
0001
0000
0100
0000
0010
1000
0100
0000
,
1000
0010
0100
0010
,
1000
0001
0100
0000
0001
1000
0001
0000
,
0010
0100
1000
0001
,
1000
0010
1000
0000
0001
0100
0001
0000
,
0010
0100
0010
0100
,
1000
0001
1000
0000
0010
1000
0001
0000
,
0010
0001
0100
0010
,
1001
0100
0001
0100
,
1000
0000
0100
0000
0001
0000
0100
0001
,
1000
0010
0001
0010
,
1000
0010
0001
0010
,
1000
0100
0001
0100
,
1000
0000
0100
0000
0001
0000
1000
0001
,
0100
0001
0010
1000
,
0010
0001
0100
1000
,
0100
0001
0100
0001
,
0100
0001
0100
0001
,
1000
0010
1000
0010
,
1000
0010
1000
0010
,
1001
1000
0100
0001
,
0100
0000
1000
0000
0100
0000
0001
1000
,
0010
0001
0010
1000
,
0010
0001
1000
0010
,
0001
0010
1000
0010
,
0001
0010
1000
0010
,
0100
0001
1000
0100
,
0001
0100
1000
0100
,
2000
0000
3002
0000
,
0023
0000
0230
0000
,
1300
0001
1000
0001
0000
0100
0200
0000
,
0000
0000
0300
0000
,
0000
0000
0020
0000
,
2030
0000
3002
0000
,
1003
0001
1000
0001
0000
0010
0020
0000
,
0000
0000
0030
0000
,
0000
0000
0001
0010
,
1000
0001
1000
0000
1000
0100
0001
0000
,
0001
0100
1000
0000
1000
1000
1000
0000
,
0001
0001
0001
0000
1000
0010
0001
0000
,
0001
0010
1000
0000
0001
0010
1000
0000
,
1000
0010
0100
0000
0100
0010
1000
0000
,
1000
0100
0001
0000
0001
0001
0001
0000
,
1000
1000
1000
0000
0001
0100
1000
0000
,
1000
0001
1000
0000
1000
0010
0001
0000
,
0001
1000
0001
0000
0001
0010
0001
0000
,
0010
1000
0100
0000
1000
0001
1000
0000
,
1000
0100
0001
0000
0001
0100
1000
0000
,
1000
0010
0100
0000
0000
0000
0000
0000
;

//---------------dance-single - ----------------
#NOTEDATA:;
#CHARTNAME:;
#STEPSTYPE:dance-single;
#DESCRIPTION:;
#CHARTSTYLE:;
#DIFFICULTY:Easy;
#METER:4;
#RADARVALUES:0.239045,0.232655,0.000000,0.102973,0.000000,195.000000,195.000000,0.000000,12.000000,0.000000,0.000000,0.000000,0.000000,0.000000,0.239045,0.232655,0.000000,0.102973,0.000000,195.000000,195.000000,0.000000,12.000000,0.000000,0.000000,0.000000,0.000000,0.000000;
#CREDIT:;
#DISPLAYBPM:128.000000;
#NOTES:
0000
0000
0000
0000
,
0000
0000
0000
0000
,
0000
0000
0000
0000
,
0000
0000
0000
0000
,
1000
1000
1000
1000
,
1000
1000
1000
1000
,
0001
0001
0001
0001
,
0100
0100
0100
0100
,
0010
0010
0010
0010
,
0010
0010
0010
0010
,
0010
0010
0010
0010
,
0010
0010
0010
0000
,
1000
0100
0010
0001
,
2000
0000
0000
0000
,
3001
0010
0100
1000
,
0002
0000
0000
0000
,
1003
0010
0100
0001
,
0010
0100
0020
0000
,
0031
0010
0100
1000
,
0020
0000
0000
0000
,
1030
0100
0010
0001
,
0010
0001
0010
0001
,
0100
0010
1000
0010
,
1000
0010
1000
0010
,
1000
0100
0010
0001
,
0010
0001
0010
0001
,
0100
0010
1000
0010
,
1000
0010
1000
0010
,
2000
0000
0000
0000
,
3001
0100
0010
1000
,
0002
0000
0000
0000
,
1003
0100
0010
0001
,
1000
0100
0001
0100
,
1000
0100
0001
0100
,
1000
0100
0001
0100
,
1000
0100
0001
0100
,
1000
0010
0001
0010
,
1000
0010
0001
0010
,
1000
0010
0001
0010
,
1000
0010
0001
0010
,
1000
0000
0002
0000
,
2003
0000
3200
0000
,
0310
0001
0100
0010
,
1000
0000
0001
0000
,
0100
0000
0020
0000
,
2030
0000
3200
0000
,
0310
0001
0100
0000
,
0010
0000
1000
0000
,
0001
0000
1000
1000
,
1000
0010
0001
0010
,
1000
0100
0001
0010
,
1000
0010
0001
0100
,
1000
0100
0001
0010
,
0100
1000
0100
1000
,
0010
0001
0010
1000
,
0100
0001
0100
1000
,
0100
1000
0010
0001
,
0010
1000
0100
0010
,
0001
0100
1000
0100
,
0001
0010
0100
1000
,
0010
0100
0000
0000
;

//---------------dance-single - ----------------
#NOTEDATA:;
#CHARTNAME:;
#STEPSTYPE:dance-single;
#DESCRIPTION:;
#CHARTSTYLE:;
#DIFFICULTY:Beginner;
#METER:2;
#RADARVALUES:0.138524,0.180954,0.008581,0.000000,0.000000,113.000000,112.000000,1.000000,0.000000,0.000000,0.000000,0.000000,0.000000,0.000000,0.138524,0.180954,0.008581,0.000000,0.000000,113.000000,112.000000,1.000000,0.000000,0.000000,0.000000,0.000000,0.000000,0.000000;
#CREDIT:;
#DISPLAYBPM:128.000000;
#NOTES:
0000
0000
0000
0000
,
0000
0000
0000
0000
,
0000
0000
0000
0000
,
0000
0000
0000
0000
,
1000
0000
0000
0000
,
0001
0000
0000
0000
,
0100
0000
0000
0000
,
0010
0000
0000
0000
,
1000
0000
0000
0000
,
0000
0000
0000
0000
,
0001
0000
0000
0000
,
0000
0000
0000
0000
,
1001
0000
0100
0000
,
0001
0000
0100
0000
,
0010
0000
1000
0000
,
0100
0000
0010
0000
,
0100
0000
1000
0000
,
0001
0000
1000
0000
,
0010
0000
1000
0000
,
0100
0000
0010
0000
,
0001
0001
0001
0000
,
1000
0000
0010
0000
,
1000
1000
1000
0000
,
0001
0000
0010
0000
,
0001
0001
0001
0000
,
1000
0000
0001
0000
,
0100
0100
0100
0000
,
0010
0000
0100
0000
,
0010
0000
0000
0000
,
1000
0000
0000
0000
,
0001
0000
0000
0000
,
0010
0000
0000
0000
,
0100
0000
0010
0000
,
0100
0000
0010
0000
,
0001
0000
0100
0000
,
0010
0000
1000
0000
,
0001
0000
0010
0000
,
0100
0000
1000
0000
,
0001
0000
1000
0000
,
0010
0000
0100
0000
,
0001
0000
0000
0000
,
1000
0000
0100
0000
,
0010
0000
0001
0000
,
0001
0000
0010
0000
,
0001
0000
1000
0000
,
1000
0000
0010
0000
,
1000
0000
0100
0000
,
0000
0000
0010
0000
,
0000
0000
0000
0001
,
0001
0001
0000
1000
,
1000
1000
0000
0010
,
0010
0010
0000
0100
,
0100
0100
0000
0010
,
0010
0010
0000
1000
,
1000
1000
0000
0001
,
0001
0001
0000
0100
,
0100
0100
0000
0010
,
0010
0010
0000
1000
,
1000
1000
0000
0001
,
0001
0001
0000
0100
,
0100
0100
0000
0000
;

//---------------dance-double - ----------------
#NOTEDATA:;
#CHARTNAME:;
#STEPSTYPE:dance-double;
#DESCRIPTION:;
#CHARTSTYLE:;
#DIFFICULTY:Challenge;
#METER:9;
#RADARVALUES:0.558998,0.674904,0.077230,0.643583,0.218818,456.000000,447.000000,9.000000,75.000000,0.000000,0.000000,10.000000,0.000000,0.000000,0.558998,0.674904,0.077230,0.643583,0.218818,456.000000,447.000000,9.000000,75.000000,0.000000,0.000000,10.000000,0.000000,0.000000;
#CREDIT:;
#DISPLAYBPM:128.000000;
#NOTES:
00000000
00000000
00000000
00000000
,
00000000
00000000
00000000
00000000
,
00000000
00000000
00000000
00000000
,
00000000
00000000
00000000
00000000
,
00000100
00000100
00000100
00000100
00000100
00000100
00000100
00000100
,
00000100
00000100
00000100
00000100
00000100
00000100
00000100
00000100
,
00000001
00000001
00000001
00000001
00000001
00000001
00000001
00000001
,
00001000
00001000
00001000
00001000
00001000
00001000
00001000
00001000
,
00000100
00000100
00000100
00000100
00000100
00000100
00000100
00000100
,
00000100
00000000
00000100
00010000
00001000
00000000
01000000
00010000
10000000
00000000
00100000
10000000
00010000
00000000
00100000
00010000
,
01000000
00000000
00010000
01000000
00100000
00000000
10000000
01000000
00100000
00000000
00001000
00010000
00000010
00000000
00000100
00000010
,
00001000
00000000
00000001
00000100
00000010
00000000
00000100
00000001
00002000
00000000
00000000
00000000
00000000
00000000
00000000
00000000
,
00003002
00000000
00000000
00000000
00000023
00000000
00000000
00000030
00000210
00000000
00000000
00000000
00020300
00000000
00000000
00000000
00032000
00000000
00000000
00000000
02003000
00000000
00000000
03000000
01200000
00000000
00000000
00000000
20300000
00000000
00000000
00000000
,
30020000
01000000
00000000
01030000
,
00200000
00000000
00000000
00000000
20300000
00000000
00000000
30000000
12000000
00000000
00000000
00000000
03200000
00000000
00000000
00000000
00302000
00000000
00000000
00000000
00023000
00000000
00000000
00030000
00010020
00000000
00000000
00000000
00000230
00000000
00000000
00000000
,
00000302
00000003
00000000
00004000
00003400
00040300
00034000
04003000
,
03000000
00000000
00000000
00000000
00200000
00000000
00000000
00300000
20100000
00000000
00000000
00000000
30020000
00000000
00000000
00000000
00230000
00000000
00000000
00000000
00300000
00000000
00000000
00000000
00102000
00000000
00000000
00000000
00023000
00000000
00000000
00000000
,
00030000
00000000
00000000
00000000
00000020
00000000
00000000
00000030
00002010
00000000
00000000
00000000
00003200
00000000
00000000
00000000
00000000
00000000
00000000
00000000
00000310
00000000
00000000
00000000
00000100
00000000
00000000
00000000
00000020
00000000
00000000
00000000
,
00000000
00000000
00000000
00000000
00000032
00000000
00000000
00000003
00000201
00000000
00000000
00000000
00000320
00000000
00000000
00000000
00020030
00000000
00000000
00000000
00032000
00000000
00000000
00003000
02001000
00000000
00000000
00000000
03200000
00000000
00000000
00000000
,
00000000
00300000
00000000
40000000
30040000
04030000
03004000
00003040
,
00000030
00000001
00001000
00000100
00010000
00001000
01000000
00100000
,
10000000
01000000
00100000
00001000
00010000
00000100
00000001
00000100
,
00000010
00000001
00000010
00001000
00000010
00000100
00010000
00001000
,
01000000
10000000
01000000
00010000
01000000
10000000
01000000
00100000
,
10000000
01000000
00100000
00001000
00010000
00000010
00000100
00000001
,
00000010
00000100
00010000
00001000
01000000
00100000
10000000
01000000
,
00100000
00010000
00100000
10000000
00100000
00010000
00001000
00000010
,
00000001
00000010
00001000
00000010
00000001
00000010
00001000
00000100
,
00001000
00000010
00001000
00000010
00001000
00000010
00001000
00000010
,
00010000
00001000
00010000
00001000
00010000
00001000
00010000
00001000
,
00100000
00010000
00100000
00010000
00100000
00010000
00100000
00010000
,
01000000
00100000
01000000
00100000
01000000
00100000
01000000
00100000
,
10000000
00100000
01000000
00001000
00010000
00000010
00000100
00000001
,
00000010
00000100
00010000
00001000
01000000
00100000
10000000
00010000
,
01000000
10000000
01000000
00010000
01000000
10000000
01000000
00010000
,
00001000
00000100
00000001
00000100
00001000
00000100
00000001
00000100
,
00001000
00000010
00000100
00000001
00000010
00000100
00000010
00000001
,
00001000
00000100
00000010
00000100
00010000
00001000
01000000
00100000
,
10000000
01000000
00010000
01000000
10000000
01000000
00010000
01000000
,
00100000
00001000
00010000
00000010
00000001
00000010
00001000
00000010
,
00000200
00000000
00000000
00000000
00000302
00000023
00000032
00000023
,
00000230
00020300
00030200
00020300
00032000
02003000
03002000
02003000
,
03020000
00230000
02300000
23000000
30200000
01000000
01300000
00000000
,
00020000
00100000
00130000
00000000
00002000
01000000
01003000
00000000
,
02000000
00010000
03010000
00000000
00020000
02030000
03020000
02030000
,
03200000
20300000
30200000
20300000
32000000
23000000
32000000
23000000
,
30020000
00230000
00302000
00023000
00030020
00000100
00000230
00000000
,
00000001
00000000
00000010
00000000
,
00001000
00000000
00000000
00000000
00000310
00010000
00001000
00100000
,
00010000
01000000
00010000
01000000
00000000
00000000
01000000
00100000
00000000
00000000
10000000
00000000
01000000
00000000
00100000
00000000
,
00001000
00010000
00001000
00010000
00000000
00000000
00000010
00000100
00000000
00000000
00000001
00000000
00000010
00000000
00000100
00000000
,
00001000
00000010
00001000
00000010
00000000
00000000
00010000
00001000
00000000
00000000
01000000
00000000
00010000
00000000
10000000
00000000
,
01000000
10000000
01000000
10000000
00000000
00000000
00010000
01000000
00000000
00000000
00001000
00000000
00010000
00000000
00000100
00000000
,
00000010
00000001
00000010
00000001
00000000
00000000
00001000
00000010
00000000
00000000
00001000
00000000
00000100
00000000
00010000
00000000
,
00001000
01000000
00001000
01000000
00000000
00000000
00100000
10000000
00000000
00000000
10000000
00000000
01000000
00000000
00100000
00000000
,
00001000
00010000
00001000
00010000
00000000
00000000
00000010
00000100
00000000
00000000
00000001
00000000
00000010
00000000
00000100
00000000
,
00001000
00000100
00001000
00000100
00000000
00000000
00010000
00001000
00000000
00000000
01000000
00000000
00100000
00000000
10000000
00000000
,
00010000
00100000
01000000
10000000
00000000
00000000
10000000
00010000
00000000
00000000
01000000
00000000
00001000
00000000
00010000
00000000
,
00000100
00000010
00000100
00001000
00000000
00000000
00000010
00001000
00000000
00000000
00000001
00000000
00000010
00000000
00000100
00000000
,
00001000
00000010
00010000
00001000
00000000
00000000
00010000
01000000
00100000
10000000
01000000
10000000
00100000
01000000
00010000
00100000
,
00001000
00010000
00000100
00010000
00001000
01000000
00100000
10000000
00010000
00000000
00000000
00000000
00000000
00000000
00000000
00000000
;

//---------------dance-double - ----------------
#NOTEDATA:;
#CHARTNAME:;
#STEPSTYPE:dance-double;
#DESCRIPTION:;
#CHARTSTYLE:;
#DIFFICULTY:Hard;
#METER:8;
#RADARVALUES:0.458477,0.466276,0.051487,0.334663,0.150169,374.000000,368.000000,6.000000,39.000000,0.000000,0.000000,0.000000,0.000000,0.000000,0.458477,0.466276,0.051487,0.334663,0.150169,374.000000,368.000000,6.000000,39.000000,0.000000,0.000000,0.000000,0.000000,0.000000;
#CREDIT:;
#DISPLAYBPM:128.000000;
#NOTES:
00000000
00000000
00000000
00000000
,
00000000
00000000
00000000
00000000
,
00000000
00000000
00000000
00000000
,
00000000
00000000
00000000
00000000
,
00000100
00001000
00000100
00001000
00000100
00001000
00000100
00001000
,
00000100
00001000
00000100
00001000
00000100
00001000
00000100
00001000
,
00000010
00010000
00000010
00010000
00000010
00010000
00000010
00010000
,
00001000
00010000
00001000
00010000
00001000
00010000
00001000
00010000
,
00001000
01000000
00001000
01000000
00001000
01000000
00001000
01000000
,
00010000
01000000
00100000
10000000
01000000
00100000
00001000
00010000
,
00000100
00000010
00000001
00000100
00000010
00001000
00000100
00010000
,
00001000
01000000
00100000
10000000
02000000
00000000
00000000
00000000
,
03100000
00001000
00010000
00001000
01000000
00200000
00000000
20300000
,
00000000
31000000
00100000
00001000
,
00010000
00000010
00000100
00000001
00000010
00000200
00000000
00000320
,
00000000
00000030
00000000
00000001
00000100
00000010
00002000
00000100
,
00003000
00001100
00000100
00010000
00002000
00000000
01003000
00100000
,
00000000
10000000
00010000
20000000
00000000
31000000
10000000
02000000
,
00000000
03100000
00001000
00010000
00002000
00000000
01003000
00002000
,
00000000
00003000
00000000
00010000
00000010
00000100
00000001
00000020
,
00000000
00000031
00001000
00001001
00000000
00000100
00010000
00002000
,
00000000
01003000
00000000
01100000
00000000
00100000
10000000
01000000
,
00100000
00001000
00010000
00000020
00000000
00000130
00000001
00000200
,
00000000
00000310
00001000
00000100
00010000
00001000
00010000
00000000
,
00011000
00000000
00001000
01000000
00100000
10000000
01000000
00100000
,
00001000
00000000
00010000
00000000
00000100
00001000
00000010
00000100
,
00000002
00000000
00000013
00000200
00000000
00000310
00000001
00000020
,
00000000
00000031
00001000
00000002
00000000
00001003
00000100
00001000
,
00000100
00010000
00000100
00010000
00000100
00010000
00000100
00010000
,
00001000
00010000
00001000
00010000
00001000
00010000
00001000
00010000
,
00001000
01000000
00001000
01000000
00001000
01000000
00001000
01000000
,
00100000
01000000
00100000
01000000
00100000
01000000
00100000
01000000
,
00100000
10000000
00010000
20000000
00000000
31000000
00100000
00002000
,
00000000
01003000
00000000
01100000
00000000
01000000
00001000
00010000
,
00000100
00000010
00000001
00000200
00000000
00000310
00000100
00000002
,
00000000
00000013
00000100
00001000
00000010
00000200
00000000
00000301
,
00000010
00000002
00000000
00001003
00000010
00001000
00000100
00001000
,
00000010
00002000
00000000
00003100
00000000
00010000
00001000
01000000
,
00200000
00000000
10300000
00010000
10000000
00000000
11000000
00000000
,
01000000
00000000
00100000
00001000
00000000
00010000
00000000
00002000
,
00000000
00000000
00000000
00000000
01003000
00001000
00020000
00000000
,
00030100
00001000
00000020
00000000
00001030
00000100
00000020
00000000
,
00000031
00001000
00000010
00000100
00000001
00000010
00000002
00000000
,
00000103
00000010
00002000
00000000
00003100
00010000
00002000
00000000
,
01003000
00010000
20000000
00000000
30100000
10000000
02000000
00000000
,
03100000
01000000
20000000
00000000
30100000
10000000
00020000
00000000
,
00130000
00001000
00010000
00000010
00000100
00000010
00002000
00000000
,
00000001
00000000
00000100
00000000
,
00013000
00000000
00000000
00000000
00000000
00000100
00010000
00001000
,
01000000
00010000
00000000
01000000
00000000
00000000
00000000
00100000
00000000
00000000
10000000
00000000
01000000
00000000
10000000
00000000
,
00010000
10000000
00000000
01000000
00000000
00000000
00000000
00100000
00000000
00000000
00001000
00000000
00010000
00000000
00000010
00000000
,
00000100
00000001
00000000
00000100
00000000
00000000
00000000
00000010
00000000
00000000
00001000
00000000
00000100
00000000
00010000
00000000
,
00001000
00010000
00000000
00001000
00000000
00000000
00000000
01000000
00000000
00000000
00100000
00000000
10000000
00000000
01000000
00000000
,
10000000
00010000
00000000
10000000
00000000
00000000
00000000
00010000
00000000
00000000
00100000
00000000
00001000
00000000
00010000
00000000
,
00000010
00000100
00000000
00000010
00000000
00000000
00000000
00001000
00000000
00000000
00000001
00000000
00000010
00000000
00000100
00000000
,
00001000
00000100
00000000
00001000
00000000
00000000
00000000
00010000
00000000
00000000
00100000
00000000
00010000
00000000
01000000
00000000
,
00010000
10000000
00000000
00010000
00000000
00000000
00000000
01000000
00000000
00000000
00100000
00000000
10000000
00000000
01000000
00000000
,
10000000
01000000
10000000
01000000
00000000
00000000
00000000
00100000
00000000
00000000
00001000
00000000
00010000
00000000
00000010
00000000
,
00000100
00000010
00000100
00000010
00000000
00000000
00000000
00000100
00000000
00000000
00000001
00000000
00000010
00000000
00000100
00000000
,
00001000
00000100
00001000
00000100
00000000
00000000
00000000
00010000
00000000
00000000
00001000
00000000
01000000
00000000
00100000
00000000
,
10000000
00100000
10000000
00000000
00010000
01000000
00010000
00000000
00000000
00000000
00000000
00000000
00000000
00000000
00000000
00000000
;

//---------------dance-double - ----------------
#NOTEDATA:;
#CHARTNAME:;
#STEPSTYPE:dance-double;
#DESCRIPTION:;
#CHARTSTYLE:;
#DIFFICULTY:Medium;
#METER:6;
#RADARVALUES:0.302791,0.336058,0.017162,0.077230,0.000000,247.000000,245.000000,2.000000,9.000000,0.000000,0.000000,0.000000,0.000000,0.000000,0.302791,0.336058,0.017162,0.077230,0.000000,247.000000,245.000000,2.000000,9.000000,0.000000,0.000000,0.000000,0.000000,0.000000;
#CREDIT:;
#DISPLAYBPM:128.000000;
#NOTES:
00000000
00000000
00000000
00000000
,
00000000
00000000
00000000
00000000
,
00000000
00000000
00000000
00000000
,
00000000
00000000
00000000
00000000
,
00010000
01000000
00010000
01000000
,
00010000
01000000
00010000
01000000
,
00100000
10000000
00100000
10000000
,
00010000
10000000
00010000
10000000
,
00010000
00100000
00010000
00100000
,
00010000
00100000
00010000
00100000
,
00001000
00010000
00001000
00010000
,
00000010
00000100
00000010
00000000
,
00000100
00000000
00000001
00000000
00001000
00000001
00000100
00000000
,
00000010
00010000
00001000
01000000
,
00100000
10000000
01000000
00000000
10000000
01000000
00100000
00000000
,
00001000
01000000
00100000
10000000
,
00010000
00100000
00010000
00000000
10000000
01000000
10000000
00000000
,
00100000
01000000
00001000
00010000
,
00000100
00001000
00000100
00000000
00000010
00000001
00000010
00000000
,
00000100
00001000
00000010
00000100
,
00001001
00000100
00000001
00000100
,
00001000
00000000
00010000
00000000
01000000
00000000
10000000
01000000
,
10000000
00100000
00010000
00100000
,
10000000
00100000
00010000
00001000
,
00000010
00000100
00000001
00000100
,
00000010
00000000
00000100
00000000
00000001
00000000
00001000
00000100
,
00010000
00001000
00010000
00001000
,
01000000
00000000
00010000
00000000
10000000
00000000
00100000
10000000
,
01000000
10000000
01000000
10000000
,
00010000
01000000
00010000
01000000
,
00001000
00010000
00001000
00010000
,
00000100
00001000
00000100
00001000
,
00001001
00000100
00001000
00000100
,
00000001
00000000
00000100
00000000
00001000
00000000
00010000
00001000
,
00010000
01000000
10000000
01000000
,
00100000
00010000
00100000
10000000
,
00100000
00001000
00010000
00000010
,
00000100
00000000
00000001
00000000
00001000
00000000
00000001
00000100
,
00000001
00000010
00001000
00000010
,
00000001
00000100
00000010
00010000
,
00002000
00000000
02003000
00000000
,
03200000
00000000
20300000
00000000
,
30010000
10000000
00010000
10000000
00000000
01000000
02000000
00000000
,
00000000
00000000
03000000
00000000
,
00000000
00000000
00002000
00000000
,
00003020
00000000
00000230
00000000
,
00000301
00001000
00000001
00001000
00000000
00000100
00000200
00000000
,
00000000
00000000
00000300
00000000
,
00000000
00000000
00001000
00100000
,
00010000
01000000
00010000
00000000
10000000
10000000
10000000
00000000
,
00010000
00010000
00010000
00000000
00100000
00001000
00010000
00000000
,
00000010
00001000
00000100
00000000
00001000
00001000
00001000
00000000
,
00000010
00001000
00000001
00000000
00000001
00000100
00001000
00000000
,
00001000
00000100
00000001
00000000
00000010
00000100
00010000
00000000
,
00001000
01000000
00010000
00000000
10000000
10000000
10000000
00000000
,
00010000
00010000
00010000
00000000
00100000
00010000
10000000
00000000
,
10000000
01000000
00010000
00000000
00100000
00001000
00010000
00000000
,
00000010
00001000
00000010
00000000
00000100
00000001
00001000
00000000
,
00000100
00000100
00000100
00000000
00000010
00000100
00010000
00000000
,
00001000
01000000
00010000
00000000
10000000
00100000
00010000
00000000
,
00010000
00100000
10000000
00000000
00000000
00000000
00000000
00000000
;

//---------------dance-double - ----------------
#NOTEDATA:;
#CHARTNAME:;
#STEPSTYPE:dance-double;
#DESCRIPTION:;
#CHARTSTYLE:;
#DIFFICULTY:Easy;
#METER:4;
#RADARVALUES:0.242723,0.232655,0.008581,0.145879,0.000000,198.000000,197.000000,1.000000,17.000000,0.000000,0.000000,0.000000,0.000000,0.000000,0.242723,0.232655,0.008581,0.145879,0.000000,198.000000,197.000000,1.000000,17.000000,0.000000,0.000000,0.000000,0.000000,0.000000;
#CREDIT:;
#DISPLAYBPM:128.000000;
#NOTES:
00000000
00000000
00000000
00000000
,
00000000
00000000
00000000
00000000
,
00000000
00000000
00000000
00000000
,
00000000
00000000
00000000
00000000
,
00001000
00001000
00001000
00001000
,
00001000
00001000
00001000
00001000
,
01000000
01000000
01000000
01000000
,
00100000
00100000
00100000
00100000
,
10000000
10000000
10000000
10000000
,
10000000
01000000
00100000
00001000
,
00010000
00000100
00000010
00000001
,
00001000
00000001
00001000
00000000
,
00001001
00000001
00001000
00000100
,
00020000
00000000
00032000
00000000
,
01003000
00100000
10000000
01000000
,
00200000
00000000
02300000
00000000
,
13000000
00100000
01000000
00001000
,
00020000
00000000
00032000
00000000
,
01003000
00001000
00010000
00000100
,
00000020
00000000
00000032
00000000
,
00000103
00000010
00000100
00000010
,
00000100
00000001
00000100
00000001
,
00001000
00000100
00001000
00000100
,
00010000
00001000
00010000
00001000
,
01000000
00010000
01000000
00010000
,
10000000
01000000
10000000
01000000
,
00100000
00010000
00100000
00010000
,
10000000
00010000
10000000
00010000
,
02000000
00000000
00000000
00000000
,
03100000
10000000
00010000
01000000
,
00002000
00000000
00000000
00000000
,
00013000
00000100
00000010
00000001
,
00000100
00001000
00000100
00000001
,
00000100
00001000
01000000
00010000
,
01000000
10000000
01000000
00010000
,
00000100
00000001
00000100
00001000
,
00000100
00000001
00000100
00001000
,
01000000
10000000
01000000
00010000
,
10000000
01000000
00010000
01000000
,
10000000
01000000
00010000
01000000
,
20000000
00000000
30200000
00000000
,
20300000
00000000
32000000
00000000
,
03100000
00001000
00010000
00000100
,
00000010
00000000
00000001
00000000
,
00000100
00000000
00000020
00000000
,
00002030
00000000
00003200
00000000
,
00010300
00001000
01000000
00000000
,
00100000
00000000
10000000
00000000
,
00010000
00000000
10000000
01000000
,
00001000
00010000
00001000
00000100
,
00000001
00001000
00000001
00000100
,
00010000
00001000
00010000
01000000
,
10000000
00010000
10000000
00100000
,
00001000
00010000
00001000
00000010
,
00000001
00001000
00000001
00000010
,
00010000
00001000
00010000
00100000
,
10000000
00010000
10000000
01000000
,
00100000
00001000
00010000
00000010
,
00000100
00000001
00000001
00000010
,
00000100
00010000
00001000
00100000
,
01000000
10000000
00000000
00000000
;
