#TITLE:She Wolf;
#SUBTITLE:(Falling To Pieces);
#ARTIST:David Guetta ft. Sia;
#TITLETRANSLIT:;
#SUBTITLETRANSLIT:;
#ARTISTTRANSLIT:;
#GENRE:Nothing But The Beat 2.0;
#CREDIT:;
#BANNER:She Wolf (Falling To Pieces)-bn.png;
#BACKGROUND:Black.png;
#LYRICSPATH:;
#CDTITLE:;
#MUSIC:She Wolf (Falling To Pieces).mp3;
#OFFSET:-0.059000;
#SAMPLESTART:81.292000;
#SAMPLELENGTH:14.769000;
#LASTBEATHINT:244.000000;
#SELECTABLE:YES;
#BPMS:0.000000=130.000000
;
#STOPS:
;
#BGCHANGES:0.000=She Wolf-vid.avi=1.000=1=0=0=StretchNoLoop==CrossFade==,
99999=-nosongbg-=1.000=0=0=0 // don't automatically add -songbackground-
;
#KEYSOUNDS:;
#ATTACKS:;

//---------------dance-single - ----------------
#NOTES:
     dance-single:
     :
     Challenge:
     10:
     0.605131,0.838450,0.043669,0.323153,0.441060,485.000000,480.000000,5.000000,37.000000,40.000000,0.000000,0.605131,0.838450,0.043669,0.323153,0.441060,485.000000,480.000000,5.000000,37.000000,40.000000,0.000000:
0000
0000
0000
0000
,
0000
0000
0000
0000
,
0000
0000
0000
0000
,
0000
0000
0000
0000
,
1001
1000
1000
0001
0100
0010
1000
0002
,
0100
0100
0203
0010
0010
0310
2000
0001
,
0001
0001
3002
0010
0010
0013
0200
1000
,
2300
0010
3020
0001
0001
0001
0031
0010
,
1000
1000
1000
0001
0100
0010
1000
0002
,
0100
0100
0203
0010
0010
0310
2000
0001
,
0001
0001
3002
0010
0010
0013
0100
1000
,
0001
0001
2000
0010
0010
0010
3010
0200
,
0001
0001
0301
1000
0010
1000
0100
0020
,
0001
0001
0032
1000
1003
0010
0100
0002
,
1000
1000
2003
0100
0100
3100
0010
0001
,
0002
1000
2003
0100
0100
0100
3200
0010
,
0010
0010
0310
0001
1000
0010
0100
0002
,
1000
1000
2003
0010
3020
0100
0230
0001
,
0302
1000
1000
1000
1000
1000
1000
2003
,
0010
0010
3020
0100
0100
0230
0001
0301
,
2002
0000
3003
0001
1000
0010
0100
0001
,
2000
0000
3100
0010
0001
0010
0100
0000
,
2000
0000
3010
0001
0010
0000
1000
0000
,
0001
0100
0010
1000
0100
0010
0001
1000
,
0200
0000
0000
0000
0310
0001
0100
0000
,
0001
0000
1000
0010
0100
0001
0020
0000
,
0130
1000
0010
1000
0002
0000
1003
0010
,
0000
0010
1000
0100
0002
0000
0203
0000
,
1300
0000
0000
0000
1000
0000
0010
0000
0001
0000
0000
0010
1000
0000
0001
0000
,
0100
0000
0010
1000
0100
0000
0010
0001
,
1000
0000
0000
0001
0100
0000
0010
0000
1000
0000
0001
0000
0100
0000
0010
0000
,
1000
0010
0001
0010
1000
0100
0010
0001
,
1000
0000
0010
0000
0100
0001
1000
0010
,
0100
0010
1000
0000
0001
0100
0010
0000
,
1000
0000
0100
0000
0010
0100
1000
0001
,
0010
0100
0010
0001
1000
0100
0010
0001
,
1000
0000
0001
0000
0100
0000
0010
0100
,
0001
1000
0010
1000
0100
0010
0001
1000
,
0001
0100
0010
0000
1000
0000
0100
1000
,
0001
0100
0010
1000
0100
0010
0001
1000
,
0010
0010
0100
0100
0001
0001
1000
1000
,
0010
1000
0100
0010
0001
1000
0100
0010
,
0001
0100
0010
1000
0001
0100
0001
1000
0010
1000
0100
0010
0001
1000
0010
1000
,
0100
0010
0001
1000
0010
0100
0001
1000
0100
0010
0001
1000
0010
0000
0100
0000
,
0110
0000
0010
1000
0000
0100
0010
0001
0000
1000
0010
0000
1000
0001
0100
0000
,
0001
0000
1000
0010
0000
1000
0001
0010
0000
0001
1000
0000
0010
1000
0100
0000
,
0010
0000
0001
1000
0000
0100
0010
0001
0000
1000
0010
0000
1000
0001
0100
0000
,
0010
0000
1000
0010
0000
0100
0001
0010
0000
0001
1000
0000
0100
0010
0001
0000
,
1000
0000
0010
1000
0000
0001
0100
0010
0000
0100
0001
0000
1000
0010
0100
0000
,
0001
0000
0100
0010
0000
1000
0001
0010
0000
0001
1000
0000
0010
1000
0001
0000
,
0100
0000
0010
1000
0000
0001
0100
0010
0000
1000
0001
0000
1000
0001
0100
0000
,
0010
0000
0100
0001
0000
1000
0001
0100
0000
0010
1000
0000
0001
1000
0100
0000
,
011M
0000
0010
0100
000M
1000
0010
1M00
0000
0001
M100
0000
0010
1000
010M
0000
,
1000
00M0
0001
0100
M000
0010
0100
0001
0000
1000
0010
0M00
0001
0010
1000
000M
,
0100
0000
M010
0001
0000
1000
0M10
0001
0000
0M10
1000
0000
0001
M100
0010
0000
,
1000
00M0
0001
0100
0000
0010
100M
0100
0000
1000
00M1
0000
1000
01M0
0001
0000
,
M100
0000
M010
0001
0000
1M00
0010
0001
0M00
0010
1000
0000
0001
M100
0010
0000
,
1000
0M00
0001
0010
0M00
1000
0010
0M01
0000
1000
010M
0000
0010
0M01
1000
0000
,
00M1
0000
1000
0M10
0000
0001
0M10
1000
0000
00M1
0100
0000
001M
1000
0100
0000
,
10M0
0000
0001
01M0
0000
1000
01M0
0001
0000
1M00
001M
0000
0100
00M1
1000
0000
,
1MM1
0000
0000
0000
;

//---------------dance-single - ----------------
#NOTES:
     dance-single:
     :
     Hard:
     8:
     0.426711,0.524031,0.061137,0.131008,0.292584,342.000000,335.000000,7.000000,15.000000,0.000000,0.000000,0.426711,0.524031,0.061137,0.131008,0.292584,342.000000,335.000000,7.000000,15.000000,0.000000,0.000000:
// measure 0
0000
0000
0000
0000
,  // measure 1
0000
0000
0000
0000
,  // measure 2
0000
0000
0000
0000
,  // measure 3
0000
0000
0000
0000
,  // measure 4
1001
0000
0000
1000
0001
0100
0010
1000
,  // measure 5
0200
0000
0000
0310
0000
0001
1000
0010
,  // measure 6
0200
0000
0000
0310
0000
1000
0001
0100
,  // measure 7
0000
0010
0000
2000
0000
0000
0000
3100
,  // measure 8
0010
0000
0000
0001
1000
0010
0100
0000
,  // measure 9
1001
0000
0100
0001
0000
0100
0010
1000
,  // measure 10
0100
0000
0010
0001
0000
1000
0010
2000
,  // measure 11
0000
3001
0001
0200
0000
0000
0000
0000
,  // measure 12
0310
0000
0000
1000
0001
0010
0100
1000
,  // measure 13
0020
0000
0000
1030
0000
0001
0100
0020
,  // measure 14
0100
0000
0000
0130
0000
0000
0001
1000
,  // measure 15
0000
0100
0000
0200
0000
0000
0000
0310
,  // measure 16
0001
0000
0000
1000
0010
1000
0001
0100
,  // measure 17
0020
0000
0000
0000
0000
1030
0000
0001
,  // measure 18
0000
0200
0000
0000
0000
0000
0000
0000
,  // measure 19
0310
0000
0000
0000
,  // measure 20
1001
0000
0000
0001
0010
0000
0100
0000
,  // measure 21
1000
0000
0000
0001
1000
0000
0010
0000
,  // measure 22
2000
0100
0010
3001
,  // measure 23
0002
0010
1000
0100
,  // measure 24
1003
0000
0001
0200
,  // measure 25
0010
0000
0310
1000
0001
0000
0020
0000
,  // measure 26
0130
0000
1000
0000
0000
0001
0000
0000
0100
0000
0000
0000
0010
0000
1000
0000
,  // measure 27
0001
0100
1000
0100
0002
0000
1000
0000
,  // measure 28
0103
0000
0000
0000
0010
0000
1000
0000
0100
0000
0000
0010
0000
0000
0001
0000
,  // measure 29
1000
0000
0010
0000
0100
0000
0001
1000
,  // measure 30
0100
0000
0000
0010
0001
0000
1000
0000
0010
0000
1000
0000
0100
0000
0010
0000
,  // measure 31
0001
1000
0100
0010
0100
1000
0001
0100
,  // measure 32
0001
0000
1000
0000
0010
1000
0100
0010
,  // measure 33
0001
1000
0100
0000
0010
0100
1000
0000
,  // measure 34
0001
0000
0100
0000
0010
1000
0001
0100
,  // measure 35
0010
1000
0100
1000
0000
0001
0000
0000
,  // measure 36
0101
0000
0100
0000
0100
0000
0010
1000
,  // measure 37
0000
0100
0010
0001
0000
1000
0000
0001
,  // measure 38
0100
0000
0010
0000
1000
0000
0001
1000
,  // measure 39
0000
0010
1000
0100
0000
0010
0000
0001
,  // measure 40
1000
0000
0100
0000
0010
0000
0001
1000
,  // measure 41
0000
0010
0100
0001
0000
1000
0000
0100
,  // measure 42
0010
0001
1000
0100
0010
0001
1000
0100
,  // measure 43
0010
0100
1000
0010
0100
0001
1001
0000
,  // measure 44
0010
0000
0000
1000
0000
0100
0000
1000
0000
0100
1000
0000
0001
0000
0100
0000
,  // measure 45
0001
0000
0000
0010
0000
0001
0000
1000
0000
0010
1000
0000
0001
0000
0100
0000
,  // measure 46
0010
0000
0000
1000
0000
0100
0000
0010
0000
0001
1000
0000
0010
0000
1000
0000
,  // measure 47
0001
0000
0000
0100
0000
0010
0000
1000
0000
0100
0010
0000
0001
0000
1000
0000
,  // measure 48
0100
0000
0000
0010
0000
0100
0000
1000
0000
0010
1000
0000
0001
0000
0100
0000
,  // measure 49
0010
0000
0000
1000
0000
0001
0000
1000
0000
0100
0010
0000
0001
0000
1000
0000
,  // measure 50
0010
0000
0000
1000
0000
0001
0000
0100
0000
0010
1000
0000
0001
0000
1000
0000
,  // measure 51
0100
0000
0000
0010
0000
0001
0000
0100
0000
0001
1000
0000
0010
0000
0000
0000
,  // measure 52
1001
0000
1000
0001
0000
1000
0000
0100
0000
0010
0001
0000
1000
0000
0001
0000
,  // measure 53
0100
0000
0010
1000
0000
0001
0000
0100
0000
0001
1000
0000
0100
0000
0010
0000
,  // measure 54
0001
0000
1000
0010
0000
1000
0000
0001
0000
0100
0010
0000
0100
0000
0001
0000
,  // measure 55
1000
0000
0100
0010
0000
0001
0000
1000
0000
0010
0100
0000
0001
0000
1000
0000
,  // measure 56
0001
0000
1000
0010
0000
0100
0000
0001
0000
1000
0100
0000
0010
0000
0001
0000
,  // measure 57
1000
0000
0001
0010
0000
0100
0000
1000
0000
0010
1000
0000
0001
0000
1000
0000
,  // measure 58
0100
0000
0010
0001
0000
1000
0000
0010
0000
1000
0001
0000
0100
0000
0010
0000
,  // measure 59
1000
0000
0100
0010
0000
0001
0000
1000
0000
0010
0100
0000
0001
0000
1000
0000
,  // measure 60
1001
0000
0000
0000
;

//---------------dance-single - ----------------
#NOTES:
     dance-single:
     :
     Medium:
     6:
     0.291960,0.340620,0.043669,0.061137,0.004367,234.000000,229.000000,5.000000,7.000000,0.000000,0.000000,0.291960,0.340620,0.043669,0.061137,0.004367,234.000000,229.000000,5.000000,7.000000,0.000000,0.000000:
0000
0000
0000
0000
,
0000
0000
0000
0000
,
0000
0000
0000
0000
,
0000
0000
0000
0000
,
1001
0000
1000
0010
,
0200
0000
0000
0301
0000
0000
1000
0001
,
2000
0000
0000
3100
0000
0000
0000
0010
,
0000
0010
0000
0100
0000
0000
0000
0001
,
0000
0000
0000
0000
1000
0100
1000
0000
,
0010
0000
0000
1000
0000
0000
0000
0000
,
0100
0000
0000
0010
0000
0000
0000
0001
,
0000
0000
0000
1000
0000
0000
0000
0000
,
0010
0000
0000
1000
0001
1000
0001
1000
,
0000
0000
0000
0100
0000
0010
0100
0010
,
0000
0000
0000
0100
0000
0000
1000
0001
,
0000
0100
0000
0100
0000
0000
0000
1000
,
0000
0000
0000
0000
0010
1000
0010
1000
,
0000
0000
0000
0000
0000
0100
0000
0010
,
0000
0001
0000
0000
0000
0000
0000
0000
,
1000
0000
0000
0000
,
1001
0000
0000
0010
1000
0000
0200
0000
,
0000
0000
0000
1300
0001
0000
0200
0000
,
0000
0310
2000
0000
,
0000
0000
0000
0000
0000
0000
0000
3100
,
0000
0000
0010
0002
,
0000
0000
0000
1003
0010
0000
0200
0000
,
0000
0000
0301
0000
0000
1000
0000
0000
0100
0000
0000
0000
0010
0000
0001
0000
,
1000
0000
0001
0100
0010
0000
0000
0000
,
1000
0000
1000
0000
0100
0000
0010
0001
,
0100
0000
0001
0000
1000
0000
0010
1000
,
0010
0100
0001
0010
,
1000
0100
0001
0010
,
0100
0000
0000
0000
0001
1000
0100
0000
,
0010
0001
1000
0100
,
0010
0000
0100
0000
0010
0000
0001
1000
,
0100
0010
0100
0010
,
1001
0000
0010
0000
0001
0000
0010
1000
,
0010
0000
0001
0000
1000
0000
1000
0100
,
1000
0000
0010
0000
0001
0000
0001
0010
,
1000
0000
0010
0000
0100
0000
1000
0100
,
1000
0000
0100
0000
0001
0000
0010
1000
,
0010
0000
0001
0000
1000
0000
0001
0010
,
0001
0000
1000
0000
0100
0000
0010
0100
,
1000
0001
0100
0010
,
1000
0000
0010
0000
1000
0100
0001
0000
,
0001
0100
1000
0000
1000
0100
0001
0000
,
0001
0000
0010
0000
0001
0100
1000
0000
,
1000
0100
0001
0000
0001
0100
1000
0000
,
1000
0000
0010
0000
1000
0010
0001
0000
,
0001
0010
1000
0000
1000
0010
0001
0000
,
0001
0000
0010
0000
1000
0010
0001
0000
,
0001
0010
1000
0000
1000
0010
0100
0000
,
0110
0000
0001
0000
1000
0100
0010
0000
,
0001
0000
1000
0000
0010
1000
0100
0000
,
0001
0000
1000
0000
0100
0001
0100
0000
,
0001
0000
0010
0000
0100
0001
1000
0000
,
0100
0000
0010
0000
0100
1000
0010
0000
,
1000
0000
0001
0000
0010
0001
1000
0000
,
0100
0000
0010
0000
0001
1000
0010
0000
,
0100
0000
0010
0000
1000
0001
0100
0000
,
1001
0000
0000
0000
;

//---------------dance-single - ----------------
#NOTES:
     dance-single:
     :
     Easy:
     4:
     0.218346,0.262016,0.034935,0.192145,0.000000,175.000000,171.000000,4.000000,22.000000,0.000000,0.000000,0.218346,0.262016,0.034935,0.192145,0.000000,175.000000,171.000000,4.000000,22.000000,0.000000,0.000000:
0000
0000
0000
0000
,
0000
0000
0000
0000
,
0000
0000
0000
0000
,
0000
0000
0000
0000
,
1001
0000
0010
1000
,
0200
0000
0300
0000
,
0020
0000
0030
0000
,
0001
1000
0020
0000
,
1030
0000
0001
1000
,
0200
0000
0300
0000
,
0020
0000
0030
0000
,
0001
0100
0020
0000
,
1030
0000
0100
1000
,
0020
0000
0000
1030
,
0200
0000
0000
0310
,
0001
1000
0002
0000
,
0103
0000
0010
1000
,
0002
0000
0000
0013
,
0010
0200
0000
0000
,
1300
0000
0000
0000
,
1001
0000
0010
1000
,
0200
0000
1300
0010
,
1000
0100
0020
0000
,
0000
0000
0000
0000
,
0031
0000
1000
0001
,
0200
0000
0310
1000
,
0100
0010
0002
0000
,
1003
0001
0200
0000
,
0310
0000
1000
0010
,
2000
0000
3100
0010
,
0001
0100
1000
0100
,
0001
0010
0100
1000
,
0001
0000
1000
0001
,
0100
0010
0100
0001
,
2000
0000
0000
3100
,
0010
0001
0100
0010
,
2000
0000
0000
3001
,
0010
0100
1000
0010
,
0200
0000
0000
0310
,
1000
0001
0100
0010
,
0200
0000
0000
0301
,
0010
0100
1000
0010
,
0200
0000
0000
0310
,
1000
0001
0100
0010
,
1001
1000
0010
1000
,
0001
1000
0010
1000
,
0001
1000
0010
1000
,
0001
1000
0010
1000
,
0001
0100
0001
1000
,
0001
0100
0001
1000
,
0001
0100
0001
1000
,
0001
0100
0001
1000
,
0010
1000
0010
0100
,
0010
1000
0010
0100
,
0001
0100
0010
0100
,
0001
0100
0010
1000
,
0001
1000
0010
0100
,
0001
0010
0100
1000
,
0010
0100
0001
0010
,
0100
1000
0010
1000
,
1001
0000
0000
0000
;

//---------------dance-single - ----------------
#NOTES:
     dance-single:
     :
     Beginner:
     2:
     0.159705,0.288217,0.096072,0.000000,0.000000,128.000000,117.000000,11.000000,0.000000,0.000000,0.000000,0.159705,0.288217,0.096072,0.000000,0.000000,128.000000,117.000000,11.000000,0.000000,0.000000,0.000000:
0000
0000
0000
0000
,
0000
0000
0000
0000
,
0000
0000
0000
0000
,
0000
0000
0000
0000
,
0010
0000
0000
0000
,
1000
0000
0000
0000
,
0100
0000
0000
0000
,
0010
0000
0000
0000
,
0001
0000
0000
0000
,
1000
0000
0000
0000
,
0100
0000
0000
0000
,
0010
0000
0000
0000
,
0001
0000
0000
0000
,
1000
0000
0000
0000
,
0010
0000
0000
0000
,
0100
0000
0000
0000
,
0010
0000
0000
0000
,
0100
0000
0000
0000
,
0001
0000
0000
0000
,
1000
0000
0000
0000
,
1001
0000
0010
0000
,
1000
0000
0010
0000
,
0001
0000
0010
0000
,
1000
0000
0010
0000
,
0001
0000
1000
0000
,
0100
0000
0001
0000
,
0100
0000
1000
0000
,
0010
0000
0100
0000
,
1001
0000
0010
0000
,
1000
0000
0010
0000
,
0100
0000
0010
0000
,
1000
0000
0100
0000
,
0001
0000
0100
0000
,
0010
0000
0100
0000
,
0001
0000
0010
0000
,
0100
0000
1000
0000
,
1001
0000
0010
0000
,
1000
1000
1000
0000
,
0100
0000
0010
0000
,
0001
0001
0001
0000
,
0100
0000
0010
0000
,
1000
1000
1000
0000
,
0100
0000
0010
0000
,
0001
0001
0001
0000
,
1001
0000
0010
0010
,
0000
1000
1000
1000
,
0000
0001
0001
0001
,
0000
0100
0100
0100
,
0000
1000
1000
1000
,
0000
0001
0001
0001
,
0000
0010
0010
0010
,
0000
0100
0100
0100
,
0100
0000
1000
1000
,
0000
0010
0010
0010
,
0000
0001
0001
0001
,
0000
0110
0110
0110
,
0000
1000
1000
1000
,
0000
0010
0010
0010
,
0000
0001
0001
0001
,
0000
1001
1001
1001
,
1001
0000
0000
0000
;
