#VERSION:0.83;
#TITLE:Shadows;
#SUBTITLE:;
#ARTIST:Lindsey Stirling;
#TITLETRANSLIT:;
#SUBTITLETRANSLIT:;
#ARTISTTRANSLIT:;
#GENRE:Lindsey Stirling;
#ORIGIN:;
#CREDIT:;
#BANNER:Shadows-bn.png;
#BACKGROUND:Black.png;
#PREVIEWVID:Shadows-preview.avi;
#JACKET:Shadows-jacket.png;
#CDIMAGE:;
#DISCIMAGE:Shadows-bg.png;
#LYRICSPATH:;
#CDTITLE:;
#MUSIC:Shadows.mp3;
#OFFSET:-0.022000;
#SAMPLESTART:41.925346;
#SAMPLELENGTH:15.240513;
#SELECTABLE:YES;
#BPMS:0.000=125.980;
#STOPS:;
#DELAYS:;
#WARPS:;
#TIMESIGNATURES:0.000=4=4;
#TICKCOUNTS:0.000=4;
#COMBOS:0.000=1;
#SPEEDS:0.000=1.000=0.000=0;
#SCROLLS:0.000=1.000;
#FAKES:;
#LABELS:0.000=Song Start;
#LASTSECONDHINT:134.360962;
#BGCHANGES:0.000=Shadows-video.avi=1.000=0=0=1=====,
452.000=Shadows-bg.png=1.000=1=0=1===CrossFade==,
99999=-nosongbg-=1.000=0=0=0 // don't automatically add -songbackground-
;
#KEYSOUNDS:;
#ATTACKS:
;

//---------------dance-single - ----------------
#NOTEDATA:;
#CHARTNAME:;
#STEPSTYPE:dance-single;
#DESCRIPTION:;
#CHARTSTYLE:;
#DIFFICULTY:Challenge;
#METER:10;
#RADARVALUES:0.643546,0.643546,0.226302,0.190942,1.262340,637.000000,605.000000,32.000000,27.000000,0.000000,0.000000,0.000000,10.000000,0.000000,0.643546,0.643546,0.226302,0.190942,1.262340,637.000000,605.000000,32.000000,27.000000,0.000000,0.000000,0.000000,10.000000,0.000000;
#CREDIT:;
#NOTES:
0000
0000
0000
0000
,
0000
0000
0000
0000
,
0001
0100
0001
0100
0001
0100
0001
0100
0001
0101
0000
0000
,
1000
0010
1000
0010
1000
0010
1000
0001
1000
1001
0000
0000
,
0100
1000
0100
1000
0100
1000
0100
1000
0100
1100
0000
0000
,
0010
0000
0010
0100
0000
0100
0001
0000
0001
1000
0000
1000
,
0100
0010
0100
0010
0100
0010
0100
0010
0100
0110
0000
0000
,
1000
0001
1000
0001
1000
0001
1000
0001
1000
1001
0000
1000
,
0010
1000
0010
1000
0010
1000
0010
1000
0010
1010
0000
0100
,
0001
0100
0001
0100
0001
0100
0001
0100
0001
0110
0000
0000
,
1000
0100
0001
1000
0010
0001
0100
0010
1000
0001
0000
0000
,
0001
0010
1000
0001
0100
1000
0010
0100
0001
1000
0000
0000
,
1000
0100
1000
0000
1000
0010
0001
0000
0000
0001
0010
1000
,
0100
0000
0000
0110
0000
0000
1000
0100
0010
0001
0000
0001
,
1000
0100
0001
0000
1000
0010
0001
0000
0001
1000
0000
0000
,
0000
1000
0010
1000
0100
0010
0001
0100
0010
1000
0000
1000
,
0010
1000
0001
0010
0100
0010
0001
0000
0000
1001
0000
0000
,
1000
0010
0100
0001
0100
0010
1000
0100
0010
1001
0000
0000
,
0001
0010
0100
0001
0010
0100
1000
0100
0010
1000
0100
0010
,
1000
0001
0100
1000
0001
0100
1000
0010
0001
0100
0010
0100
,
0001
0010
1000
0001
0100
1000
0001
0010
1000
0001
0100
1000
,
0100
0010
0001
1000
0010
0100
0001
0010
0100
2000
0000
0000
,
3001
0000
0001
1000
0000
1000
0010
0100
0010
1000
0010
0100
,
0001
0000
0000
0000
0001
0000
1000
0000
0000
0000
1000
0000
0010
0100
0010
0100
0010
0000
0100
0000
0000
0000
0000
0000
,
0001
0100
0001
1000
0010
1000
0010
0100
0010
1001
0000
0000
,
1000
0010
0001
1000
0100
0001
0100
0000
0100
0010
0000
0010
,
1000
0000
1000
0001
1000
0001
0010
1000
0010
0001
0000
0001
,
1000
0100
1000
0001
0100
0001
1000
0010
0100
0002
0000
0000
,
2003
0000
0000
3100
1000
0001
0100
0010
0100
0002
0000
0000
,
1003
0010
0100
0001
0010
0100
1000
0000
1000
0001
0000
0001
,
0010
0001
0200
0000
0310
1000
0100
0010
0001
0200
0000
0301
,
0010
0001
2000
0000
3010
1000
0001
0010
0001
2002
0000
3003
,
0010
1000
0200
0000
0310
0001
0200
0000
0000
0301
0010
0100
,
1000
0100
0010
0001
1000
0010
0100
0000
0100
0001
0000
0001
,
1000
0000
1000
0100
0000
0100
1000
0001
0100
0010
0100
0001
,
1000
0010
0100
0001
0100
0010
1000
0010
0100
1001
0000
0000
,
0020
0000
0000
0031
0100
0010
1000
0100
0010
1001
0000
0000
,
0001
1000
0100
0010
0100
1000
0002
0000
0000
2003
0000
0000
,
3100
0000
0000
0000
,
0000
0000
0000
0000
,
0000
0000
0000
0000
,
0000
0000
0000
0000
,
0100
0000
0001
0010
0000
0010
1000
0000
0010
0001
0000
0100
,
0000
1000
0100
0001
0100
0010
1000
0100
0010
0001
0000
1000
,
0010
0000
0000
10L0
0000
0000
L001
0000
0000
010L
0000
0001
,
0010
0000
0000
01L0
0000
0000
1L00
0100
0010
0001
1000
0100
,
0010
00L1
100L
1001
,
0010
0001
0100
0010
1000
0100
0010
0001
1000
1100
0000
0100
,
0010
0000
0000
00L1
0000
0000
010L
0000
0000
0L10
1000
0001
,
1000
0000
1000
0010
0000
0100
0000
0000
0001
1000
0000
0000
,
0100
1000
0001
0010
0001
1000
0100
1000
0001
0010
0001
1000
,
0100
1000
0001
0100
0010
0100
0001
1000
0010
0001
1000
0100
,
0001
0100
0010
1000
0100
0010
1000
0010
0001
1000
0100
0001
,
1000
0010
0001
0100
0010
1000
0001
0100
0010
0110
0000
0000
,
1010
0000
0000
0101
0000
0000
0001
0010
0100
1000
0100
0010
,
0001
0000
0000
0000
0001
0000
1000
0000
0000
0000
1000
0000
0010
0100
0010
0100
0010
0000
0110
0000
0000
0000
0000
0000
,
1000
0100
1000
0001
0010
0001
0010
0100
0010
1001
0000
0000
,
0001
0010
1000
0001
0100
1000
0001
0000
0001
1000
0000
1000
,
0010
0000
0010
1000
0001
1000
0010
0100
0010
1000
0000
1000
,
0001
0100
0001
1000
0100
1000
0001
0010
0100
2000
0000
0000
,
3002
0000
0000
0103
0010
1000
0100
0010
0100
2000
0000
0000
,
3001
0100
0010
1000
0100
0010
0001
0000
0010
0100
0000
1000
,
0010
1000
0200
0000
1300
0100
0010
0001
0100
2000
0000
3100
,
0010
1000
0002
0000
0013
0001
0100
1000
0100
0002
0000
0000
,
0013
0001
0200
0000
0310
1000
0200
0000
0000
1300
0010
0100
,
0001
0100
0010
1000
0001
0010
0100
0000
0100
1000
0000
1000
,
0001
0000
0001
1000
0000
1000
0001
0010
0100
1000
0010
0100
,
0001
1000
0100
1000
0001
1000
0010
0001
0010
2000
0000
0000
,
3002
0000
0000
1003
0100
0010
0001
0100
0010
1001
0000
0000
,
1000
0001
0100
0010
0100
0001
2000
0000
0000
3200
0000
0000
,
0300
0000
0000
0000
;

//---------------dance-single - ----------------
#NOTEDATA:;
#CHARTNAME:;
#STEPSTYPE:dance-single;
#DESCRIPTION:;
#CHARTSTYLE:;
#DIFFICULTY:Hard;
#METER:8;
#RADARVALUES:0.444522,0.468604,0.190942,0.127295,0.685978,440.000000,413.000000,27.000000,18.000000,0.000000,0.000000,0.000000,0.000000,0.000000,0.444522,0.468604,0.190942,0.127295,0.685978,440.000000,413.000000,27.000000,18.000000,0.000000,0.000000,0.000000,0.000000,0.000000;
#CREDIT:;
#NOTES:
0000
0000
0000
0000
,
0000
0000
0000
0000
,
0002
0000
1003
1001
,
0020
0000
0130
1001
,
0200
0000
0310
1001
,
1000
0100
0001
0010
,
2000
0000
3001
1001
,
0020
0000
0000
0000
0000
0000
0000
0130
0010
0100
0000
0100
,
2000
0000
0000
0000
0000
0000
3010
0000
0000
0110
0000
0001
,
0000
0000
0001
0100
0000
0010
0000
0000
1000
0000
0000
0000
,
0001
0000
0001
0010
0000
0010
0001
0000
0001
2000
0000
0000
,
3010
0000
0010
1000
0000
1000
0010
0000
0010
0200
0000
0000
,
0301
0010
0001
0000
1000
0010
2000
0000
0000
3001
0000
0000
,
1000
0000
0000
0100
0000
0000
0010
0001
1000
0001
0000
0000
,
0100
0001
0100
0000
0001
1000
0001
0000
0010
0100
0000
0000
,
1000
0000
1000
0100
0000
0100
0010
0001
0010
0001
0000
0001
,
1000
0001
1000
0010
0000
0100
0001
0000
0000
1001
0000
0000
,
1000
0100
1000
0100
0000
0010
0001
0000
1000
0010
0000
0000
,
1000
0000
1000
0010
0000
0010
1000
0000
1000
0010
0000
0010
,
0100
0000
0100
0001
0000
0001
0010
0000
0010
0100
0000
0100
,
1000
0000
1000
0001
0000
0001
1000
0000
1000
0001
0000
0001
,
1000
0000
0010
0100
0000
0100
0001
0000
0001
0010
0000
0000
,
0012
0000
0000
0000
0000
0000
1003
0100
0010
0001
0010
0100
,
1000
0001
0010
0110
,
0001
0100
0001
0100
0000
0100
0010
0000
0010
1000
0000
1000
,
0100
1000
0100
1000
0000
0001
0010
0000
0000
1100
0000
0000
,
0001
0000
0100
0010
0000
0100
0010
0000
1000
0100
0000
0000
,
0010
0000
0001
1000
0000
0001
1000
0000
0001
0100
0000
0000
,
0110
0000
0000
0000
1000
0100
1000
0000
0001
0010
0000
0000
,
0001
0100
0001
1000
0010
1000
0100
0000
0000
1001
0000
0000
,
0010
0001
0100
0000
0010
1000
0100
0000
0000
0110
0000
0000
,
0100
1000
0001
0000
0100
0001
1000
0000
0000
1100
0000
0000
,
0010
1000
0100
0000
0010
0001
0100
0000
0000
0110
0000
0000
,
1000
0100
1000
0010
0000
1000
0100
0000
0000
0011
0000
0000
,
0200
0000
0000
0000
0000
0000
0310
0100
0001
0010
0000
0100
,
1000
0000
1000
0010
0000
0010
0100
0000
0100
0001
0000
0000
,
0010
0000
0000
0011
0000
0000
0010
0001
1000
0010
0000
0000
,
0100
0000
0100
0010
0000
0010
1000
0000
0000
1001
0000
0000
,
0000
0000
0000
0000
,
0000
0000
0000
0000
,
0000
0000
0000
0000
,
0000
0000
0000
0000
,
1000
0000
1000
0010
0000
0100
0001
0000
0010
0100
0000
1000
,
0000
0001
1000
0010
0000
0100
0001
0000
0010
0100
0000
1000
,
0020
0000
0000
0000
0000
0000
0000
0000
0000
0130
0000
0001
,
2000
0000
0000
0000
0000
0000
0000
3010
0100
0010
1000
0001
,
0200
0000
0000
0000
,
0310
0000
0010
0001
0000
0001
1000
0000
1000
0010
0000
0100
,
0002
0000
0000
0000
0000
0000
0000
0000
0000
0003
0010
0001
,
0010
0000
0100
1000
0000
0001
0000
0000
1000
0000
0000
0000
,
0001
0000
0001
0100
0000
0100
0010
0000
0010
1000
0000
1000
,
0100
0000
0100
0010
0000
0010
0001
1000
0001
1000
0000
0000
,
0010
0000
0010
0100
0000
0100
0010
0000
0010
1000
0000
1000
,
0100
0000
0100
0010
0000
0010
0001
1000
0001
1000
0000
0000
,
2002
0000
0000
0003
0000
0000
3001
0010
0100
1000
0100
0010
,
0001
1000
0100
0110
,
1000
0010
1000
0010
0000
0010
0100
0000
0100
0001
0000
0001
,
0010
0001
0010
0001
0000
1000
0100
0000
0000
1001
0000
0000
,
1000
0000
0010
0100
0000
0010
0100
0000
0001
0010
0000
0000
,
0100
0000
1000
0001
0000
1000
0001
0000
1000
0010
0000
0000
,
0110
0000
0000
0000
0001
0010
0001
0000
1000
0100
0000
0000
,
1000
0010
1000
0001
0100
0001
0010
0000
0000
1001
0000
0000
,
0100
1000
0010
0000
0100
0001
0010
0000
0000
0110
0000
0000
,
0010
0001
1000
0000
0010
1000
0001
0000
0000
0011
0000
0000
,
0100
0001
0010
0000
0100
1000
0010
0000
0000
0110
0000
0000
,
0100
0001
0010
0001
1000
0100
1000
0000
0000
1001
0000
0000
,
0020
0000
0000
0000
0000
0000
0130
0010
1000
0100
0010
0001
,
1000
0000
0001
0100
0000
0100
0010
0000
1000
0001
0000
0000
,
0010
0000
0000
0100
1000
0100
1000
0010
0100
0001
0000
0000
,
0010
0000
0010
0100
0000
0100
0001
0000
0000
1001
0000
0000
;

//---------------dance-single - ----------------
#NOTEDATA:;
#CHARTNAME:;
#STEPSTYPE:dance-single;
#DESCRIPTION:;
#CHARTSTYLE:;
#DIFFICULTY:Medium;
#METER:6;
#RADARVALUES:0.320258,0.394614,0.332381,0.141439,0.141439,317.000000,270.000000,47.000000,20.000000,0.000000,0.000000,0.000000,0.000000,0.000000,0.320258,0.394614,0.332381,0.141439,0.141439,317.000000,270.000000,47.000000,20.000000,0.000000,0.000000,0.000000,0.000000,0.000000;
#CREDIT:;
#NOTES:
// measure 0
0000
0000
0000
0000
,  // measure 1
0000
0000
0000
0000
,  // measure 2
2000
0000
3000
1001
,  // measure 3
0020
0000
0130
1001
,  // measure 4
0200
0000
0300
1001
,  // measure 5
0010
0001
1000
0010
,  // measure 6
0200
0000
0300
1001
,  // measure 7
0020
0000
0030
1001
,  // measure 8
0200
0000
0300
1001
,  // measure 9
0010
1000
0001
0010
,  // measure 10
0100
1001
0010
0110
,  // measure 11
0001
0010
0100
1001
,  // measure 12
0100
0001
1000
0110
,  // measure 13
0010
0000
0000
1000
0000
0000
0100
1000
0100
1000
0000
0000
,  // measure 14
0001
0010
0100
0110
,  // measure 15
0100
0010
0001
1000
,  // measure 16
0100
0010
0100
1001
,  // measure 17
0010
0001
1000
0110
,  // measure 18
0100
0001
0010
0100
,  // measure 19
1000
0000
0000
0010
0000
0000
1000
0000
1000
0001
0000
0001
,  // measure 20
1000
0100
0010
0001
,  // measure 21
0100
0000
0000
0010
0000
0000
0100
0000
0100
0010
0000
0000
,  // measure 22
1000
1001
0010
0110
,  // measure 23
0001
0000
0000
1000
0000
0000
0100
1000
0100
1000
0000
0000
,  // measure 24
0001
0000
1000
0001
0000
1000
0100
0000
0000
1001
0000
0000
,  // measure 25
0010
0000
0001
0010
0000
0001
1000
0000
0000
0110
0000
0000
,  // measure 26
2000
0000
3001
1001
,  // measure 27
0010
0001
0100
1001
,  // measure 28
0020
0000
0000
0030
0000
0000
1000
0001
1000
0001
0000
0000
,  // measure 29
0100
1001
0020
0130
,  // measure 30
0010
0000
0000
1001
0000
0000
0010
0000
1000
0010
0000
0000
,  // measure 31
0010
0000
0000
1001
0000
0000
0010
0000
1000
0100
0000
0000
,  // measure 32
0001
0101
0010
1010
,  // measure 33
0010
1000
0001
1001
,  // measure 34
0010
0100
0010
1001
,  // measure 35
0010
0000
1000
0001
0000
1000
0001
0000
0000
1001
0000
0000
,  // measure 36
0020
0000
1030
1001
,  // measure 37
0100
0001
0020
0130
,  // measure 38
0000
0000
0000
0000
,  // measure 39
0000
0000
0000
0000
,  // measure 40
0000
0000
0000
0000
,  // measure 41
0000
0000
0000
0000
,  // measure 42
1000
0000
1000
0010
0000
0000
0100
0000
0000
0110
0000
0000
,  // measure 43
0001
0000
0001
0100
0000
0000
0010
0000
0000
0110
0000
0000
,  // measure 44
2000
0000
0000
0000
0000
0000
0000
0000
0000
3010
0000
0100
,  // measure 45
0002
0000
0000
0000
0000
0000
0003
0000
1000
0010
0000
1000
,  // measure 46
0200
0000
0000
0300
,  // measure 47
0010
0001
0100
1001
,  // measure 48
0020
0000
0000
1030
,  // measure 49
0001
0010
0100
0110
,  // measure 50
1000
0000
1000
0010
0000
0000
0001
0000
0001
0010
0000
0000
,  // measure 51
0100
0010
0001
1000
,  // measure 52
0010
0000
0100
0001
0000
0000
1000
0000
0100
1000
0000
0000
,  // measure 53
0001
1000
0100
0010
,  // measure 54
0001
1001
0010
0110
,  // measure 55
1000
0000
0000
0001
0000
0000
0100
0001
0100
0001
0000
0000
,  // measure 56
1000
0010
0100
1001
,  // measure 57
0010
1000
0010
0110
,  // measure 58
0002
0000
1003
1001
,  // measure 59
0010
0000
1000
0010
0000
1000
0001
0000
0000
1001
0000
0000
,  // measure 60
0020
0000
0000
0030
0000
0000
0001
1000
0001
1000
0000
0000
,  // measure 61
0100
1001
0020
0130
,  // measure 62
0010
0000
0000
1001
0000
0000
0010
0000
0001
0100
0000
0000
,  // measure 63
0010
0000
0000
1001
0000
0000
0010
0000
0001
1000
0000
0000
,  // measure 64
0010
0101
0100
1010
,  // measure 65
0010
0000
1000
0001
0000
1000
0001
0000
0000
1001
0000
0000
,  // measure 66
0010
0100
0010
1001
,  // measure 67
0010
0000
1000
0100
0000
1000
0100
0000
0000
1001
0000
0000
,  // measure 68
0020
0000
0031
1001
,  // measure 69
0100
0000
0010
0100
0000
0010
0002
0000
0000
1003
0000
0000
;

//---------------dance-single - ----------------
#NOTEDATA:;
#CHARTNAME:;
#STEPSTYPE:dance-single;
#DESCRIPTION:;
#CHARTSTYLE:;
#DIFFICULTY:Easy;
#METER:4;
#RADARVALUES:0.214179,0.246634,0.007072,0.205086,0.000000,212.000000,211.000000,1.000000,29.000000,0.000000,0.000000,0.000000,0.000000,0.000000,0.214179,0.246634,0.007072,0.205086,0.000000,212.000000,211.000000,1.000000,29.000000,0.000000,0.000000,0.000000,0.000000,0.000000;
#CREDIT:;
#NOTES:
// measure 0
0000
0000
0000
0000
,  // measure 1
0000
0000
0000
0000
,  // measure 2
2000
0000
0000
0000
,  // measure 3
0000
0000
3020
0000
,  // measure 4
0230
0000
0000
0000
,  // measure 5
0302
0023
0230
2300
,  // measure 6
3002
0000
0000
0000
,  // measure 7
2003
0000
0000
3010
,  // measure 8
0200
0000
0000
0000
,  // measure 9
0301
0010
0100
0100
,  // measure 10
1000
1000
0100
0001
,  // measure 11
0100
0100
1000
0100
,  // measure 12
1000
0000
0001
0000
,  // measure 13
0010
0001
1000
0010
,  // measure 14
1000
1000
0001
0001
,  // measure 15
0100
0001
1000
0100
,  // measure 16
0010
0100
2000
3000
,  // measure 17
0010
1000
0001
1000
,  // measure 18
0200
0300
0020
0030
,  // measure 19
0002
0003
2000
3000
,  // measure 20
0010
0100
0010
1000
,  // measure 21
0010
0100
0001
1000
,  // measure 22
0002
0000
0013
0100
,  // measure 23
1000
0100
0010
0000
,  // measure 24
0001
0001
1000
1000
,  // measure 25
0010
1000
0001
0100
,  // measure 26
0002
0000
1003
0001
,  // measure 27
1000
1000
0100
0010
,  // measure 28
0002
0003
1000
0001
,  // measure 29
1000
0010
0100
0001
,  // measure 30
1000
1000
0001
1000
,  // measure 31
0001
0001
1000
0001
,  // measure 32
1000
0010
0001
0010
,  // measure 33
1000
1000
0001
1000
,  // measure 34
0200
0300
1000
0001
,  // measure 35
1000
0010
0100
0001
,  // measure 36
0200
0300
0010
1000
,  // measure 37
0001
0010
0100
1000
,  // measure 38
0100
0000
0000
0000
,  // measure 39
0000
0000
0000
0000
,  // measure 40
0000
0000
0000
0000
,  // measure 41
0000
0000
0000
0000
,  // measure 42
0100
0001
0010
0000
,  // measure 43
0100
1000
0001
0100
,  // measure 44
0020
0000
0000
1030
,  // measure 45
0200
0000
0000
0310
,  // measure 46
0002
0000
0000
0003
,  // measure 47
0010
0001
1000
0010
,  // measure 48
0200
0000
0000
0301
,  // measure 49
1000
0010
0100
0001
,  // measure 50
1000
1000
0001
0001
,  // measure 51
0100
0010
0100
0010
,  // measure 52
1000
0010
1000
0100
,  // measure 53
0001
0100
1000
1001
,  // measure 54
0020
0000
0031
1000
,  // measure 55
0100
1000
0001
0000
,  // measure 56
0010
0010
0100
0100
,  // measure 57
1000
0100
0010
0001
,  // measure 58
0020
0000
0130
0010
,  // measure 59
0100
0100
1000
0001
,  // measure 60
0200
0300
0001
1000
,  // measure 61
0010
0100
0001
1000
,  // measure 62
0001
0001
1000
0001
,  // measure 63
1000
1000
0001
1000
,  // measure 64
0001
0100
0010
1000
,  // measure 65
0100
0100
0010
0100
,  // measure 66
2000
3000
0100
0010
,  // measure 67
0100
1000
0001
0010
,  // measure 68
0200
0300
1000
0010
,  // measure 69
0100
0001
0010
0100
;

//---------------dance-single - ----------------
#NOTEDATA:;
#CHARTNAME:;
#STEPSTYPE:dance-single;
#DESCRIPTION:;
#CHARTSTYLE:;
#DIFFICULTY:Beginner;
#METER:1;
#RADARVALUES:0.128305,0.172644,0.000000,0.000000,0.000000,127.000000,127.000000,0.000000,0.000000,0.000000,0.000000,0.000000,0.000000,0.000000,0.128305,0.172644,0.000000,0.000000,0.000000,127.000000,127.000000,0.000000,0.000000,0.000000,0.000000,0.000000,0.000000,0.000000;
#CREDIT:;
#NOTES:
0000
0000
0000
0000
,
0000
0000
0000
0000
,
0010
0000
0000
0000
,
0000
0000
1000
0000
,
0100
0000
0000
0000
,
0010
0010
0010
0010
,
0010
0000
0000
0000
,
0001
0000
0000
1000
,
1000
0000
0000
0000
,
0100
0000
0010
0000
,
0100
0000
0000
0000
,
1000
0000
0000
0000
,
0001
0000
0010
0000
,
0100
0000
1000
0000
,
0001
0000
0000
0000
,
1000
0000
0000
0000
,
0010
0000
0100
0000
,
0001
0000
1000
0000
,
0100
0000
0010
0000
,
0100
0000
0010
0000
,
0100
0000
1000
0000
,
0100
0000
1000
0000
,
0001
0000
0010
0010
,
0010
0000
0100
0100
,
0000
1000
0000
0001
,
0000
1000
0000
0001
,
0000
0010
0000
1000
,
0000
0010
0000
0100
,
0000
1000
0000
0100
,
0000
0001
0000
0100
,
0000
0010
0000
0100
,
0000
0010
0000
0001
,
0000
1000
0000
0001
,
0000
1000
0000
0010
,
0000
1000
0000
0100
,
0000
0001
0000
0100
,
0000
1000
0000
0001
,
0000
0010
0000
0100
,
0000
0000
0000
0000
,
0000
0000
0000
0000
,
0000
0000
0000
0000
,
0000
0000
0000
0000
,
1000
0000
0010
0000
,
1000
0000
0010
0000
,
0100
0000
0000
0100
,
0100
0000
0000
0001
,
0001
0000
0000
0000
,
0010
0000
0100
0000
,
1000
0000
0000
0000
,
0001
0000
1000
0000
,
0100
0000
0100
0000
,
0010
0000
0001
0000
,
0100
0000
0010
0000
,
1000
0000
0001
0000
,
1000
0000
0100
0100
,
0100
0000
0010
0010
,
0010
0000
0001
0000
,
1000
0000
0010
0000
,
0100
0000
0100
0000
,
0010
0010
0000
1000
,
0000
0100
0000
0001
,
0000
0100
0000
1000
,
1000
1000
0000
0001
,
0000
0010
0000
0100
,
0000
1000
0000
0001
,
0000
0100
0000
0001
,
0001
0000
1000
0000
,
0010
0000
0100
0000
,
0001
0000
0010
0000
,
0100
0100
0100
0100
;
