#VERSION:0.83;
#TITLE:Secrets;
#SUBTITLE:;
#ARTIST:Regard ft. Raye;
#TITLETRANSLIT:;
#SUBTITLETRANSLIT:;
#ARTISTTRANSLIT:;
#GENRE:Secrets;
#ORIGIN:;
#CREDIT:;
#BANNER:SecretsRegard-bn.png;
#BACKGROUND:SecretsRegard-bg.png;
#PREVIEWVID:;
#JACKET:SecretsRegard-jacket.png;
#CDIMAGE:;
#DISCIMAGE:;
#LYRICSPATH:;
#CDTITLE:;
#MUSIC:Secrets (Regard).mp3;
#OFFSET:0.665000;
#SAMPLESTART:85.009682;
#SAMPLELENGTH:16.890755;
#SELECTABLE:YES;
#BPMS:0.000=119.000;
#STOPS:;
#DELAYS:;
#WARPS:;
#TIMESIGNATURES:0.000=4=4;
#TICKCOUNTS:0.000=2;
#COMBOS:0.000=1;
#SPEEDS:0.000=1.000=0.000=0;
#SCROLLS:0.000=1.000;
#FAKES:;
#LABELS:0.000=Song Start;
#LASTSECONDHINT:103.240929;
#BGCHANGES:1.333=SecretsRegard-video.avi=1.000=1=0=1===CrossFade==,
99999=-nosongbg-=1.000=0=0=0 // don't automatically add -songbackground-
;
#KEYSOUNDS:;
#ATTACKS:
;

//---------------dance-single - ----------------
#NOTEDATA:;
#CHARTNAME:;
#STEPSTYPE:dance-single;
#DESCRIPTION:;
#CHARTSTYLE:;
#DIFFICULTY:Hard;
#METER:8;
#RADARVALUES:0.425217,0.468825,0.009215,0.138228,0.055291,323.000000,322.000000,1.000000,15.000000,0.000000,0.000000,0.000000,0.000000,0.000000,0.425217,0.468825,0.009215,0.138228,0.055291,323.000000,322.000000,1.000000,15.000000,0.000000,0.000000,0.000000,0.000000,0.000000;
#CREDIT:;
#NOTES:
0000
0000
0000
0000
,
0000
0000
0000
0000
,
0000
0000
0000
0000
,
0000
0000
0000
0000
,
0000
0000
0000
0000
,
0002
0000
0003
0100
2000
0000
3000
0100
,
0001
0100
0010
0100
0002
0000
0003
1000
,
0010
1000
0100
1000
0020
0000
0030
0100
,
0001
1000
0001
0100
0000
0000
0000
0000
,
0010
1000
0001
1000
0010
1000
0010
1000
,
0001
0100
0001
1000
0001
0100
0001
0100
,
0010
1000
0010
1000
0100
1000
0100
1000
,
0001
0010
0100
1000
0100
0010
0100
0000
,
1000
0100
1000
0100
0001
0100
0001
0100
,
0010
0100
0010
0100
1000
0100
1000
0100
,
0010
0001
0100
0001
0010
0001
0010
0001
,
2000
0000
0000
3000
,
0010
0000
0000
0000
1000
0000
0001
0100
0000
0100
0001
0000
1000
0000
0000
0000
,
0001
0010
0100
1000
0010
0100
0001
0000
,
0010
0000
0000
0000
0100
0000
1000
0010
0000
0010
1000
0000
0100
0000
0000
0000
,
1000
0001
0100
0010
0100
0001
1000
0000
,
0001
0000
0100
0000
0010
0000
1000
0100
0000
0100
0010
0000
0001
0000
1000
0000
,
0001
0000
0000
0001
0010
0000
0000
0010
0100
0000
0000
0100
1000
0000
0001
0000
,
0100
0000
0010
1000
0010
0000
0100
0000
0001
0000
0001
0000
1000
0010
1000
0000
,
0100
0000
0010
0001
0010
0000
0100
0000
1000
0000
0001
0000
0100
0000
0010
0000
,
2000
0000
3000
0001
0020
0000
0030
0100
,
1000
0010
1000
0100
0020
0000
0030
0001
,
0100
1000
0100
0001
0020
0000
0030
0100
,
1000
0100
0010
0001
1000
0010
0100
0001
,
2000
0000
3000
0001
0200
0000
0300
0010
,
1000
0001
0100
0010
0200
0000
0300
0001
,
0010
1000
0010
0001
0200
0000
0300
0010
,
1000
0001
1000
0010
0100
0001
1000
0010
,
0200
0301
2000
3100
,
0010
0001
0100
1001
,
0100
0001
0100
0010
0100
0001
0100
1000
,
0100
0010
0100
0001
0100
1000
0100
0000
,
0010
1000
0010
0100
0010
0001
0010
1000
,
0010
0100
0010
0001
0010
1000
0010
0000
,
1000
0100
1000
0010
1000
0001
1000
0100
,
1000
0001
1000
0010
1000
0100
1000
0001
,
0001
0100
0001
1000
0001
0010
0001
0100
,
0001
1000
0001
0001
1000
0010
0100
0001
,
1000
0100
1000
0001
0001
0100
0001
1000
,
1000
0010
0100
0001
0010
0100
1000
0001
,
0001
0100
1000
0100
0010
0100
0001
0100
,
0010
1000
0001
1000
0010
0100
0001
0010
,
0100
1000
0001
1000
0100
0010
0001
0010
,
0100
1000
0001
1000
0010
0100
0001
1000
,
0010
1000
0001
1000
0010
0100
0010
1000
,
0001
0010
0100
1000
0001
0010
0001
0010
;

//---------------dance-single - ----------------
#NOTEDATA:;
#CHARTNAME:;
#STEPSTYPE:dance-single;
#DESCRIPTION:;
#CHARTSTYLE:;
#DIFFICULTY:Medium;
#METER:5;
#RADARVALUES:0.269875,0.301741,0.036861,0.082937,0.000000,205.000000,201.000000,4.000000,9.000000,0.000000,0.000000,0.000000,0.000000,0.000000,0.269875,0.301741,0.036861,0.082937,0.000000,205.000000,201.000000,4.000000,9.000000,0.000000,0.000000,0.000000,0.000000,0.000000;
#CREDIT:;
#NOTES:
0000
0000
0000
0000
,
0000
0000
0000
0000
,
0000
0000
0000
0000
,
0000
0000
0000
0000
,
0000
0000
0000
0000
,
0001
0001
1000
1000
,
0001
0010
1000
1000
,
1000
0010
0001
0001
,
1000
0001
1000
0001
,
0100
0000
0010
0000
1000
0010
1000
0000
,
0100
0000
0010
0000
0001
0010
0001
0000
,
1000
0000
0100
0000
1000
0001
1000
0000
,
0001
0000
0100
0000
0001
1000
0001
0000
,
1000
0000
0010
0000
1000
0010
1000
0000
,
0001
0000
0010
0000
0001
0010
0001
0000
,
1000
0100
0010
0001
,
2000
0000
0000
3000
,
1001
1001
0100
0100
,
0001
0100
0001
0100
0001
0000
0100
0000
,
1000
0010
1000
0010
,
1000
0100
1000
0100
1000
0000
0010
0000
,
0001
0100
0010
1000
,
0002
0000
0023
0000
0230
0000
1300
0001
,
2000
0010
0100
3100
,
0002
0010
0100
0103
,
1000
1000
0001
0001
,
1000
0100
0001
0100
,
1000
1000
1000
0000
0001
0000
0010
0000
,
0001
0001
0001
0000
1000
0000
0010
0000
,
0100
0100
0010
0010
,
1000
0100
0010
0001
,
1000
1000
1000
0000
0010
0000
0100
0000
,
0001
0001
0001
0000
0010
0000
0100
0000
,
2000
3000
0002
0003
,
0200
0000
0000
0300
,
0010
1000
0010
0001
,
0010
1000
0001
0010
,
0100
1000
0100
0010
,
0001
0100
0010
1000
,
0001
0010
0001
0010
,
1000
0010
0100
0110
,
1000
0100
1000
0100
,
0001
0100
0010
0110
,
0010
0000
0001
1000
0001
0000
1000
0010
,
1000
0100
0010
0001
,
1000
0100
1000
0100
1000
0000
0100
0000
,
0001
0100
0001
0100
0001
0000
0100
0000
,
0010
0001
1000
0010
,
1000
0100
1000
0100
1000
0000
0010
0000
,
0100
0010
0100
0010
0100
0000
0001
0000
,
1000
0001
1000
0001
0000
0000
0000
0000
;

//---------------dance-single - ----------------
#NOTEDATA:;
#CHARTNAME:;
#STEPSTYPE:dance-single;
#DESCRIPTION:;
#CHARTSTYLE:;
#DIFFICULTY:Easy;
#METER:4;
#RADARVALUES:0.229064,0.255320,0.027646,0.082937,0.000000,174.000000,171.000000,3.000000,9.000000,0.000000,0.000000,0.000000,0.000000,0.000000,0.229064,0.255320,0.027646,0.082937,0.000000,174.000000,171.000000,3.000000,9.000000,0.000000,0.000000,0.000000,0.000000,0.000000;
#CREDIT:;
#NOTES:
// measure 0
0000
0000
0000
0000
,  // measure 1
0000
0000
0000
0000
,  // measure 2
0000
0000
0000
0000
,  // measure 3
0000
0000
0000
0000
,  // measure 4
0000
0000
0000
0000
,  // measure 5
0001
0001
0100
0100
,  // measure 6
1000
1000
0100
0100
,  // measure 7
0001
0100
1000
0100
,  // measure 8
0001
0100
1000
0100
,  // measure 9
0001
0010
0100
1000
,  // measure 10
0001
1000
0010
1000
,  // measure 11
0001
0100
0001
1000
,  // measure 12
0001
0010
0001
1000
,  // measure 13
0100
0010
0100
1000
,  // measure 14
0001
1000
0001
0100
,  // measure 15
0010
1000
0001
0010
,  // measure 16
0200
0000
0000
0300
,  // measure 17
1000
0100
0010
0001
,  // measure 18
1000
1000
0001
0001
,  // measure 19
1000
0010
0100
0001
,  // measure 20
1000
1000
0001
0001
,  // measure 21
0200
0300
0020
0030
,  // measure 22
1000
0100
0010
0001
,  // measure 23
1000
1000
0001
0001
,  // measure 24
0100
0100
0010
0010
,  // measure 25
2000
3000
0002
0003
,  // measure 26
0100
0010
2000
3000
,  // measure 27
0001
0010
0100
1000
,  // measure 28
0001
0010
0001
1000
,  // measure 29
0010
0100
0010
0100
,  // measure 30
0001
0100
0010
1000
,  // measure 31
0001
1000
0001
1000
,  // measure 32
0100
1000
0001
0100
,  // measure 33
0020
0030
2000
3000
,  // measure 34
0200
0000
0000
0300
,  // measure 35
0010
0001
1000
0010
,  // measure 36
1000
0001
1000
0001
,  // measure 37
1000
0100
1000
0001
,  // measure 38
0100
0001
1000
0010
,  // measure 39
0100
0001
0100
0001
,  // measure 40
1000
0001
0010
0001
,  // measure 41
1000
0010
1000
0010
,  // measure 42
1000
0100
1000
0001
,  // measure 43
0100
0010
1000
0001
,  // measure 44
0010
0001
1000
1001
,  // measure 45
0001
0100
0010
1000
,  // measure 46
0100
0010
0100
1001
,  // measure 47
0010
0100
0010
1000
,  // measure 48
0001
0010
0001
1001
,  // measure 49
1000
0100
0001
0100
,  // measure 50
1000
0001
1000
0001
0000
0000
0000
0000
;

//---------------dance-single - ----------------
#NOTEDATA:;
#CHARTNAME:;
#STEPSTYPE:dance-single;
#DESCRIPTION:;
#CHARTSTYLE:;
#DIFFICULTY:Beginner;
#METER:1;
#RADARVALUES:0.146127,0.162073,0.000000,0.000000,0.000000,111.000000,111.000000,0.000000,0.000000,0.000000,0.000000,0.000000,0.000000,0.000000,0.146127,0.162073,0.000000,0.000000,0.000000,111.000000,111.000000,0.000000,0.000000,0.000000,0.000000,0.000000,0.000000,0.000000;
#CREDIT:;
#NOTES:
// measure 0
0000
0000
0000
0000
,  // measure 1
0000
0000
0000
0000
,  // measure 2
0000
0000
0000
0000
,  // measure 3
0000
0000
0000
0000
,  // measure 4
0000
0000
0000
0000
,  // measure 5
0001
0000
0010
0000
,  // measure 6
0100
0000
1000
0000
,  // measure 7
0001
0000
1000
0000
,  // measure 8
0100
0000
0010
0000
,  // measure 9
0001
0000
1000
0000
,  // measure 10
0010
0000
0100
0000
,  // measure 11
0001
0000
1000
0000
,  // measure 12
0010
0000
1000
0000
,  // measure 13
0100
0000
0010
0000
,  // measure 14
0001
0000
1000
0000
,  // measure 15
0001
0000
0100
0000
,  // measure 16
0010
0000
0000
0000
,  // measure 17
1000
0000
0100
0000
,  // measure 18
0010
0010
0010
0010
,  // measure 19
0010
0000
0001
0000
,  // measure 20
0100
0100
0100
0100
,  // measure 21
0100
0000
0010
0000
,  // measure 22
1000
1000
1000
1000
,  // measure 23
1000
0000
0001
0000
,  // measure 24
0100
0100
0100
0100
,  // measure 25
0100
0000
0010
0000
,  // measure 26
1000
1000
1000
0000
,  // measure 27
0001
0000
0010
0000
,  // measure 28
0001
0001
0001
0000
,  // measure 29
1000
0000
0001
0000
,  // measure 30
1000
1000
1000
0000
,  // measure 31
0100
0000
0010
0000
,  // measure 32
0100
0100
0100
0000
,  // measure 33
1000
0000
0001
0000
,  // measure 34
0100
0000
0010
0000
,  // measure 35
1000
1000
1000
1000
,  // measure 36
1000
0000
0000
0000
,  // measure 37
0001
0001
0001
0001
,  // measure 38
0001
0000
0000
0000
,  // measure 39
0010
0010
0010
0010
,  // measure 40
0010
0000
0000
0000
,  // measure 41
0100
0100
0100
0100
,  // measure 42
0100
0000
1000
0000
,  // measure 43
0001
0000
0100
0000
,  // measure 44
1000
1000
1000
0000
,  // measure 45
0100
0000
0001
0000
,  // measure 46
0010
0010
0010
0000
,  // measure 47
0100
0000
1000
0000
,  // measure 48
0010
0010
0010
0000
,  // measure 49
0100
0000
0001
0000
,  // measure 50
0010
0010
0000
0000
;
