#TITLE:Science/Visions;
#SUBTITLE:;
#ARTIST:CHVRCHΞS;
#TITLETRANSLIT:;
#SUBTITLETRANSLIT:;
#ARTISTTRANSLIT:CHVRCHES;
#GENRE:The Bones of What You Believe;
#CREDIT:;
#BANNER:ScienceVisions-bn.png;
#BACKGROUND:ScienceVisions-bg.png;
#LYRICSPATH:;
#CDTITLE:;
#MUSIC:ScienceVisions.mp3;
#OFFSET:-0.020449;
#SAMPLESTART:88.611847;
#SAMPLELENGTH:22.615387;
#LASTBEATHINT:283.996460;
#SELECTABLE:YES;
#BPMS:0.000000=130.000000
;
#STOPS:
;
#BGCHANGES:;
#KEYSOUNDS:;
#ATTACKS:;

//---------------dance-single - ----------------
#NOTES:
     dance-single:
     :
     Challenge:
     10:
     0.580100,0.849591,0.182914,0.087799,0.717024,555.000000,525.000000,25.000000,12.000000,0.000000,40.000000,0.580100,0.849591,0.182914,0.087799,0.717024,555.000000,525.000000,25.000000,12.000000,0.000000,40.000000:
// measure 0
0000
0000
0000
0000
,  // measure 1
0000
0000
0000
0000
,  // measure 2
0000
0000
0000
0000
,  // measure 3
0000
0000
0000
0000
,  // measure 4
0000
0000
0000
0000
,  // measure 5
0000
0000
0000
0000
,  // measure 6
0000
0000
0000
0000
,  // measure 7
0000
0000
0000
0000
,  // measure 8
2000
0100
0010
0100
,  // measure 9
0001
0100
0010
0001
,  // measure 10
0200
0001
0010
0001
,  // measure 11
3301
0000
0000
0000
0100
0000
0010
0000
1000
0000
0000
0010
0000
0000
0100
0000
,  // measure 12
0001
0000
1000
0200
0000
0000
0310
0000
,  // measure 13
1000
0001
0100
0010
,  // measure 14
1000
0100
0010
0001
,  // measure 15
1000
0000
0000
0010
0000
0000
1000
0000
0100
0000
0000
0010
0000
0000
0001
0000
,  // measure 16
0002
0010
0100
0010
,  // measure 17
1000
0010
0100
1000
,  // measure 18
0200
1000
0010
1000
,  // measure 19
1303
0000
0000
0000
0010
0000
0100
0000
0001
0000
0000
0100
0000
0000
0010
0000
,  // measure 20
1000
0000
0001
0020
0000
0000
0130
0000
,  // measure 21
1000
0010
0100
0001
,  // measure 22
0010
0100
1000
0001
,  // measure 23
0100
0010
0200
1000
,  // measure 24
0020
1000
0001
1000
,  // measure 25
0001
1000
1001
0001
,  // measure 26
1001
1000
0001
1000
,  // measure 27
0001
0000
0000
0000
1000
0000
0001
0000
1000
0000
0000
0001
0000
0000
1000
0000
,  // measure 28
0001
0000
1000
0001
0000
0000
1330
0000
,  // measure 29
0100
0010
0001
1000
,  // measure 30
0100
0010
0001
1000
,  // measure 31
0010
0100
0001
0010
,  // measure 32
0110
1000
0010
0110
0000
1000
0100
0000
,  // measure 33
0110
0001
0010
0110
0000
0001
0100
0000
,  // measure 34
0110
0001
1000
0110
0000
0001
1000
0000
,  // measure 35
0220
0000
1000
0000
0001
1000
0331
0000
,  // measure 36
1111
0000
0000
0000
0000
0000
1000
0000
0000
0000
0000
0000
0100
0010
0001
0000
,  // measure 37
0101
0000
0000
1100
0000
0000
0010
0100
,  // measure 38
0011
0000
0000
0000
0000
0000
1010
0000
0000
0000
0000
0000
0001
1000
0100
0000
,  // measure 39
1100
0000
0000
0000
0000
0000
0011
0000
0001
0000
0000
0010
0000
0000
0001
0000
,  // measure 40
0101
1000
0010
1010
0000
0010
0100
0000
,  // measure 41
0110
0001
0100
0101
0000
1000
0100
0000
,  // measure 42
0110
0001
1000
0011
0000
0001
0100
0000
,  // measure 43
0220
0000
0001
0000
1000
0001
1330
0000
,  // measure 44
1111
0000
0000
0000
0000
0000
0000
0000
1000
0010
0000
0100
0000
0001
0010
0001
,  // measure 45
0100
0010
0000
1000
0000
0010
0100
0001
0010
0100
0000
1000
0000
0001
1000
0100
,  // measure 46
0010
0001
0000
1000
0000
0010
0100
0001
0010
0100
0000
1000
0000
0010
1000
0100
,  // measure 47
0010
0001
0000
1000
0000
0001
0100
0010
1000
0001
0000
0010
0000
0100
1000
0010
,  // measure 48
0100
0001
0000
0010
0100
1000
0010
0100
0001
0010
0000
0001
1000
0010
0100
0001
,  // measure 49
0010
0100
0000
0010
0001
1000
0010
0100
0001
0100
0000
0001
0010
0100
0010
0001
,  // measure 50
1000
0010
0000
1000
0100
0010
0100
1000
0001
0100
0000
0010
0100
0001
0010
0100
,  // measure 51
0010
0001
0000
1000
0010
0100
0001
1000
0100
0010
0000
0100
1000
0010
0100
0001
,  // measure 52
0010
0001
0000
1000
0010
0100
0001
0010
0100
1000
0000
0001
1000
0010
0100
0010
,  // measure 53
1000
0100
0000
1000
0100
0010
0100
0001
0100
0010
0000
0001
0100
0010
1000
0010
,  // measure 54
0100
0001
0000
1000
0010
1000
0001
0010
0100
1000
0000
0010
1000
0001
0100
0010
,  // measure 55
0100
0001
0000
0010
0100
1000
0010
0100
0001
1000
0000
0100
1000
0010
0100
0001
,  // measure 56
0010
0100
0010
0001
0100
0010
0100
0001
1000
0010
0100
0010
1000
0010
0100
0001
,  // measure 57
1000
0100
0010
0100
1000
0100
0010
0001
1000
0001
0100
0010
0100
0001
0100
0010
,  // measure 58
1000
0001
0010
0100
1000
0010
1000
0100
0010
0001
0010
0100
1000
0100
0010
0001
,  // measure 59
1000
0010
0100
0001
0100
0010
0100
0001
1000
0010
0100
0001
1000
0100
1000
0001
,  // measure 60
0100
0010
0100
0001
1000
0010
0100
0001
0100
0010
1000
0001
0010
0100
1000
0010
,  // measure 61
0100
0001
1000
0001
0100
0010
1000
0100
0010
0001
0010
0100
1000
0001
0100
0010
,  // measure 62
0100
0001
1000
0010
0100
0010
1000
0100
0010
0100
0001
0100
0010
0100
0010
0001
,  // measure 63
1000
0100
0010
0100
1000
0010
0100
0001
0100
0010
1000
0001
0100
0010
0100
1000
,  // measure 64
0100
0010
0100
0001
1000
0010
0100
0001
0010
0100
0010
0001
1000
0010
0100
0001
,  // measure 65
0010
0100
0010
0001
1000
0010
0100
0001
1000
0100
1000
0001
0100
0010
0100
0001
,  // measure 66
0010
0100
0010
1000
0010
0001
0100
0010
0100
0001
1000
0010
0100
0001
1000
0001
,  // measure 67
0100
0010
1000
0001
0010
0100
1000
0010
1000
0100
0010
0001
1000
0001
1000
0001
,  // measure 68
1000
0000
0000
0000
0000
0000
0000
0001
,  // measure 69
0010
0000
0100
1000
0001
0000
0100
0000
,  // measure 70
0010
0000
0000
1101
0000
0000
0000
0000
;

//---------------dance-single - ----------------
#NOTES:
     dance-single:
     :
     Hard:
     7:
     0.327155,0.407533,0.109749,0.212181,0.065849,313.000000,298.000000,15.000000,29.000000,0.000000,0.000000,0.327155,0.407533,0.109749,0.212181,0.065849,313.000000,298.000000,15.000000,29.000000,0.000000,0.000000:
// measure 0
0000
0000
0000
0000
,  // measure 1
0000
0000
0000
0000
,  // measure 2
0000
0000
0000
0000
,  // measure 3
0000
0000
0000
0000
,  // measure 4
0000
0000
0000
0000
,  // measure 5
0000
0000
0000
0000
,  // measure 6
0000
0000
0000
0000
,  // measure 7
0000
0000
0000
0000
,  // measure 8
0010
1000
0100
0010
,  // measure 9
0001
1000
0010
0100
,  // measure 10
0010
1000
0100
0010
,  // measure 11
0001
0000
0000
0000
1000
0000
0001
0000
0010
0000
0000
0100
0000
0000
1000
0000
,  // measure 12
0010
0000
1000
0200
0000
0000
0310
0000
,  // measure 13
0001
1000
0010
1000
,  // measure 14
0100
0010
0001
1000
,  // measure 15
0010
0000
0000
0100
0000
0000
0001
0000
0010
0000
0000
0100
0000
0000
1000
0000
,  // measure 16
0010
1000
0001
0100
,  // measure 17
0010
1000
0100
0010
,  // measure 18
0001
1000
0010
0100
,  // measure 19
0001
0000
0000
0000
0010
0000
0100
0000
1000
0000
0000
0001
0000
0000
1000
0000
,  // measure 20
0100
0000
0010
0200
0000
0000
1300
0000
,  // measure 21
0001
0010
0100
0010
,  // measure 22
0001
0100
0010
1000
,  // measure 23
0001
1000
0010
0100
,  // measure 24
0001
0010
0100
1000
,  // measure 25
0010
1000
0100
0010
,  // measure 26
0001
1000
0010
0100
,  // measure 27
0010
0000
0000
0000
1000
0000
0100
0000
0010
0000
0000
0001
0000
0000
1000
0000
,  // measure 28
0010
0000
1000
0200
0000
0000
0310
0000
,  // measure 29
0001
1000
0010
0100
,  // measure 30
0001
0010
0100
1000
,  // measure 31
0010
0100
0001
0010
,  // measure 32
0220
0000
0330
2002
0000
0000
3003
0000
,  // measure 33
2020
0000
3030
0022
0000
0000
0033
0000
,  // measure 34
2200
0000
3300
0202
0000
0000
0303
0000
,  // measure 35
0220
0000
0000
0330
,  // measure 36
1002
0000
0000
0000
0000
0000
0013
0000
0000
0000
0000
0000
0100
1000
0100
0000
,  // measure 37
2000
0000
0000
3010
0000
0000
0100
0001
,  // measure 38
0020
0000
0000
0000
0000
0000
0130
0000
0000
0000
0000
0000
1000
0001
1000
0000
,  // measure 39
0200
0000
0000
0000
0000
0000
0310
0000
0001
0000
0000
1000
0000
0000
0010
0000
,  // measure 40
0100
0000
0001
0202
0000
0000
0303
0000
,  // measure 41
1010
0000
0000
2200
0000
0000
3300
0000
,  // measure 42
0110
0000
0000
0022
0000
0000
0033
0000
,  // measure 43
0220
0000
0000
0330
,  // measure 44
1001
1000
0100
0010
0001
0010
0100
0000
,  // measure 45
0010
0001
1000
0001
0010
0001
1000
0000
,  // measure 46
0010
0100
0001
0100
0010
0100
0001
0000
,  // measure 47
1000
0010
0100
0010
1000
0010
0100
0001
,  // measure 48
0000
0001
0010
0100
0000
0100
1000
0010
,  // measure 49
1000
0000
0000
0100
0000
0000
0010
0000
0001
0000
1000
0000
0010
0000
0000
0000
,  // measure 50
0100
0001
0000
1000
0100
0010
0000
0001
,  // measure 51
1000
0000
0000
0010
0000
0000
1000
0000
0100
0000
0010
0000
0001
0000
0100
0000
,  // measure 52
0001
0010
0000
0100
1000
0010
0000
0100
,  // measure 53
0001
0000
1000
0010
0100
0001
0010
0100
,  // measure 54
0000
1000
0001
0100
0000
0001
1000
0010
,  // measure 55
0100
0000
0000
0001
0000
0000
0010
0000
0100
0000
0000
1000
0000
0000
0001
0000
,  // measure 56
0100
0010
0000
1000
0001
0010
0000
0100
,  // measure 57
1000
0000
0000
0010
0000
0000
0100
0000
0001
0000
0010
0000
0100
0000
1000
0000
,  // measure 58
0010
0100
0000
0010
1000
0001
0000
0010
,  // measure 59
0100
0000
0000
1000
0000
0000
0010
0000
0100
0000
0000
0000
0001
0000
0010
0000
,  // measure 60
0100
1000
0000
0010
1000
0001
0000
0010
,  // measure 61
0100
0000
1000
0001
0100
0000
0010
1000
,  // measure 62
0001
0010
0000
0100
1000
0010
0000
1000
,  // measure 63
0100
0000
0000
0010
0000
0000
0001
0000
1000
0000
0000
0010
0000
0000
0100
0000
,  // measure 64
0001
1000
0000
0010
1000
0100
0000
0010
,  // measure 65
0001
0000
0000
0100
0000
0000
0010
0000
1000
0000
0100
0000
0000
0000
0010
0000
,  // measure 66
0001
1000
0000
0010
1000
0100
0000
1000
,  // measure 67
0010
0000
0000
0100
0000
0000
0001
0000
0010
0000
0000
0000
0001
0000
1000
0000
,  // measure 68
0100
0010
0000
0001
0000
0100
0000
0010
,  // measure 69
0000
1000
0000
0100
0000
0010
0000
0000
;

//---------------dance-single - ----------------
#NOTES:
     dance-single:
     :
     Medium:
     5:
     0.291618,0.357232,0.248764,0.117065,0.000000,279.000000,245.000000,34.000000,16.000000,0.000000,0.000000,0.291618,0.357232,0.248764,0.117065,0.000000,279.000000,245.000000,34.000000,16.000000,0.000000,0.000000:
0000
0000
0000
0000
,
0000
0000
0000
0000
,
0000
0000
0000
0000
,
0000
0000
0000
0000
,
0000
0000
0000
0000
,
0000
0000
0000
0000
,
0000
0000
0000
0000
,
0000
0000
0000
0000
,
0010
1000
0100
0010
,
0001
0100
0010
1000
,
0100
0010
0001
0100
,
0010
1000
0001
0010
,
0100
1000
0001
1000
,
0010
1000
0001
1000
,
0100
1000
0001
1000
,
0010
1000
0001
1000
,
0010
0100
0001
0010
,
0100
1000
0010
0100
,
0001
0010
0100
1000
,
0010
0100
0001
0010
,
0100
1000
0001
0100
,
0001
1000
0100
1000
,
0001
0100
0001
1000
,
0100
1000
0001
0010
,
0100
1000
0010
0100
,
0001
0010
0100
1000
,
0010
0100
0001
0010
,
0100
1000
0001
0010
,
0100
1000
0010
0100
,
0001
0010
0100
1000
,
0010
0100
0001
0010
,
0100
1000
0010
0100
,
0001
0000
0000
2002
0000
0000
3003
0000
,
0010
0000
0000
2002
0000
0000
3003
0000
,
0100
0000
0000
2002
0000
0000
3003
0000
,
0220
0000
0000
0330
,
1001
0000
0010
0000
1000
0000
0100
0010
,
0001
1000
0010
0100
,
0001
0000
0010
0000
0100
0000
1000
0001
,
0100
0010
0100
0001
,
1000
0000
0000
2002
0000
0000
3003
0000
,
0010
0000
0000
0220
0000
0000
0330
0000
,
0100
0000
0000
2002
0000
0000
3003
0000
,
0220
0000
0000
0330
,
1001
0000
0010
0000
1000
0010
1000
0000
,
0001
0010
0100
0000
0010
0001
0010
0000
,
0001
0000
1000
0000
0100
0010
0100
0000
,
1000
0001
0100
0000
0010
0100
0010
0000
,
1000
0110
1000
0110
,
0010
0000
1000
0100
0010
0000
0001
0000
,
1000
0110
0001
0110
,
0001
0000
0010
0100
1000
0000
0001
0000
,
0100
0110
1000
0110
,
0010
0000
1000
0001
0100
0000
0110
0000
,
0010
0110
0100
0110
,
0001
0010
0100
1000
,
0001
0110
1000
0110
,
0001
0000
0010
0100
1000
0000
0110
0000
,
1000
0110
0001
0110
,
0001
0000
1000
0010
0100
0000
0001
0000
,
1000
1010
0001
0011
,
1000
0000
0001
1000
0010
0000
0110
0000
,
0001
0101
1000
1100
,
0010
0000
1000
0100
0010
0000
0001
0000
,
1000
0110
0001
0110
,
0010
0000
1000
0001
0100
0000
0101
0000
,
0010
1001
0010
1100
,
0010
0000
1000
0001
0100
0000
0001
0000
,
0010
0000
0000
0000
,
0100
0000
1000
0001
0100
0000
0100
0000
;

//---------------dance-single - ----------------
#NOTES:
     dance-single:
     :
     Easy:
     3:
     0.214271,0.230472,0.014633,0.095115,0.000000,205.000000,203.000000,2.000000,13.000000,0.000000,0.000000,0.214271,0.230472,0.014633,0.095115,0.000000,205.000000,203.000000,2.000000,13.000000,0.000000,0.000000:
0000
0000
0000
0000
,
0000
0000
0000
0000
,
0000
0000
0000
0000
,
0000
0000
0000
0000
,
0000
0000
0000
0000
,
0000
0000
0000
0000
,
0000
0000
0000
0000
,
0000
0000
0000
0000
,
1000
0100
1000
0010
,
1000
0100
1000
0010
,
1000
0100
1000
0010
,
1000
0100
1000
0010
,
0100
0001
0010
0001
,
0100
0001
0010
0001
,
0100
0001
0010
0001
,
0100
0001
0010
0001
,
0100
0010
1000
0001
,
0100
0010
1000
0001
,
0100
0010
1000
0001
,
0100
0010
1000
0001
,
0100
0010
1000
0001
,
0100
0010
1000
0001
,
0100
0010
1000
0001
,
0100
0010
1000
0001
,
0010
0100
1000
0001
,
0010
0100
1000
0001
,
0010
0100
1000
0001
,
0010
0100
1000
0001
,
0010
0001
0100
0001
,
0010
0001
0100
0001
,
0010
0001
0100
0001
,
0010
0001
0100
0001
,
2000
0000
0010
3010
,
0002
0000
0100
0103
,
2000
0000
0100
3100
,
0020
0100
0130
0000
,
1001
0000
0020
0000
,
0030
0000
2000
0000
,
3200
0000
0300
0000
,
0000
0000
0010
0001
,
0200
0000
0001
0301
,
2000
0000
0100
3100
,
0020
0000
1000
1030
,
0002
0100
0103
0000
,
1001
0000
0020
0030
,
1000
0100
0010
0000
,
0001
0000
0200
0300
,
0010
0100
0001
0000
,
1000
0000
0001
0000
,
0010
0001
0010
0001
,
0010
0000
0100
0000
,
1000
0100
1000
0100
,
1000
0000
0010
0000
,
0100
0010
0100
0010
,
0100
0000
0001
0000
,
0010
0100
0010
0100
,
0010
0000
1000
0000
,
0001
1000
0001
1000
,
0001
0000
0010
0000
,
0100
0010
0100
0010
,
0100
0000
1000
0000
,
0001
1000
0001
1000
,
0001
0000
1000
0000
,
0010
1000
0010
1000
,
0010
0000
0100
0000
,
0001
0100
0001
0100
,
0001
0000
0010
0000
,
0001
0010
0001
0010
,
0001
0000
1000
0000
,
0010
0100
0010
0100
,
0010
0000
0000
0000
;

//---------------dance-single - ----------------
#NOTES:
     dance-single:
     :
     Beginner:
     1:
     0.096161,0.153648,0.029266,0.000000,0.000000,92.000000,88.000000,4.000000,0.000000,0.000000,0.000000,0.096161,0.153648,0.029266,0.000000,0.000000,92.000000,88.000000,4.000000,0.000000,0.000000,0.000000:
0000
0000
0000
0000
,
0000
0000
0000
0000
,
0000
0000
0000
0000
,
0000
0000
0000
0000
,
0000
0000
0000
0000
,
0000
0000
0000
0000
,
0000
0000
0000
0000
,
0000
0000
0000
0000
,
0010
0000
0000
0000
,
0000
0000
1000
0000
,
0100
0000
0000
0000
,
0000
0000
0010
0000
,
0001
0000
0001
0000
,
0000
0000
0000
0000
,
0000
0000
0000
0000
,
0100
0000
0010
0000
,
1000
0000
0000
0000
,
0000
0000
0010
0000
,
0100
0000
0000
0000
,
0000
0000
0001
0000
,
0010
0000
0000
0000
,
0000
0000
0000
0000
,
0000
0000
0000
0000
,
0000
0000
0100
0000
,
1000
0000
0000
0000
,
0000
0000
0001
0000
,
0010
0000
0000
0000
,
0000
0000
0001
0000
,
0100
0000
0000
0000
,
0000
0000
0000
0000
,
0000
0000
0000
0000
,
0000
0000
0000
0000
,
1001
0000
0010
0000
,
1000
0000
0010
0000
,
0001
0000
0010
0000
,
1000
0000
0010
0000
,
1001
0000
0010
0000
,
0000
0000
0100
0000
,
1000
0000
0000
0000
,
0000
0000
0001
0000
,
1001
0000
0010
0000
,
0001
0000
0010
0000
,
1000
0000
0010
0000
,
0001
0000
0010
0000
,
1001
0000
0000
0000
,
0010
0000
0000
0000
,
0100
0000
0000
0000
,
0001
0000
0000
0000
,
0010
0000
0010
0000
,
0100
0000
1000
0000
,
0010
0000
0010
0000
,
0100
0000
0001
0000
,
0010
0000
0010
0000
,
0001
0000
0100
0000
,
0010
0000
0010
0000
,
1000
0000
0001
0000
,
0010
0000
0100
0000
,
0010
0000
0001
0000
,
1000
0000
0100
0000
,
0010
0000
0100
0000
,
1000
0000
0001
0000
,
0100
0000
0010
0000
,
1000
0000
0010
0000
,
0100
0000
0001
0000
,
1000
0000
0001
0000
,
0010
0000
0100
0000
,
1000
0000
0001
0000
,
0010
0000
0001
0000
,
0100
0000
0000
0000
,
0010
0000
0010
0000
,
1000
0000
0000
0000
;
