#VERSION:0.81;
#TITLE:Sapphire;
#SUBTITLE:;
#ARTIST:Late Night Alumni;
#TITLETRANSLIT:;
#SUBTITLETRANSLIT:;
#ARTISTTRANSLIT:;
#GENRE:The Beat Becomes A Sound;
#ORIGIN:;
#CREDIT:;
#BANNER:Sapphire-bn.png;
#BACKGROUND:Sapphire-bg.png;
#PREVIEWVID:;
#JACKET:;
#CDIMAGE:;
#DISCIMAGE:;
#LYRICSPATH:;
#CDTITLE:;
#MUSIC:Sapphire.mp3;
#OFFSET:-0.002000;
#SAMPLESTART:104.998009;
#SAMPLELENGTH:15.000000;
#SELECTABLE:YES;
#BPMS:0.000=128.000;
#STOPS:;
#DELAYS:;
#WARPS:;
#TIMESIGNATURES:0.000=4=4;
#TICKCOUNTS:0.000=2;
#COMBOS:0.000=1;
#SPEEDS:0.000=1.000=0.000=0;
#SCROLLS:0.000=1.000;
#FAKES:;
#LABELS:0.000=Song Start;
#LASTSECONDHINT:125.663002;
#BGCHANGES:;
#KEYSOUNDS:;
#ATTACKS:
;

//---------------dance-single - ----------------
#NOTEDATA:;
#CHARTNAME:;
#STEPSTYPE:dance-single;
#DESCRIPTION:;
#CHARTSTYLE:;
#DIFFICULTY:Challenge;
#METER:9;
#RADARVALUES:0.500458,0.740082,0.185601,0.997603,0.181734,300.000000,24.000000,129.000000,0.000000,62.000000,0.000000,0.000000,0.000000,0.500458,0.740082,0.185601,0.997603,0.181734,300.000000,24.000000,129.000000,0.000000,62.000000,0.000000,0.000000,0.000000;
#CREDIT:;
#NOTES:
0000
0000
0000
0000
,
0000
0000
0000
0000
,
0000
0000
0000
0000
,
0000
0000
0000
0000
,
0020
0000
0000
0000
0000
0000
0000
0000
0000
0000
0000
0000
0000
0000
0000
0030
0020
0000
0000
0000
0000
0000
0000
0000
0000
0000
0000
0000
0000
0000
0000
0000
,
2030
0000
0000
0000
0000
0000
0000
0000
0000
0000
0000
0000
0000
0000
0000
3000
2000
0000
0000
0000
0000
0000
0000
0000
0000
0000
0000
0000
0000
0000
0000
0000
,
3002
0000
0000
0000
0000
0000
0000
0000
0000
0000
0000
0000
0000
0000
0000
0003
0002
0000
0000
0000
0000
0000
0000
0000
0000
0000
0000
0000
0000
0000
0000
0000
,
0203
0000
0000
0000
0000
0000
0000
0000
0000
0000
0000
0000
0000
0000
0000
0300
0200
0000
0000
0000
0000
0000
0000
0000
0000
0000
0000
0000
0001
0000
0000
0300
,
0020
0000
0000
0000
0000
0000
0000
0000
0000
0000
0000
0000
1000
0000
0000
0030
0020
0000
0000
0000
0000
0000
0000
0000
0000
0000
0000
0000
0001
0000
0000
0030
,
0020
0000
0000
0000
0000
1030
0200
0000
,
0000
2300
0000
0000
,
3000
0000
0000
0000
,
0000
0000
0000
0000
0000
0000
0001
0000
0001
0000
0000
0001
0000
0000
0001
0000
,
0010
0000
0000
0010
0000
0000
0010
0000
0010
0000
0000
0010
0000
0000
0010
0000
,
0020
0200
0000
0000
0000
0000
0000
0000
,
0030
0000
0000
0000
,
1300
0010
0001
0100
,
0010
0000
1000
0001
0100
0000
0100
0000
,
0001
0010
0100
1000
,
0001
0010
0000
0100
0000
1000
0001
1000
,
0002
0000
0200
0003
2000
0300
0020
3000
,
0031
0100
0001
0000
1000
0000
0010
0000
,
0100
0010
1000
0000
0100
0000
0100
0000
,
0020
0000
0000
0030
,
2002
3003
0020
0030
,
2000
0000
0000
3100
,
2002
3003
0020
0030
,
0002
0000
0000
0003
,
2002
0000
3003
0000
0020
0000
0030
1000
,
0200
0000
0000
0310
,
2002
0000
3003
0000
0200
0000
0300
0001
,
0020
0000
0000
0030
,
0110
2002
0010
0000
,
0010
0000
0000
0000
3013
0000
1000
0001
,
0000
0110
2002
0000
,
0010
0000
3013
0000
,
0110
2002
0010
0000
,
0010
0000
0000
0000
3013
0000
0001
1000
,
0010
0100
0001
1000
0010
0100
0010
1000
,
0100
1000
0100
1000
0100
1000
0100
1000
0100
1000
0100
0000
0000
0000
0000
0000
,
0022
0000
0033
0010
0001
0000
2000
0000
0020
0000
3030
0010
0100
0000
0002
0000
,
2000
0000
3003
0010
1000
0000
0200
0000
0020
0000
0330
0001
0100
0000
0020
0000
,
2000
0000
3030
0001
0010
0000
0200
0000
2000
0000
3300
1000
0010
0000
2000
0000
,
0200
0000
3300
0010
0001
0000
2000
0000
3002
0000
0103
0000
0101
0000
0200
0000
,
0020
0000
0330
1000
0001
0000
2000
0000
0020
0000
3030
0100
0001
0000
0020
0000
,
0002
0000
0033
0001
1000
0000
0200
0000
0020
0000
0330
0100
1000
0000
0020
0000
,
2000
0000
3030
1000
0001
0000
0020
0000
0002
0000
0033
0001
0100
0000
0020
0000
,
2000
0000
3030
1000
0010
0000
0200
0000
0320
0000
1030
0000
1010
0000
1000
0000
,
1001
0000
0000
0000
2200
0000
0000
0000
0001
0000
0000
0001
0010
0000
0001
0000
,
0010
0000
0000
0010
0001
0000
0010
0000
0001
0000
0000
0001
0010
0000
0001
0000
,
0010
0000
0000
0010
0001
0000
0010
0000
0001
0000
0000
0001
0010
0000
0001
0000
,
0010
0000
0000
0010
0001
0000
0010
0000
0010
0000
0001
0000
3311
0000
0000
0000
,
1001
0000
0000
0000
0202
0000
0000
0000
1000
0000
0000
1000
0010
0000
1000
0000
,
0010
0000
0000
0010
1000
0000
0010
0000
1000
0000
0000
1000
0010
0000
1000
0000
,
0010
0000
0000
0010
1000
0000
0010
0000
1000
0000
0000
1000
0010
0000
1000
0000
,
0010
0000
0000
0010
1000
0000
0010
0000
0010
0000
1000
0000
1313
0000
0000
0000
,
0220
0000
0000
0330
2002
0000
0000
3003
0200
0000
0000
0301
0020
0000
0230
0000
,
2300
0000
0000
3010
0200
0000
0302
0000
0023
0000
0000
0130
2000
0000
3002
0000
,
0203
0000
0000
0301
0020
0000
0032
0000
2003
0000
0000
3010
0200
0000
0302
0000
,
2003
0000
0000
3001
0020
0000
0230
0000
0320
0000
0001
0030
2002
0000
3003
0000
,
0200
0000
0000
0310
2000
0000
3020
0000
0230
0000
0000
0301
2000
0000
3200
0000
,
0320
0000
0000
0031
0020
0000
0230
0000
2300
0000
0000
3010
0200
0000
0302
0000
,
0023
0000
0000
0031
2000
0000
3002
0000
0203
0000
0000
0310
2000
0000
3020
0000
,
0230
0000
0000
0301
2000
0000
3200
0000
0320
0000
0001
0030
2002
0000
3003
0000
,
1200
0002
0000
0000
,
0000
0000
0000
0000
,
0303
0000
0000
0000
;

//---------------dance-single - ----------------
#NOTEDATA:;
#CHARTNAME:;
#STEPSTYPE:dance-single;
#DESCRIPTION:;
#CHARTSTYLE:;
#DIFFICULTY:Hard;
#METER:8;
#RADARVALUES:0.382249,0.433841,0.177867,0.363468,0.158534,276.000000,23.000000,47.000000,0.000000,0.000000,0.000000,0.000000,0.000000,0.382249,0.433841,0.177867,0.363468,0.158534,276.000000,23.000000,47.000000,0.000000,0.000000,0.000000,0.000000,0.000000;
#CREDIT:;
#NOTES:
0000
0000
0000
0000
,
0000
0000
0000
0000
,
0000
0000
0000
0000
,
0000
0000
0000
0000
,
0020
0030
0020
0030
,
2000
3000
2000
3000
,
0002
0003
0002
0003
,
0200
0000
0300
0000
0200
0000
0300
0001
,
0020
0000
0030
1000
0020
0000
0030
0001
,
0020
0000
0000
0000
0030
1000
0200
0000
,
0000
2300
0000
0000
,
3000
0000
0000
0000
,
0000
0000
0000
0000
0000
0000
0001
0000
0001
0000
0000
1000
0000
0000
0001
0000
,
0010
0000
0000
0100
0000
0000
0010
0000
0001
0000
0000
0010
0000
0000
0100
0000
,
0200
0000
0000
0000
,
0000
0000
0000
0000
,
0000
0310
0001
0100
,
0010
0000
1000
0002
0000
0000
0000
0000
,
0000
0000
0013
0100
,
1000
0010
0000
0100
0000
0001
1000
0001
,
2000
0000
0000
0000
,
3000
0010
0100
0000
0001
0000
0020
0000
,
0030
0200
0000
0000
0000
0000
0000
0000
,
2000
0000
0000
3300
,
2002
3003
0020
0030
,
2000
0000
0000
3100
,
2002
3003
0020
0030
,
0002
0000
0000
0003
,
2002
0000
3003
0000
0020
0000
0030
1000
,
0200
0000
0000
0310
,
2002
0000
3003
0000
0200
0000
0300
0001
,
0020
0000
0000
0030
,
0110
2001
0010
0000
,
0010
0000
0000
0000
3010
0000
1000
0001
,
0000
0110
1002
0000
,
0010
0000
0010
0003
,
0110
1001
0020
0030
,
0020
0030
0010
0001
,
1000
0010
0100
0001
1000
0010
0100
0002
,
2000
0000
0000
0000
0000
3003
0000
0000
,
0011
0000
0000
0010
0001
0000
1000
0000
0010
0000
0000
0010
0100
0000
0001
0000
,
1000
0000
0000
0010
1000
0000
0100
0000
0010
0000
0000
0001
0100
0000
0010
0000
,
1000
0000
0000
0001
0010
0000
0100
0000
1000
0000
0000
1000
0010
0000
1000
0000
,
0100
0000
0000
0010
0001
0000
1000
0000
0001
0000
0100
0000
0101
0000
0100
0000
,
0010
0000
0000
1000
0001
0000
1000
0000
0010
0000
0000
0100
0001
0000
0010
0000
,
0001
0000
0000
0001
1000
0000
0100
0000
0010
0000
0000
0100
1000
0000
0010
0000
,
1000
0000
0000
1000
0001
0000
0010
0000
0001
0000
0000
0001
0100
0000
0010
0000
,
1000
0000
0000
1000
0010
0000
0100
0000
0010
0000
1000
0000
1010
0000
1000
0000
,
0101
0000
0202
0000
0303
0000
1000
0100
,
0010
0000
0000
0001
0100
0000
0010
0000
1000
0000
0000
0100
0010
0000
0001
0000
,
0010
0000
0000
0100
0010
0000
1000
0000
0100
0000
0000
0010
0001
0000
1000
0000
,
0010
0000
0000
0100
0001
0000
1000
0000
0100
0000
0010
0000
0110
0000
0100
0000
,
1000
0000
0000
0010
0100
0000
0010
0000
1000
0000
0000
0001
0010
0000
0100
0000
,
1000
0000
0000
0010
0100
0000
0001
0000
1000
0000
0000
0010
0100
0000
0001
0000
,
1000
0000
0000
0001
0100
0000
0010
0000
1000
0000
0000
1000
0010
0000
0100
0000
,
0010
0000
0000
0100
0001
0000
1000
0000
0010
0000
0100
0000
0110
0000
0010
0000
,
1001
0000
2002
0000
3003
0000
0010
0100
,
1000
0000
0000
0001
0100
0000
0010
0000
0100
0000
0000
0001
0010
0000
0100
0000
,
1000
0000
0000
0010
0100
0000
0001
0000
0010
0000
0000
0100
0010
0000
0001
0000
,
1000
0000
0000
0010
0100
0000
0001
0000
0010
0000
0100
0000
0110
0000
0100
0000
,
1000
0000
0000
0010
0100
0000
0001
0000
1000
0000
0000
1000
0100
0000
0010
0000
,
0001
0000
0000
0010
0100
0000
1000
0000
0010
0000
0000
1000
0001
0000
0010
0000
,
0100
0000
0000
1000
0010
0000
1000
0000
0100
0000
0000
0010
0001
0000
0010
0000
,
0100
0000
0000
1000
0010
0000
0100
0000
0001
0000
1000
0000
1001
0000
0000
0000
,
0110
2002
0000
0000
,
0000
0000
0000
0000
,
3003
0000
0000
0000
;

//---------------dance-single - ----------------
#NOTEDATA:;
#CHARTNAME:;
#STEPSTYPE:dance-single;
#DESCRIPTION:;
#CHARTSTYLE:;
#DIFFICULTY:Medium;
#METER:6;
#RADARVALUES:0.289448,0.280721,0.108267,0.471735,0.011600,187.000000,14.000000,61.000000,0.000000,0.000000,0.000000,0.000000,0.000000,0.289448,0.280721,0.108267,0.471735,0.011600,187.000000,14.000000,61.000000,0.000000,0.000000,0.000000,0.000000,0.000000;
#CREDIT:;
#NOTES:
0000
0000
0000
0000
,
0000
0000
0000
0000
,
0000
0000
0000
0000
,
0000
0000
0000
0000
,
0020
0030
0020
0030
,
2000
3000
2000
3000
,
0002
0003
0002
0003
,
0200
0000
0300
0000
0200
0000
0300
0001
,
0020
0000
0030
0100
0020
0000
0030
0001
,
0020
0000
0000
0000
0030
0100
2000
0000
,
0000
3200
0000
0000
,
0300
0000
0000
0000
,
0000
0000
0000
0000
0000
0000
0010
0000
0001
0000
0000
0010
0000
0000
0001
0000
,
0100
0000
0000
0001
0000
0000
0100
0000
0001
0000
0000
1000
0000
0000
0010
0000
,
0200
0000
0000
0000
,
0300
0000
0000
0000
,
0000
0010
1000
0100
,
0010
0000
0001
2000
0000
0000
0000
0000
,
0000
0000
3010
0100
,
0001
0010
0000
0100
0000
1000
0100
1000
,
0200
0000
0000
0000
,
0300
0010
0001
0000
1000
0000
0020
0000
,
0030
0200
0000
0000
0000
0000
0000
0000
,
0302
0000
0000
0003
,
2002
3003
0020
0030
,
2000
0000
0000
3100
,
2002
3003
0020
0030
,
0002
0000
0000
0003
,
2002
0000
3003
0000
0020
0000
0030
1000
,
0200
0000
0000
0310
,
2002
0000
3003
0000
0200
0000
0300
0001
,
0020
0000
0000
0030
,
0110
2001
0010
0000
,
0010
0000
0000
0000
3010
0000
1000
0001
,
0000
0100
1002
0000
,
0010
0000
0010
0003
,
0110
1001
0020
0030
,
0020
0030
0010
0001
,
1000
0001
1000
0001
1000
0001
1000
0002
,
2000
0000
0000
0000
0000
3003
0000
0000
,
0002
0010
1000
0100
,
1000
0010
1000
0103
,
0020
0000
1030
0200
0000
0000
1000
0000
,
0010
0000
0001
0000
0310
0100
0010
0000
,
0200
1000
0001
0010
,
0001
1000
0001
0310
,
2000
0000
3001
0020
0000
0000
0001
0000
,
0100
0000
0001
0000
0130
0010
0100
0000
,
0120
0200
0000
0330
,
1000
0010
0001
0010
,
0100
0000
0001
2000
0000
0000
0100
0000
,
0001
0000
0010
0000
3001
1000
0100
0000
,
0210
0020
0000
0330
,
0001
0010
0100
1000
,
0010
0000
0100
0002
0000
0000
0100
0000
,
1000
0000
0010
0000
1003
0001
0100
0000
,
0120
0200
0000
0330
,
0001
0010
1000
0010
,
0100
0000
1000
0002
0000
0000
0100
0000
,
1000
0000
0010
0000
1003
0001
0010
0000
,
0210
0020
0000
0330
,
1000
0100
0010
0001
,
0100
0000
0010
2000
0000
0000
0100
0000
,
0001
0000
0010
0000
3001
1000
0100
0000
,
0120
0200
0000
0000
,
0000
0000
0000
0000
,
0330
0000
0000
0000
;

//---------------dance-single - ----------------
#NOTEDATA:;
#CHARTNAME:;
#STEPSTYPE:dance-single;
#DESCRIPTION:;
#CHARTSTYLE:;
#DIFFICULTY:Easy;
#METER:3;
#RADARVALUES:0.260725,0.255201,0.061867,0.858402,0.000000,117.000000,8.000000,111.000000,0.000000,0.000000,0.000000,0.000000,0.000000,0.260725,0.255201,0.061867,0.858402,0.000000,117.000000,8.000000,111.000000,0.000000,0.000000,0.000000,0.000000,0.000000;
#CREDIT:;
#NOTES:
// measure 0
0000
0000
0000
0000
,  // measure 1
0000
0000
0000
0000
,  // measure 2
0000
0000
0000
0000
,  // measure 3
0000
0000
0000
0000
,  // measure 4
0020
0030
0020
0030
,  // measure 5
2000
3000
2000
3000
,  // measure 6
0002
0003
0002
0003
,  // measure 7
0200
0300
0200
0300
,  // measure 8
0020
0030
0020
0030
,  // measure 9
2000
3000
2000
3000
,  // measure 10
0200
0300
0200
0300
,  // measure 11
0020
0030
0020
0030
,  // measure 12
0002
0003
0002
0003
,  // measure 13
0200
0300
0200
0300
,  // measure 14
0020
0030
0020
0030
,  // measure 15
2000
3000
2000
3000
,  // measure 16
0200
0300
0020
0030
,  // measure 17
0200
0300
2000
3000
,  // measure 18
0020
0030
0200
0300
,  // measure 19
0002
0003
0020
0030
,  // measure 20
0200
0300
0200
0300
,  // measure 21
0200
0300
2000
3000
,  // measure 22
0002
0003
2000
3000
,  // measure 23
0002
0000
0000
0003
,  // measure 24
2002
0003
0020
0030
,  // measure 25
0200
0000
0000
3300
,  // measure 26
2002
3000
0020
0030
,  // measure 27
0200
0000
0000
0303
,  // measure 28
0020
0000
2030
0000
,  // measure 29
3200
0000
0000
0300
,  // measure 30
0020
0000
0032
0000
,  // measure 31
0203
0000
0000
0300
,  // measure 32
1001
2002
0000
0000
,  // measure 33
0000
3003
0000
0010
,  // measure 34
0000
0010
0200
0000
,  // measure 35
0000
0000
0000
0300
,  // measure 36
1001
2002
0000
3003
,  // measure 37
0010
1000
0010
0010
,  // measure 38
0100
0001
0100
0100
,  // measure 39
0220
0000
0000
0000
0000
0330
0000
0000
,  // measure 40
2002
0003
0020
0030
,  // measure 41
0002
0003
0020
0030
,  // measure 42
0002
3000
0200
0300
,  // measure 43
2000
3000
0200
0300
,  // measure 44
2000
0003
0200
0300
,  // measure 45
0002
0003
0200
0300
,  // measure 46
0002
3000
0020
0030
,  // measure 47
2000
3000
0020
0033
,  // measure 48
0002
2000
0000
3003
,  // measure 49
0020
0000
0200
0030
,  // measure 50
0002
0300
0020
0003
,  // measure 51
0200
0030
2000
3300
,  // measure 52
2000
0002
0000
3003
,  // measure 53
0200
0000
0020
0300
,  // measure 54
2000
0030
0200
3000
,  // measure 55
0020
0300
0002
0033
,  // measure 56
2000
0002
0000
3003
,  // measure 57
0020
0000
0200
0030
,  // measure 58
0002
0300
0020
0003
,  // measure 59
0200
0030
2000
3300
,  // measure 60
0002
2000
0000
3003
,  // measure 61
0020
0000
0200
0030
,  // measure 62
0002
0300
0020
0003
,  // measure 63
0200
0030
2000
3300
,  // measure 64
0002
2000
0000
0000
,  // measure 65
0000
0000
0000
0000
,  // measure 66
3003
0000
0000
0000
;

//---------------dance-single - ----------------
#NOTEDATA:;
#CHARTNAME:;
#STEPSTYPE:dance-single;
#DESCRIPTION:;
#CHARTSTYLE:;
#DIFFICULTY:Beginner;
#METER:1;
#RADARVALUES:0.127048,0.125667,0.030933,0.077334,0.000000,101.000000,4.000000,10.000000,0.000000,0.000000,0.000000,0.000000,0.000000,0.127048,0.125667,0.030933,0.077334,0.000000,101.000000,4.000000,10.000000,0.000000,0.000000,0.000000,0.000000,0.000000;
#CREDIT:;
#NOTES:
// measure 0
0000
0000
0000
0000
,  // measure 1
0000
0000
0000
0000
,  // measure 2
0000
0000
0000
0000
,  // measure 3
0000
0000
0000
0000
,  // measure 4
0010
0000
0010
0000
,  // measure 5
1000
0000
1000
0000
,  // measure 6
0001
0000
0001
0000
,  // measure 7
0100
0000
0100
0000
,  // measure 8
0010
0000
0010
0000
,  // measure 9
1000
0000
1000
0000
,  // measure 10
0100
0000
0100
0000
,  // measure 11
0010
0000
0010
0000
,  // measure 12
0001
0000
0001
0000
,  // measure 13
0100
0000
0100
0000
,  // measure 14
0010
0000
0010
0000
,  // measure 15
1000
0000
1000
0000
,  // measure 16
0100
0000
0010
0000
,  // measure 17
0100
0000
1000
0000
,  // measure 18
0010
0000
0100
0000
,  // measure 19
0001
0000
0010
0000
,  // measure 20
0100
0000
0100
0000
,  // measure 21
0100
0000
1000
0000
,  // measure 22
0001
0000
1000
0000
,  // measure 23
0001
0000
0000
0000
,  // measure 24
2002
0000
0000
0000
,  // measure 25
3003
0000
0000
0000
,  // measure 26
2002
0000
0000
0000
,  // measure 27
3003
0000
0000
0000
,  // measure 28
0020
0000
0000
0000
,  // measure 29
0030
0000
0000
0000
,  // measure 30
0200
0000
0000
0000
,  // measure 31
0300
0000
0000
0000
,  // measure 32
1000
2000
0000
0000
,  // measure 33
3000
0000
0000
0000
,  // measure 34
0010
0000
0000
0000
,  // measure 35
0010
0000
0000
0000
,  // measure 36
0001
0002
0000
0000
,  // measure 37
0003
0000
0000
0000
,  // measure 38
0100
0000
0100
0000
,  // measure 39
0100
0000
0000
0000
,  // measure 40
1001
0000
0010
0000
,  // measure 41
0001
0000
0010
0000
,  // measure 42
1000
0000
0100
0000
,  // measure 43
1000
0000
0100
0000
,  // measure 44
0001
0000
0100
0000
,  // measure 45
0001
0000
0100
0000
,  // measure 46
1000
0000
0010
0000
,  // measure 47
1000
0000
0010
0000
,  // measure 48
0001
0001
0000
0000
,  // measure 49
0010
0000
0100
0000
,  // measure 50
0001
0000
0010
0000
,  // measure 51
0100
0000
1000
0000
,  // measure 52
1000
1000
0000
0000
,  // measure 53
0100
0000
0010
0000
,  // measure 54
1000
0000
0100
0000
,  // measure 55
0010
0000
0001
0000
,  // measure 56
1000
1000
0000
0000
,  // measure 57
0010
0000
0100
0000
,  // measure 58
0001
0000
0010
0000
,  // measure 59
0100
0000
1000
0000
,  // measure 60
0001
0001
0000
0000
,  // measure 61
0010
0000
0100
0000
,  // measure 62
0001
0000
0010
0000
,  // measure 63
0100
0000
1000
0000
,  // measure 64
2002
0000
0000
0000
,  // measure 65
3003
0000
0000
0000
;
