#VERSION:0.81;
#TITLE:Sail;
#SUBTITLE:;
#ARTIST:Awolnation;
#TITLETRANSLIT:;
#SUBTITLETRANSLIT:;
#ARTISTTRANSLIT:;
#GENRE:Megalithic Symphony;
#ORIGIN:;
#CREDIT:;
#BANNER:Sail-bn.png;
#BACKGROUND:Sail-bg.png;
#PREVIEWVID:Sail-preview.avi;
#JACKET:;
#CDIMAGE:;
#DISCIMAGE:;
#LYRICSPATH:;
#CDTITLE:;
#MUSIC:Sail.mp3;
#OFFSET:-0.031000;
#SAMPLESTART:96.849228;
#SAMPLELENGTH:16.134453;
#SELECTABLE:YES;
#BPMS:0.000=119.000;
#STOPS:;
#DELAYS:;
#WARPS:;
#TIMESIGNATURES:0.000=4=4;
#TICKCOUNTS:0.000=4;
#COMBOS:0.000=1;
#SPEEDS:0.000=1.000=0.000=0;
#SCROLLS:0.000=1.000;
#FAKES:;
#LABELS:0.000=Song Start;
#LASTSECONDHINT:117.037292;
#BGCHANGES:0.000=Sail-video.avi=1.000=0=0=0=StretchNoLoop====,
99999=-nosongbg-=1.000=0=0=0 // don't automatically add -songbackground-
;
#KEYSOUNDS:;
#ATTACKS:
;

//---------------dance-single - ----------------
#NOTEDATA:;
#CHARTNAME:;
#STEPSTYPE:dance-single;
#DESCRIPTION:;
#CHARTSTYLE:;
#DIFFICULTY:Hard;
#METER:7;
#RADARVALUES:0.404917,0.410158,0.069699,0.325261,0.487892,315.000000,9.000000,42.000000,0.000000,0.000000,0.000000,0.000000,0.000000,0.404917,0.410158,0.069699,0.325261,0.487892,315.000000,9.000000,42.000000,0.000000,0.000000,0.000000,0.000000,0.000000;
#CREDIT:;
#NOTES:
0000
0000
0000
0000
,
0000
0000
0000
0000
,
0000
0000
0000
0000
,
0000
0000
0000
0000
,
0000
0000
0000
0000
,
0000
0000
0000
0000
,
0000
0000
0000
0000
,
0000
0000
0000
2001
,
0020
0000
0000
3030
0000
0000
0100
0001
1000
0100
1000
0001
,
0100
0000
0000
0010
0000
0000
1000
0000
0001
0100
0000
0000
,
0010
0000
0000
0100
0000
0000
0001
1000
0100
0010
0001
0100
,
0010
0000
0000
1000
0000
0000
0100
0000
1000
0001
0000
0000
,
0100
0000
0000
0010
0000
0000
1000
0100
0010
0001
0010
0100
,
1000
0000
0000
0010
0000
0000
0100
0000
0001
1000
0000
0010
,
0100
0000
0000
0010
0000
0000
1000
0100
1000
0001
0010
0001
,
0100
0000
0000
0010
0000
0000
1000
0010
1000
1001
0000
0000
,
0100
0000
0000
0010
0000
0000
2000
0000
3100
0020
0000
0031
,
0200
0000
0000
0320
0000
0000
0230
0000
0301
0100
0000
0000
,
0010
0000
0000
1000
0000
0000
0200
0000
0310
0002
0000
1003
,
0020
0000
0000
0230
0000
0000
0302
0000
1003
0100
0000
0000
,
0010
0000
0000
0001
0000
0000
0200
0000
0301
0020
0000
0130
,
2000
0000
0000
3002
0000
0000
0203
0000
0310
2000
0000
3001
,
0020
0000
0000
0230
0000
0000
1300
0100
1000
0001
0010
0001
,
0200
0000
0000
0320
0000
0000
1030
0010
0100
1001
0000
0000
,
0010
0000
0000
0100
0000
0000
0002
0000
0013
0200
0000
1300
,
0020
0000
0000
0230
0000
0000
0320
0000
1030
0010
0000
0000
,
0100
0000
0000
0001
0000
0000
0020
0000
0130
2000
0000
3001
,
0200
0000
0000
0320
0000
0000
2030
0000
3001
0010
0000
0000
,
0100
0000
0000
1000
0000
0000
0020
0000
1030
0200
0000
0310
,
0002
0000
0000
2003
0000
0000
3020
0000
0130
0002
0000
1003
,
0200
0000
0000
0320
0000
0000
0031
0010
0001
1000
0100
1000
,
0020
0000
0000
0230
0000
0000
0301
0100
0010
1001
0000
0000
,
0010
0000
0000
0100
0000
0000
0001
0100
0010
1000
0100
0010
,
0001
0000
0000
1000
0000
0000
0010
0000
1000
0001
0000
0000
,
0100
0000
0000
0010
0000
0000
1000
0100
0010
0001
0010
0100
,
1000
0000
0000
0001
0000
0000
0100
0000
0010
0100
0000
0000
,
0001
0000
0000
1000
0000
0000
0100
0010
0001
0100
0010
1000
,
0100
0000
0000
0010
0000
0000
0001
0000
1000
0010
0000
0100
,
0001
0000
0000
0010
0000
0000
0100
1000
0001
0100
0001
1000
,
0100
0000
0000
0010
0000
0000
0001
0100
0001
1001
0000
0000
,
0010
0000
0000
0100
0000
0001
0010
0000
0100
1000
0000
0000
,
0100
0000
0010
0001
0000
1000
0010
0000
0100
0001
0000
0000
,
1000
0000
0000
0010
0000
1000
0100
0000
0010
0100
0000
0000
,
0010
0000
0001
1000
0000
0010
0100
0000
0001
1000
0000
0000
,
0100
0000
0000
0010
0000
0001
0100
0000
0010
1000
0000
0000
,
0100
0000
1000
0010
0000
0100
0001
0000
1000
0100
0000
0000
,
0010
0000
0010
0000
0001
1000
0001
0100
0001
0000
0010
1000
,
0100
0000
0010
0000
0100
1000
0001
0000
0100
0010
1000
0100
,
0110
0000
0000
0001
0000
0000
0100
0001
1000
0100
1000
0001
,
0100
0000
0000
0010
0000
0000
1000
0000
0001
1000
0000
0000
,
1100
0000
0000
0011
0000
0000
0100
0010
0100
0001
1000
0100
,
0010
0000
0000
0100
0000
0000
1000
0000
0001
0100
0000
0000
,
0010
0000
0000
1000
0000
0000
0100
0010
0001
0100
0010
1000
,
0100
0000
0000
0010
0000
0000
0100
0000
1000
0001
0000
0010
,
0100
0000
0000
0010
0000
0000
0001
0100
0001
1000
0010
1000
,
0100
0000
0000
0010
0000
0000
0100
1000
0001
1001
0000
0000
;

//---------------dance-single - ----------------
#NOTEDATA:;
#CHARTNAME:;
#STEPSTYPE:dance-single;
#DESCRIPTION:;
#CHARTSTYLE:;
#DIFFICULTY:Medium;
#METER:5;
#RADARVALUES:0.231223,0.216841,0.007744,0.000000,0.112293,208.000000,1.000000,0.000000,0.000000,0.000000,0.000000,0.000000,0.000000,0.231223,0.216841,0.007744,0.000000,0.112293,208.000000,1.000000,0.000000,0.000000,0.000000,0.000000,0.000000,0.000000;
#CREDIT:;
#NOTES:
0000
0000
0000
0000
,
0000
0000
0000
0000
,
0000
0000
0000
0000
,
0000
0000
0000
0000
,
0000
0000
0000
0000
,
0000
0000
0000
0000
,
0000
0000
0000
0000
,
0000
0000
0000
1001
,
0010
0100
0001
0010
,
0100
0000
0000
1000
0000
0000
0010
0000
1000
0010
0000
0000
,
0100
0001
0010
0100
,
0010
0000
0000
0001
0000
0000
1000
0000
0001
1000
0000
0000
,
0010
0100
0010
1000
,
0100
0000
0000
0010
0000
0000
0001
0000
1000
0001
0000
0000
,
0010
0000
0000
0100
0000
0000
1000
0000
0100
1000
0000
0000
,
0010
0000
0000
0100
0000
0000
0001
0000
0100
0001
0000
0000
,
0010
0100
0010
0001
,
1000
1000
0100
0000
,
0010
0100
1000
0001
,
0100
0100
0010
0000
,
1000
0010
0100
0001
,
0010
0000
0000
0100
0000
0000
0100
0000
0000
1000
0000
0001
,
1000
0000
0000
0000
0000
0000
0010
0000
0100
0001
0000
0000
,
0000
0000
0000
0000
0000
0000
0100
0000
0010
1000
0000
0000
,
0100
0010
0001
0100
,
0010
1000
0100
0000
,
0010
0001
1000
0100
,
0010
0001
0010
0000
,
0100
1000
0010
0100
,
0001
0000
0000
1000
0000
0000
0010
0000
0000
0100
0000
0010
,
0100
0000
0000
0000
0000
0000
0010
0000
1000
0001
0000
0000
,
0100
0000
0000
0000
0000
0000
0001
0000
1000
0100
0000
0000
,
0010
0000
0001
0010
,
0100
0000
0000
1000
0000
0000
0010
0000
1000
0100
0000
0000
,
0010
0000
0100
1000
,
0010
0000
0000
0100
0000
0000
0001
0000
0100
0001
0000
0000
,
0010
0000
0100
1000
,
0001
0000
0000
0010
0000
0000
0100
0000
0010
0100
0000
0000
,
1000
0000
0000
0000
0000
0000
0010
0000
1000
0001
0000
0000
,
0100
0000
0000
0000
0000
0000
0001
0000
1000
0001
0000
0000
,
0010
0000
0000
0100
0000
0000
1000
0000
0100
1000
0000
0000
,
0100
0000
0000
0010
0000
0000
0001
0000
0010
0001
0000
0000
,
0000
0000
0000
0100
0000
0000
0001
0000
0100
0001
0000
0000
,
1000
0000
0000
0010
0000
0000
1000
0000
0010
1000
0000
0000
,
0010
0000
0000
0100
0000
0000
0001
0000
0100
0001
0000
0000
,
0010
0000
0000
0100
0000
0000
1000
0000
0100
1000
0000
0000
,
0010
0000
0000
0010
0000
0000
0100
0000
0010
0100
0000
0000
,
0001
0000
0000
0001
0000
0000
1000
0000
0001
1000
0000
0000
,
0100
0010
0001
1000
,
0010
0000
0000
0100
0000
0000
0010
0000
1000
0010
0000
0000
,
0100
0001
0010
0100
,
0010
0000
0000
0001
0000
0000
1000
0000
0100
1000
0000
0000
,
0100
0010
0100
1000
,
0010
0000
0000
0100
0000
0000
0001
0000
0100
0001
0000
0000
,
0010
0000
0000
0100
0000
0000
0010
0000
0001
1000
0000
0000
,
0100
0000
0000
0010
0000
0000
0100
0000
1000
0001
0000
0000
,
0100
0000
0000
0000
;

//---------------dance-single - ----------------
#NOTEDATA:;
#CHARTNAME:;
#STEPSTYPE:dance-single;
#DESCRIPTION:;
#CHARTSTYLE:;
#DIFFICULTY:Easy;
#METER:2;
#RADARVALUES:0.136079,0.130104,0.000000,0.000000,0.000000,123.000000,0.000000,0.000000,0.000000,0.000000,0.000000,0.000000,0.000000,0.136079,0.130104,0.000000,0.000000,0.000000,123.000000,0.000000,0.000000,0.000000,0.000000,0.000000,0.000000,0.000000;
#CREDIT:;
#NOTES:
// measure 0
0000
0000
0000
0000
,  // measure 1
0000
0000
0000
0000
,  // measure 2
0000
0000
0000
0000
,  // measure 3
0000
0000
0000
0000
,  // measure 4
0000
0000
0000
0000
,  // measure 5
0000
0000
0000
0000
,  // measure 6
0000
0000
0000
0000
,  // measure 7
0000
0000
0000
0000
,  // measure 8
0010
0000
0000
0000
,  // measure 9
1000
0100
0010
0000
,  // measure 10
0100
0000
0000
0000
,  // measure 11
0010
0001
0100
0000
,  // measure 12
0010
0000
0000
0000
,  // measure 13
1000
0001
0100
0000
,  // measure 14
0010
0000
0001
1000
,  // measure 15
0100
0000
1000
0010
,  // measure 16
0100
0000
0010
1000
,  // measure 17
0100
0100
0100
0000
,  // measure 18
0000
0000
0010
0001
,  // measure 19
0100
0100
0100
0000
,  // measure 20
0000
0000
0001
1000
,  // measure 21
0100
0100
0001
0000
,  // measure 22
0100
0000
1000
0100
,  // measure 23
1000
0000
0001
0010
,  // measure 24
0001
0000
0100
0001
,  // measure 25
1000
1000
0010
0000
,  // measure 26
0100
0000
0010
0010
,  // measure 27
1000
0100
0010
0000
,  // measure 28
0100
0000
0010
0010
,  // measure 29
0001
1000
0001
0000
,  // measure 30
0100
0000
0010
0010
,  // measure 31
1000
0000
0100
0010
,  // measure 32
0100
0000
1000
0001
,  // measure 33
0100
0000
0010
0000
,  // measure 34
0100
0000
0001
1000
,  // measure 35
0100
0000
0010
0000
,  // measure 36
0100
0000
1000
0010
,  // measure 37
0100
0000
0010
0000
,  // measure 38
0100
0000
0001
0010
,  // measure 39
0100
0000
0010
0100
,  // measure 40
1000
0000
0100
0000
,  // measure 41
0001
0000
0100
0000
,  // measure 42
1000
0000
0100
0000
,  // measure 43
0001
0000
0100
0000
,  // measure 44
1000
0000
0010
0000
,  // measure 45
0001
0000
0010
0000
,  // measure 46
1000
0000
1000
0000
,  // measure 47
0001
0000
0001
0000
,  // measure 48
0100
0000
0010
0000
,  // measure 49
1000
0100
0010
0000
,  // measure 50
0001
0000
0010
0000
,  // measure 51
0100
1000
0010
0000
,  // measure 52
0100
0000
0010
0000
,  // measure 53
1000
0100
0010
0000
,  // measure 54
0001
0000
0100
0001
,  // measure 55
0100
0000
0010
1000
,  // measure 56
0001
0000
0000
0000
;

//---------------dance-single - ----------------
#NOTEDATA:;
#CHARTNAME:;
#STEPSTYPE:dance-single;
#DESCRIPTION:;
#CHARTSTYLE:;
#DIFFICULTY:Beginner;
#METER:1;
#RADARVALUES:0.061955,0.065052,0.000000,0.000000,0.000000,56.000000,0.000000,0.000000,0.000000,0.000000,0.000000,0.000000,0.000000,0.061955,0.065052,0.000000,0.000000,0.000000,56.000000,0.000000,0.000000,0.000000,0.000000,0.000000,0.000000,0.000000;
#CREDIT:;
#NOTES:
// measure 0
0000
0000
0000
0000
,  // measure 1
0000
0000
0000
0000
,  // measure 2
0000
0000
0000
0000
,  // measure 3
0000
0000
0000
0000
,  // measure 4
0000
0000
0000
0000
,  // measure 5
0000
0000
0000
0000
,  // measure 6
0000
0000
0000
0000
,  // measure 7
0000
0000
0000
0000
,  // measure 8
0010
0000
0000
0000
,  // measure 9
1000
0000
0000
0000
,  // measure 10
0100
0000
0000
0000
,  // measure 11
0010
0000
0000
0000
,  // measure 12
0001
0000
0000
0000
,  // measure 13
1000
0000
0000
0000
,  // measure 14
0010
0000
0000
0000
,  // measure 15
0100
0000
0000
0000
,  // measure 16
0010
0000
0000
0000
,  // measure 17
0010
0000
0000
0000
,  // measure 18
1000
0000
0000
0000
,  // measure 19
1000
0000
0000
0000
,  // measure 20
0100
0000
0000
0000
,  // measure 21
0010
0000
0000
0000
,  // measure 22
0100
0000
0000
0000
,  // measure 23
0010
0000
0000
0000
,  // measure 24
0001
0000
0000
0000
,  // measure 25
0100
0000
0000
0000
,  // measure 26
0010
0000
0000
0000
,  // measure 27
1000
0000
0000
0000
,  // measure 28
0001
0000
0000
0000
,  // measure 29
0100
0000
0000
0000
,  // measure 30
0010
0000
0000
0000
,  // measure 31
1000
0000
0000
0000
,  // measure 32
0100
0000
0000
0000
,  // measure 33
0100
0000
0000
0000
,  // measure 34
0010
0000
0000
0000
,  // measure 35
0010
0000
0000
0000
,  // measure 36
0001
0000
0000
0000
,  // measure 37
0100
0000
0000
0000
,  // measure 38
0010
0000
0000
0000
,  // measure 39
1000
0000
0000
0000
,  // measure 40
0100
0000
0000
0000
,  // measure 41
0100
0000
0100
0000
,  // measure 42
0010
0000
0000
0000
,  // measure 43
0001
0000
0001
0000
,  // measure 44
1000
0000
0000
0000
,  // measure 45
0010
0000
0010
0000
,  // measure 46
0100
0000
0000
0000
,  // measure 47
0100
0000
0000
0000
,  // measure 48
0010
0000
0000
0000
,  // measure 49
1000
0000
0100
0000
,  // measure 50
0010
0000
0000
0000
,  // measure 51
0001
0000
0100
0000
,  // measure 52
0010
0000
0000
0000
,  // measure 53
1000
0000
0010
0000
,  // measure 54
0100
0000
0000
0000
,  // measure 55
0010
0000
0100
0000
,  // measure 56
0001
0000
0000
0000
;
