#VERSION:0.83;
#TITLE:Safe And Sound;
#SUBTITLE:;
#ARTIST:Capital Cities;
#TITLETRANSLIT:;
#SUBTITLETRANSLIT:;
#ARTISTTRANSLIT:;
#GENRE:In A Tidal Wave of Mystery;
#ORIGIN:;
#CREDIT:;
#BANNER:Safe And Sound-bn.png;
#BACKGROUND:Safe And Sound-bg.png;
#PREVIEWVID:Safe And Sound-preview.avi;
#JACKET:Safe And Sound-jacket.png;
#CDIMAGE:;
#DISCIMAGE:;
#LYRICSPATH:;
#CDTITLE:;
#MUSIC:Safe And Sound.mp3;
#OFFSET:-0.031000;
#SAMPLESTART:107.843620;
#SAMPLELENGTH:15.762711;
#SELECTABLE:YES;
#DISPLAYBPM:118.000000;
#BPMS:0.000=118.000,
243.000=100.000,
243.500=75.000,
243.750=50.000;
#STOPS:;
#DELAYS:;
#WARPS:;
#TIMESIGNATURES:0.000=4=4;
#TICKCOUNTS:0.000=4;
#COMBOS:0.000=1;
#SPEEDS:0.000=1.000=0.000=0;
#SCROLLS:0.000=1.000;
#FAKES:;
#LABELS:0.000=Song Start;
#LASTSECONDHINT:125.626328;
#BGCHANGES:0.000=Safe And Sound-video.avi=1.000=0=0=0=StretchNoLoop====,
99999=-nosongbg-=1.000=0=0=0 // don't automatically add -songbackground-
;
#KEYSOUNDS:;
#ATTACKS:
;

//---------------dance-single - ----------------
#NOTEDATA:;
#CHARTNAME:;
#STEPSTYPE:dance-single;
#DESCRIPTION:;
#CHARTSTYLE:;
#DIFFICULTY:Hard;
#METER:7;
#RADARVALUES:0.421271,0.508773,0.261595,0.245741,0.095126,372.000000,339.000000,33.000000,31.000000,0.000000,0.000000,0.000000,0.000000,0.000000,0.421271,0.508773,0.261595,0.245741,0.095126,372.000000,339.000000,33.000000,31.000000,0.000000,0.000000,0.000000,0.000000,0.000000;
#CREDIT:;
#DISPLAYBPM:118.000000;
#NOTES:
// measure 0
0000
0000
0000
0000
,  // measure 1
0000
0000
0000
0000
,  // measure 2
0000
0000
0000
0000
,  // measure 3
0000
0000
0000
0000
,  // measure 4
0000
0000
0000
0000
,  // measure 5
0001
1000
0001
0000
0010
1000
0100
0000
,  // measure 6
1000
0001
1000
0000
0100
0001
0010
0000
,  // measure 7
0100
0010
0100
0000
0001
0010
1000
0000
,  // measure 8
0010
0100
0010
0000
1000
0100
0001
0000
,  // measure 9
1001
0000
0010
1000
0100
0000
0001
1000
,  // measure 10
0001
0000
1010
0000
0100
0000
0010
0001
,  // measure 11
0100
0001
0010
0100
1000
0100
0010
0001
,  // measure 12
1000
0010
0100
0001
0100
0010
1000
0001
,  // measure 13
0100
0000
0001
1000
0100
0000
1000
0010
,  // measure 14
0100
0000
0011
0000
1000
0000
0001
1000
,  // measure 15
0010
0100
0001
0010
0100
1000
0010
1000
,  // measure 16
0100
0010
0001
1000
0010
0100
0001
1000
,  // measure 17
0010
0000
0100
0000
0001
1000
0001
0010
,  // measure 18
0000
0100
0000
0000
1000
0001
1000
0000
,  // measure 19
0010
0000
0100
0000
0001
1000
0010
1000
,  // measure 20
0000
0100
0000
0000
0010
0001
1000
0000
,  // measure 21
1001
0000
0010
1000
0001
0000
1000
0100
,  // measure 22
0010
0000
0110
0000
0001
0001
1000
0010
,  // measure 23
1000
0100
0001
0100
1000
0001
1000
0010
,  // measure 24
1000
0001
0100
0001
0010
0001
1000
0100
,  // measure 25
1000
0000
0010
1000
0100
0000
0010
0100
,  // measure 26
1000
0000
1001
0000
0010
0000
0001
1000
,  // measure 27
0001
0100
0010
1000
0100
0010
0001
1000
,  // measure 28
0010
1000
0100
0010
0100
1000
0001
0100
,  // measure 29
0010
0000
1001
0000
0100
0001
1000
0010
,  // measure 30
0000
2200
0000
3300
0100
1000
0001
0000
,  // measure 31
0011
0000
1001
0000
0100
0001
1000
0010
,  // measure 32
0000
0202
0000
0303
0010
1000
0001
0000
,  // measure 33
1010
0000
1100
0000
0010
1000
0100
0010
,  // measure 34
0000
2002
0000
3003
0100
0001
1000
0000
,  // measure 35
0110
0000
1001
0000
1000
0001
0100
0010
,  // measure 36
0000
0202
0000
0303
0010
1000
0100
0000
,  // measure 37
2000
0100
3020
0100
,  // measure 38
2030
0001
3200
0001
,  // measure 39
0320
0001
0230
0001
,  // measure 40
2300
0010
3100
1001
,  // measure 41
0002
0010
0203
0010
,  // measure 42
0302
1000
0023
1000
,  // measure 43
0230
1000
0320
1000
,  // measure 44
0032
0100
0013
1001
,  // measure 45
1000
0000
0010
0000
1000
0100
0000
1000
0100
0000
0010
0000
0001
0100
0000
0001
,  // measure 46
0100
0000
0010
0000
1000
0001
0000
1000
0001
0000
0100
0000
0010
1000
0000
0010
,  // measure 47
1000
0000
0100
0000
0010
0001
0000
0010
0001
0000
0100
0000
0001
1000
0000
0001
,  // measure 48
1000
0100
0010
0001
0001
0001
0101
0000
,  // measure 49
0010
0000
0001
0000
1000
0010
0000
0010
1000
0000
0100
0000
0010
0100
0000
0100
,  // measure 50
0010
0000
0001
0000
1000
0001
0000
0001
1000
0000
0010
0000
0100
0010
0000
0010
,  // measure 51
0100
0000
0001
0000
1000
0010
0000
0010
1000
0000
0100
0000
0010
0001
0000
0001
,  // measure 52
0010
0100
1000
0010
0010
0010
0110
0000
,  // measure 53
1001
0000
0101
0000
0100
0001
1000
0010
,  // measure 54
0000
2200
0000
3300
0100
1000
0001
0000
,  // measure 55
1010
0000
1001
0000
0010
0001
1000
0010
,  // measure 56
0000
0220
0000
0330
0010
1000
0100
0000
,  // measure 57
0110
0000
0011
0000
0001
1000
0100
0010
,  // measure 58
0000
0022
0000
0033
0001
1000
0100
0000
,  // measure 59
0110
0000
1001
0000
0100
0001
1000
0010
,  // measure 60
0000
2020
0000
3030
0001
1000
0200
0000
,  // measure 61
0000
0300
0000
0000
0000
0000
0000
0000
;

//---------------dance-single - ----------------
#NOTEDATA:;
#CHARTNAME:;
#STEPSTYPE:dance-single;
#DESCRIPTION:;
#CHARTSTYLE:;
#DIFFICULTY:Medium;
#METER:5;
#RADARVALUES:0.304628,0.290728,0.079271,0.214033,0.000000,269.000000,259.000000,10.000000,27.000000,0.000000,0.000000,0.000000,0.000000,0.000000,0.304628,0.290728,0.079271,0.214033,0.000000,269.000000,259.000000,10.000000,27.000000,0.000000,0.000000,0.000000,0.000000,0.000000;
#CREDIT:;
#DISPLAYBPM:118.000000;
#NOTES:
0000
0000
0000
0000
,
0000
0000
0000
0000
,
0000
0000
0000
0000
,
0000
0000
0000
0000
,
0000
0000
0000
0000
,
0010
0000
1000
0000
0100
1000
0100
0000
,
0010
0001
0100
0010
,
1000
0000
0001
0000
0010
0001
0100
0000
,
0010
1000
0100
1001
,
1000
0000
0010
0001
0010
0000
0100
1000
,
0100
0000
0010
0000
0100
0000
1000
0001
,
1000
0000
0010
0000
0100
0000
0001
1000
,
0001
0010
0100
1000
,
0010
0000
1000
0100
0010
0000
0001
0000
,
0100
0000
0010
0000
0100
0000
0001
1000
,
0010
0000
1000
0000
0100
0000
0010
0100
,
0010
0001
1000
0100
,
0010
0000
0100
0000
1000
0100
1000
0100
,
0000
2000
0000
3000
0010
1000
0100
0000
,
0010
0000
0001
0000
0100
0001
0100
0001
,
0000
0200
0000
0300
0010
1000
0100
0000
,
1000
0000
0010
1000
0100
0000
1000
0000
,
0001
0000
0010
0000
0100
0000
0010
0001
,
0100
0000
0010
0000
1000
0000
0001
1000
,
0010
0100
0010
1000
,
0001
0000
0010
0001
1000
0000
0100
0000
,
0010
0000
0100
0000
1000
0000
0001
1000
,
0010
0000
0100
0000
0010
0000
1000
0001
,
0010
0100
0010
0001
,
1001
0000
0100
0000
0010
0100
0010
0100
,
0000
0020
0000
0030
1000
0100
1000
0000
,
0001
0000
0010
0000
0100
1000
0100
1000
,
0000
0002
0000
0003
0100
0001
0100
0000
,
0010
0000
1000
0000
0100
0010
0100
0010
,
0000
0002
0000
0003
1000
0001
1000
0000
,
0010
0000
1000
0000
0100
1000
0100
1000
,
0000
0020
0000
0030
0100
0010
0100
0000
,
0020
1030
0200
0301
,
2000
3100
0020
0031
,
2000
3001
0200
0310
,
2000
3100
0020
0031
,
2000
3010
0200
0310
,
2000
3001
0020
0031
,
0200
0310
2000
3001
,
0020
0130
2000
3010
,
0100
0001
0010
0011
,
0010
0100
1000
1010
,
0010
0100
0001
1001
,
1000
0100
0010
0110
,
1000
0010
0100
0101
,
0001
1000
0100
0110
,
0010
0001
1000
1001
,
0100
0010
0100
1001
,
1000
0000
0010
0000
1000
0100
1000
0100
,
0000
2000
0000
3000
0010
0100
0010
0000
,
0100
0000
0001
0000
0010
0001
0010
0001
,
0000
0020
0000
0030
0100
0010
0100
0000
,
1000
0000
0001
0000
0100
0010
0100
0010
,
0000
0200
0000
0300
0010
1000
0010
0000
,
1000
0000
0001
0000
1000
0100
1000
0100
,
0000
0020
0000
0030
0001
1000
0002
0000
,
0000
0003
0000
0000
0000
0000
0000
0000
;

//---------------dance-single - ----------------
#NOTEDATA:;
#CHARTNAME:;
#STEPSTYPE:dance-single;
#DESCRIPTION:;
#CHARTSTYLE:;
#DIFFICULTY:Easy;
#METER:4;
#RADARVALUES:0.219695,0.218046,0.000000,0.134761,0.000000,194.000000,194.000000,0.000000,17.000000,0.000000,0.000000,0.000000,0.000000,0.000000,0.219695,0.218046,0.000000,0.134761,0.000000,194.000000,194.000000,0.000000,17.000000,0.000000,0.000000,0.000000,0.000000,0.000000;
#CREDIT:;
#DISPLAYBPM:118.000000;
#NOTES:
0000
0000
0000
0000
,
0000
0000
0000
0000
,
0000
0000
0000
0000
,
0000
0000
0000
0000
,
0000
0000
0000
0000
,
0010
0100
0010
0000
,
1000
0100
1000
0000
,
0010
0100
0001
0000
,
0010
0001
0010
0000
,
0001
0100
0010
1000
,
0100
0000
0000
0010
,
0010
0001
1000
0010
,
0100
0010
0100
0010
,
1000
0100
0010
0001
,
1000
0000
0000
0001
,
0001
1000
0010
0100
,
0001
1000
0001
1000
,
0100
0010
0001
0001
,
0100
0100
0010
0000
,
1000
0010
0100
0001
,
1000
1000
0010
0000
,
1000
0100
0001
0100
,
1000
0000
0000
0010
,
0010
0100
0001
1000
,
0010
1000
0100
0100
,
0010
0001
1000
0010
,
0100
0000
0000
0001
,
0001
1000
0010
0100
,
0001
1000
0010
1000
,
0100
0010
0001
1000
,
0010
0100
0001
0001
,
0100
0010
1000
0001
,
0010
0100
1000
1000
,
0100
0010
0001
1000
,
0010
0100
0001
0001
,
0100
0010
1000
0001
,
0010
0100
1000
1000
,
0200
0000
0320
0000
,
0032
0000
2003
0000
,
3020
0000
0230
0000
,
0302
0000
2003
0000
,
3020
0000
2030
0000
,
3200
0000
0320
0000
,
0032
0000
2003
0000
,
3020
0000
0230
0000
,
0301
0001
1000
1000
,
0001
0001
1000
1000
,
0010
0010
0100
0100
,
0010
0010
0100
0100
,
0001
0001
0010
0010
,
0100
0100
1000
1000
,
0010
0010
0100
0100
,
0001
0001
1000
1000
,
0010
1000
0100
0100
,
0010
0100
0010
0010
,
0001
1000
0001
0001
,
0100
0010
1000
1000
,
0010
0100
0001
0001
,
1000
0010
1000
1000
,
0100
0010
0100
0100
,
0010
0001
0100
0200
,
0000
0300
0000
0000
0000
0000
0000
0000
;

//---------------dance-single - ----------------
#NOTEDATA:;
#CHARTNAME:;
#STEPSTYPE:dance-single;
#DESCRIPTION:;
#CHARTSTYLE:;
#DIFFICULTY:Beginner;
#METER:1;
#RADARVALUES:0.101920,0.120393,0.007927,0.063417,0.000000,90.000000,89.000000,1.000000,8.000000,0.000000,0.000000,0.000000,0.000000,0.000000,0.101920,0.120393,0.007927,0.063417,0.000000,90.000000,89.000000,1.000000,8.000000,0.000000,0.000000,0.000000,0.000000,0.000000;
#CREDIT:;
#DISPLAYBPM:118.000000;
#NOTES:
0000
0000
0000
0000
,
0000
0000
0000
0000
,
0000
0000
0000
0000
,
0000
0000
0000
0000
,
0000
0000
0000
0000
,
0010
0000
1000
0000
,
0100
0000
0010
0000
,
0001
0000
1000
0000
,
0010
0000
0100
0000
,
0001
0000
0010
0000
,
0100
0000
0000
0000
,
0100
0000
0100
0000
,
1000
0000
1000
0000
,
0010
0000
0100
0000
,
0010
0000
0000
0000
,
1000
0000
1000
0000
,
0001
0000
0001
0000
,
0100
0000
0000
0000
,
0010
0000
0000
0000
,
1000
0000
0000
0000
,
0001
0000
0000
0000
,
0010
0000
0100
0000
,
1000
0000
0000
0000
,
1000
0000
1000
0000
,
0001
0000
0001
0000
,
0100
0000
0010
0000
,
0100
0000
0000
0000
,
0010
0000
0010
0000
,
1000
0000
1000
0000
,
0001
0000
0010
0000
,
0001
0000
0000
0000
,
0100
0000
0010
0000
,
0100
0000
0000
0000
,
0010
0000
1000
0000
,
0100
0000
0000
0000
,
0010
0000
0001
0000
,
0100
0000
0000
0000
,
0020
0000
0030
0000
,
0200
0000
0300
0000
,
0002
0000
0003
0000
,
2000
0000
3000
0000
,
0200
0000
0300
0000
,
0020
0000
0030
0000
,
0002
0003
0000
0000
,
2000
0000
3000
0000
,
0010
0000
0100
0000
,
0010
0000
0100
0000
,
1000
0000
0100
0000
,
0001
0000
0100
0000
,
0001
0000
0010
0000
,
0100
0000
1000
0000
,
0010
0000
1000
0000
,
0100
0000
0010
0000
,
0100
0000
1000
0000
,
0001
0000
0000
0000
,
0100
0000
0001
0000
,
1000
0000
0000
0000
,
0010
0000
0100
0000
,
0001
0000
0000
0000
,
0010
0000
0100
0000
,
1000
0000
0000
1001
;
