#TITLE:Rusty Nails;
#SUBTITLE:;
#ARTIST:Moderat;
#TITLETRANSLIT:;
#SUBTITLETRANSLIT:;
#ARTISTTRANSLIT:;
#GENRE:Moderat;
#CREDIT:;
#BANNER:Rusty Nails-bn.png;
#BACKGROUND:Rusty Nails-bg.png;
#LYRICSPATH:;
#CDTITLE:;
#MUSIC:Rusty Nails.mp3;
#OFFSET:-0.022000;
#SAMPLESTART:97.516891;
#SAMPLELENGTH:22.500000;
#LASTBEATHINT:321.999969;
#SELECTABLE:YES;
#BPMS:0.000000=128.000000
;
#STOPS:
;
#BGCHANGES:;
#KEYSOUNDS:;
#ATTACKS:;

//---------------dance-single - ----------------
#NOTES:
     dance-single:
     :
     Challenge:
     10:
     0.695406,0.660221,0.006623,0.000000,0.615931,735.000000,734.000000,1.000000,0.000000,0.000000,0.000000,0.695406,0.660221,0.006623,0.000000,0.615931,735.000000,734.000000,1.000000,0.000000,0.000000,0.000000:
0000
0000
0000
0000
,
0000
0000
0000
0000
,
0000
0000
0000
0000
,
0000
0000
0000
0000
,
0001
0000
0000
1000
0000
0000
0001
0000
0100
0001
0000
0100
0001
0000
0000
1000
0000
0000
0010
0000
0000
0100
0000
0000
,
0010
0000
0000
1000
0000
0000
0001
0000
1000
0100
0000
1000
0001
0000
0000
1000
0000
0000
0010
0000
0000
0100
0000
0000
,
0001
0000
0000
0010
0000
0000
0100
0000
1000
0001
0000
1000
0100
0000
0000
0010
0000
0000
0001
0000
0000
1000
0000
0000
,
0010
0000
0000
0100
0000
0000
0001
0000
0100
0010
0000
1000
0001
0000
0000
0010
0000
0000
0100
0000
0000
1000
0000
0000
,
0001
0000
0000
0010
0000
0000
0100
0000
1000
0010
0000
0100
0001
0000
0000
0010
0000
0000
0100
0000
0000
1000
0000
0000
,
0001
0000
0000
1000
0000
0000
0010
0000
0100
0001
0000
1000
0010
0000
0000
0100
0000
0000
0001
0000
0000
1000
0000
0000
,
0001
0000
0000
0100
0000
0000
0010
0000
1000
0100
0000
0010
0001
0000
0000
1000
0000
0000
0010
0000
0000
0100
0000
0000
,
0001
0000
0000
1000
0000
0000
0001
0000
0100
0010
0000
0100
0001
0000
0000
1000
0000
0000
0100
0000
0000
1000
0000
0000
,
0001
0000
0000
0010
0000
0000
0100
0000
1000
0010
0000
1000
0100
0000
0000
0010
0000
0000
0001
0000
0000
1000
0000
0000
,
0010
0000
0000
0100
0000
0000
0001
0000
0010
0100
0000
1000
0100
0000
0000
1000
0000
0000
0001
0000
0000
0100
0000
0000
,
0010
0000
0000
1000
0000
0000
0001
0000
0100
0010
0000
1000
0010
0000
0000
0100
0000
0000
0001
0000
0000
1000
0000
0000
,
0010
0000
0000
0100
0000
0000
0010
0000
1000
0001
0000
1000
0010
0000
0000
0100
0000
0000
0001
0000
0000
1000
0000
0000
,
0100
0000
0000
0010
0000
0000
0001
0000
0100
0010
0000
1000
0100
0000
0000
1000
0000
0000
0010
0000
0000
0100
0000
0000
,
0010
0000
0000
0010
0000
0000
1000
0000
0001
0100
0000
0001
1000
0000
0000
0001
0000
0000
0010
0000
0000
0100
0000
0000
,
1000
0000
0000
0010
0000
0000
0100
0000
0001
1000
0000
0001
0100
0000
0000
0010
0000
0000
1000
0000
0000
0001
0000
0000
,
0010
0000
0000
0100
0000
0000
1000
0000
0100
0010
0000
0001
1000
0000
0000
0010
0000
0000
0100
0000
0000
0001
0000
0000
,
1000
0000
0000
0010
0000
0000
0100
0000
0001
0010
0000
0100
1000
0000
0000
0010
0000
0000
0100
0000
0000
0001
0000
0000
,
1000
0000
0000
0001
0000
0000
0010
0000
0100
1000
0000
0001
0010
0000
0000
0100
0000
0000
1000
0000
0000
0001
0000
0000
,
1000
0000
0000
0100
0000
0000
0010
0000
0001
0100
0000
0010
1000
0000
0000
0001
0000
0000
0010
0000
0000
0100
0000
0000
,
1000
0000
0000
0001
0000
0000
1000
0000
0100
0010
0000
0100
1000
0000
0000
0001
0000
0000
0100
0000
0000
0001
0000
0000
,
1000
0000
0000
0010
0000
0000
0100
0000
0001
0010
0000
0001
0100
0000
0000
0010
0000
0000
1000
0000
0000
0001
0000
0000
,
0010
0000
0000
0100
0000
0000
1000
0000
0010
0100
0000
0001
0100
0000
0000
0001
0000
0000
1000
0000
0000
0100
0000
0000
,
0010
0000
0000
0001
0000
0000
1000
0000
0100
0010
0000
0001
0010
0000
0000
0100
0000
0000
1000
0000
0000
0001
0000
0000
,
0010
0000
0000
0100
0000
0000
0010
0000
0001
1000
0000
0001
0010
0000
0000
0100
0000
0000
1000
0000
0000
0001
0000
0000
,
0100
0000
0000
0001
0000
0000
0010
0000
0001
0100
0000
0001
0010
0000
0001
0100
0000
0001
0010
0000
0000
0100
0000
0000
,
1000
0000
0000
0010
0000
0000
1000
0000
0100
1000
0000
0010
1000
0000
0100
1000
0000
0010
1000
0000
0000
0001
0000
0000
,
0010
0000
0000
0100
0000
0000
1000
0000
0001
0010
0000
0100
1000
0000
0001
0010
0000
0100
1000
0000
0000
0001
0000
0000
,
0100
0000
0000
0010
0000
0000
1000
0000
0001
0100
0000
0010
1000
0000
0001
0100
0000
0010
1000
0000
0000
0001
0000
0000
,
0100
0000
0000
0001
0000
0000
1000
0000
0001
0100
0000
0001
1000
0000
0100
1000
0000
0001
1000
0000
0000
0100
0000
0000
,
0010
0000
0000
0001
0000
0000
0100
0000
0010
1000
0000
0001
0100
0000
0010
0100
0000
0001
1000
0000
0000
0010
0000
0000
,
0100
0000
0000
0001
0000
0000
0010
0000
0001
0100
0000
0001
0010
0000
0100
1000
0000
0010
1000
0000
0000
0100
0000
0000
,
0010
0000
0000
0001
0000
0000
1000
0000
0010
0100
0000
0001
1000
0000
0010
0100
0000
0001
1000
0000
0000
0010
0000
0000
,
1000
0000
0000
0100
0000
0000
1000
0000
0001
0100
0000
0001
1000
0000
0010
1000
0000
0001
1000
0000
0000
0100
0000
0000
,
0010
0000
0000
0001
0000
0000
1000
0000
0100
0010
0000
0001
1000
0000
0001
0100
0000
0010
1000
0000
0000
0001
0000
0000
,
0010
0000
0000
0100
0000
0000
1000
0000
0010
1000
0000
0100
0010
0000
0001
0100
0000
0010
1000
0000
0000
0001
0000
0000
,
0100
0000
0000
0010
0000
0000
1000
0000
0100
0010
0000
0001
0100
0000
0010
1000
0000
0001
0010
0000
0000
0100
0000
0000
,
1000
0000
0000
0000
,
0000
0000
0000
0000
0000
0100
1000
0100
,
0010
0000
0000
0001
0000
0000
0100
0000
0001
0100
0000
0000
0000
0000
0000
0010
0000
0000
1000
0000
0000
0010
0000
0000
,
0100
0000
0000
0001
0000
0000
1000
0000
0010
1000
0000
0000
0000
0000
0000
0100
0000
0000
1000
0000
0000
0001
0000
0000
,
1000
0000
0000
0100
0000
0000
0010
0000
0100
0010
0000
0000
0000
0000
0000
0001
0000
0000
1000
0000
0000
0001
0000
0000
,
0100
0000
0000
0010
0000
0000
1000
0000
0001
0100
0000
0000
0000
0000
0000
0010
0000
0000
1000
0000
0000
0100
0000
0000
,
0010
0000
0000
0001
0000
0000
1000
0000
0001
0100
0000
0000
0000
0000
0000
0010
0000
0000
1000
0000
0000
0001
0000
0000
,
0010
0000
0000
0100
0000
0000
1000
0000
0001
0100
0000
0000
0000
0000
0000
0010
0000
0000
0100
0000
0000
0001
0000
0000
,
1000
0000
0000
0010
0000
0000
0100
0000
0001
0010
0000
0001
0100
0000
0000
0010
0000
0000
1000
0000
0000
0001
0000
0000
,
0010
0000
0000
0100
0000
0000
1000
0000
0010
0100
0000
0001
0100
0000
0000
0001
0000
0000
1000
0000
0000
0100
0000
0000
,
0010
0000
0000
0001
0000
0000
1000
0000
0100
0010
0000
0001
0010
0000
0000
0100
0000
0000
1000
0000
0000
0001
0000
0000
,
0010
0000
0000
0100
0000
0000
0010
0000
0001
1000
0000
0001
0010
0000
0000
0100
0000
0000
1000
0000
0000
0001
0000
0000
,
0100
0000
0000
0001
0000
0000
0010
0000
0001
0100
0000
0010
1000
0000
0001
0100
0000
0001
0010
0000
0000
0100
0000
0000
,
1000
0000
0000
0010
0000
0000
1000
0000
0100
0010
0000
0001
1000
0000
0100
1000
0000
0001
0100
0000
0000
0001
0000
0000
,
0010
0000
0000
0100
0000
0000
1000
0000
0001
0010
0000
0100
1000
0000
0001
0100
0000
0010
1000
0000
0000
0001
0000
0000
,
0100
0000
0000
0010
0000
0000
1000
0000
0001
0010
0000
0100
1000
0000
0001
0100
0000
0010
1000
0000
0000
0001
0000
0000
,
0100
0000
0000
0001
0000
0000
1000
0000
0001
0100
0000
0001
1000
0000
0100
1000
0000
0001
1000
0000
0000
0100
0000
0000
,
0010
0000
0000
0001
0000
0000
0100
0000
0010
1000
0000
0001
0100
0000
0010
0100
0000
0001
1000
0000
0000
0010
0000
0000
,
0100
0000
0000
0001
0000
0000
0010
0000
0001
0100
0000
0001
0010
0000
0100
1000
0000
0010
1000
0000
0000
0100
0000
0000
,
0010
0000
0000
0001
0000
0000
1000
0000
0010
0100
0000
0001
1000
0000
0010
0100
0000
0001
1000
0000
0000
0010
0000
0000
,
1000
0000
0000
0100
0000
0000
1000
0000
0001
0100
0000
0001
1000
0000
0010
1000
0000
0001
1000
0000
0000
0100
0000
0000
,
0010
0000
0000
0001
0000
0000
1000
0000
0100
0010
0000
0001
1000
0000
0001
0100
0000
0010
1000
0000
0000
0001
0000
0000
,
0010
0000
0000
0100
0000
0000
1000
0000
0010
1000
0000
0100
0010
0000
0001
0100
0000
0010
1000
0000
0000
0001
0000
0000
,
0100
0000
0000
0010
0000
0000
1000
0000
0100
0010
0000
0001
0100
0000
0010
1000
0000
0001
0010
0000
0000
0100
0000
0000
,
1000
0000
1000
0000
0010
0000
0000
0100
0000
0001
0100
0000
0010
0000
0000
0000
,
1000
0000
0001
0000
0010
0000
0000
0100
0000
1000
0001
0000
1000
0000
0000
0000
,
0010
0000
0100
0000
0001
0000
0000
0010
0000
0100
1000
0000
0010
0000
0000
0000
,
1000
0000
0001
0000
0100
0000
0000
0010
0000
1000
0100
0000
0010
0000
0000
0000
,
0001
0000
0100
0000
0010
0000
0000
0100
0000
0001
1000
0000
0001
0000
0000
0000
,
0010
0000
0001
0000
1000
0000
0000
0100
0000
1000
0001
0000
0100
0000
0000
0000
,
0010
0000
1000
0000
0001
0000
0000
0100
0000
0010
1000
0000
0100
0000
0000
0000
,
0010
0000
0001
0000
1000
0000
0000
0100
0000
0010
0100
0000
1000
0000
0000
0000
,
0010
0000
0100
0000
0001
0000
0000
1000
0000
0010
0100
0000
0001
0000
0000
0000
,
0010
0000
0100
0000
1000
0000
0000
0001
0000
0010
0100
0000
1000
0000
0000
0000
,
0001
0000
0100
0000
0001
0000
0000
1000
0000
0010
0100
0000
0001
0000
0000
0000
,
1000
0000
0100
0000
0010
0000
0000
0100
0000
1000
0001
0000
0100
0000
0000
0000
,
0010
0000
0000
1000
0000
0000
0001
0000
0100
0001
0000
0000
0000
0000
0000
1000
0000
0000
0100
0000
0000
0010
0000
0000
,
0100
0000
0000
1000
0000
0000
0001
0000
0100
0010
0000
0000
0000
0000
0000
1000
0000
0000
0001
0000
0000
0000
0000
0000
,
0010
0000
0000
0100
0000
0000
1000
0000
0010
1000
0000
0000
0000
0000
0000
0001
0000
0000
0010
0000
0000
0100
0000
0000
,
1000
0000
0000
0001
0000
0000
0100
0000
0010
0100
0000
0000
0000
0000
0000
0001
0000
0000
1001
0000
0000
0000
0000
0000
;

//---------------dance-single - ----------------
#NOTES:
     dance-single:
     :
     Hard:
     8:
     0.475903,0.448951,0.019869,0.099344,0.158950,503.000000,500.000000,3.000000,15.000000,0.000000,0.000000,0.475903,0.448951,0.019869,0.099344,0.158950,503.000000,500.000000,3.000000,15.000000,0.000000,0.000000:
0000
0000
0000
0000
,
0000
0000
0000
0000
,
0000
0000
0000
0000
,
0000
0000
0000
0000
,
0001
0010
0100
1000
0000
0010
1000
0001
,
0100
0010
0100
0001
0000
1000
0010
0100
,
0001
0010
0100
1000
0000
0001
1000
0100
,
0010
0001
1000
0010
0000
0100
0001
1000
,
0100
0010
0100
1000
0000
0001
0010
0100
,
1000
0100
0010
0001
0000
1000
0010
0100
,
0001
1000
0100
0010
0000
0100
1000
0001
,
1000
0100
0010
0001
0000
0100
0010
1000
,
0001
0010
0100
1000
0000
0001
0010
0001
,
0100
0010
0100
0001
0000
1000
0010
1000
,
0100
0010
0100
1000
0000
0001
1000
0100
,
0010
0001
0100
0010
0000
1000
0001
1000
,
0010
0100
0001
0010
0000
0100
1000
0100
,
0010
0001
1000
0010
0000
0100
0001
0100
,
0010
1000
0100
0010
0000
0010
0100
0010
,
0001
1000
0001
0100
0000
0010
1000
0010
,
0000
0101
0000
1010
0000
0001
0100
0010
,
1000
0100
0010
0001
0000
1000
0010
1001
,
1000
0001
1000
0100
0000
1000
0001
1000
,
0100
0010
0001
1000
0000
0001
0100
0010
,
1000
0001
0100
0010
0000
1000
0010
0100
,
0001
0010
0100
1000
0000
0001
0100
1000
,
0100
0001
1000
0100
0000
0100
1000
0001
,
0100
1000
0100
0001
0000
1000
0100
0000
,
0100
0000
1000
0000
0001
0100
0001
0000
1000
0000
0001
0000
0100
0000
0000
0000
,
0100
0000
0001
0000
1000
0100
1000
0000
0001
0000
1000
0000
0100
0000
0000
0000
,
0010
0000
0001
0000
1000
0001
1000
0000
0010
0000
1000
0000
0001
0000
0000
0000
,
0100
0000
0001
0000
1000
0001
1000
0000
0010
0000
1000
0000
0001
0000
0000
0000
,
0010
0000
0001
0000
0100
0001
0100
0000
0010
0000
1000
0000
0100
0000
0000
0000
,
0010
0000
0001
0000
1000
0010
1000
0000
0100
0000
1000
0000
0001
0000
0000
0000
,
0100
0000
0010
0000
0100
0001
0100
0000
0001
0000
1000
0000
0100
0000
0000
0000
,
0010
0000
0001
0000
1000
0010
1000
0000
0001
0000
0010
0000
0001
0000
0000
0000
,
0100
0000
0001
0000
0100
0010
0100
0000
0001
0000
1000
0000
0100
0000
0000
0000
,
0010
0000
0001
0000
1000
0010
1000
0000
0001
0000
1000
0000
0100
0000
0000
0000
,
0010
0000
0001
0000
1000
0001
1000
0000
0100
0000
1000
0000
0001
0000
0000
0000
,
0100
0000
0001
0000
1000
0010
1000
0000
0010
0000
0100
0000
0001
0000
1000
0000
,
0000
0000
0000
0000
0000
0001
0000
0010
,
0000
0100
0000
2000
0000
0000
3001
0000
,
0010
1000
0020
0000
0030
0100
0001
0000
,
1000
0100
2000
0000
3000
0001
0010
0000
,
0100
1000
0002
0000
0003
0100
0010
0000
,
0100
0001
2000
0000
3000
0010
0100
0000
,
0001
0010
0002
0000
0003
1000
0100
0000
,
1000
0010
0200
0000
0300
0010
1000
0000
,
0001
0100
0020
0000
0030
1000
0001
1000
,
0100
0010
0200
0000
0300
1000
0010
0100
,
0001
0100
0020
0000
0030
1000
0001
1000
,
0100
0010
0002
0000
0003
1000
0100
0000
,
0010
0000
0001
0000
1000
0001
1000
0000
0010
0000
0000
0100
0000
0000
0000
0000
,
0010
0000
1000
0000
0001
1000
0100
0000
0010
0000
0000
0100
0000
0000
0000
0000
,
0010
0000
0001
0000
0100
0001
0010
0000
0100
0000
0000
1000
0000
0000
0000
0000
,
0010
0000
1000
0000
0001
0100
0010
0000
0100
0000
0000
0001
0000
0000
0000
0000
,
1000
0000
0010
0000
0100
0001
1000
0000
0010
0000
0000
1000
0000
0000
0000
0000
,
0001
0000
0010
0000
0100
1000
0001
0000
0100
0000
0000
0001
0000
0000
0000
0000
,
0010
0000
0001
0000
1000
0100
0010
0000
0100
0000
0000
1000
0000
0000
0000
0000
,
0001
0000
1000
0000
0010
0100
0001
0000
1000
0000
0000
0010
0000
0000
0000
0000
,
0100
0000
0001
0000
1000
0001
0100
0000
0010
0000
0000
1000
0000
0000
0001
0000
,
0010
0000
0100
0000
1000
0100
0010
0000
0001
0000
0000
1000
0000
0000
0010
0000
,
0100
0000
0001
0000
1000
0001
0100
0000
0010
0000
0000
1000
0000
0000
0001
0000
,
0010
0000
0100
0000
1000
0001
0100
0000
0010
0000
0000
1000
0000
0000
0001
0000
,
0010
0000
0100
0000
0010
0000
0000
0100
0000
0000
1000
0000
0001
0000
0000
0000
,
0100
0000
0001
0000
1000
0000
0000
0010
0000
0000
0100
0000
0001
0000
0000
0000
,
0010
0000
0001
0000
1000
0000
0000
0010
0000
0000
0100
0000
0001
0000
0000
0000
,
1000
0000
0001
0000
1000
0000
0000
0100
0000
0000
1000
0000
0001
0000
0000
0000
,
0010
0000
0100
0000
1000
0000
0000
0010
0000
0000
0100
0000
0001
0000
0000
0000
,
0010
0000
0100
0000
0010
0000
0000
0001
0000
0000
1000
0000
0100
0000
0000
0000
,
0010
0000
0100
0000
0010
0000
0000
0001
0000
0000
1000
0000
0010
0000
0000
0000
,
0100
0000
0001
0000
0100
0000
0000
0010
0000
0000
1000
0000
0001
0000
0000
0000
,
0010
0000
0100
0000
1000
0000
0000
0001
0000
0000
0010
0000
0100
0000
0000
0000
,
0010
0000
0001
0000
0100
0000
0000
0001
0000
0000
1000
0000
0100
0000
0000
0000
,
0010
0000
0001
0000
1000
0000
0000
0010
0000
0000
0100
0000
0001
0000
0000
0000
,
1000
0000
0100
0000
0010
0000
0000
0001
0000
0000
0100
0000
0010
0000
0000
0000
,
1000
1000
0200
0000
0300
1000
0001
0000
,
0100
0100
0002
0000
0003
1000
0001
0000
,
0010
0010
0200
0000
0300
1000
0001
0000
,
0100
0100
0020
0000
0030
1000
0100
0000
;

//---------------dance-single - ----------------
#NOTES:
     dance-single:
     :
     Medium:
     6:
     0.356691,0.369724,0.125835,0.105967,0.066229,377.000000,358.000000,19.000000,16.000000,0.000000,0.000000,0.356691,0.369724,0.125835,0.105967,0.066229,377.000000,358.000000,19.000000,16.000000,0.000000,0.000000:
0000
0000
0000
0000
,
0000
0000
0000
0000
,
0000
0000
0000
0000
,
0000
0000
0000
0000
,
0001
0100
0001
0000
0010
0000
0100
0000
,
1000
0100
1000
0000
0010
0000
1000
0000
,
0001
1000
0001
0000
0010
0000
0100
0000
,
1000
0100
1000
0000
0010
0000
1000
0000
,
0001
0100
0001
0000
0010
0000
0100
0000
,
0010
0001
0010
0000
0100
0000
1000
0000
,
0010
1000
0010
0000
0100
0000
0001
0000
,
1000
0010
1000
0000
0100
0000
0010
0000
,
0001
1000
0001
0000
0010
0000
0100
0000
,
1000
0001
1000
0000
0010
0000
0100
0000
,
0001
0100
0001
0000
0010
0000
0100
0000
,
1000
0100
1000
0000
0010
0000
0100
0000
,
0001
0100
0001
0000
0010
0000
0100
0000
,
0010
0001
0010
0000
0100
0000
1000
0000
,
0010
1000
0010
0000
0100
0000
0010
0000
,
1000
0010
1000
0000
0100
0000
0010
0000
,
0001
0100
0001
0000
1000
0000
0001
0000
,
0010
0001
0010
0000
0100
0000
1000
0000
,
0001
1000
0001
0000
0100
0000
0010
0000
,
1000
0010
1000
0000
0100
0000
0010
0000
,
0001
1000
0001
0000
0010
0000
0100
0000
,
1000
0001
1000
0000
0010
0000
0100
0000
,
0001
1000
0001
0000
0010
0000
0100
0000
,
1000
0001
1000
0000
0010
0000
0100
0000
,
0010
0000
1000
0000
0010
0000
0000
0000
0100
0000
0000
0100
0000
0000
0000
0000
,
0001
0000
0100
0000
0001
0000
0000
0000
0010
0000
0000
0010
0000
0000
0000
0000
,
0100
0000
1000
0000
0100
0000
0000
0000
0010
0000
0000
0010
0000
0000
0000
0000
,
0001
0000
1000
0000
0001
0000
0000
0000
0100
0000
0000
0100
0000
0000
0000
0000
,
0010
0000
1000
0000
0001
0000
0000
0000
0010
0000
0000
0001
0000
0000
0000
0000
,
0010
0000
1000
0000
0001
0000
0000
0000
0010
0000
0000
0100
0000
0000
0000
0000
,
0100
0000
0001
0000
1000
0000
0000
0000
0010
0000
0000
1000
0000
0000
0000
0000
,
0100
0000
0001
0000
1000
0000
0000
0000
0010
0000
0000
0100
0000
0000
0000
0000
,
1000
0000
0100
0000
1000
0000
0000
0000
0010
0000
0000
0100
0000
0000
0000
0000
,
0100
0000
0001
0000
0100
0000
0000
0000
0010
0000
0000
0100
0000
0000
0000
0000
,
1000
0000
0001
0000
1000
0000
0000
0000
0010
0000
0000
0100
0000
0000
0000
0000
,
0100
0000
0001
0000
0100
0000
0000
0000
0010
0000
0000
0100
0000
0000
0000
0000
,
0000
0000
0000
0000
,
0000
0000
0000
1001
,
0010
1000
0002
0000
0003
0000
1001
0000
,
0010
0001
2000
0000
3000
0000
1001
0000
,
0010
1000
0002
0000
0003
0000
1001
0000
,
0010
0001
2000
0000
3000
0000
1001
0000
,
0010
1000
0002
0000
0003
0000
1001
0000
,
0010
0001
2000
0000
3000
0000
1001
0000
,
0100
1000
0020
0000
0030
0000
0100
0000
,
0100
0001
0020
0000
0030
0000
0100
0000
,
0100
1000
0020
0000
0030
0000
0100
0000
,
0100
0001
0010
0000
0200
0000
0000
0000
,
1300
0000
0100
0000
0010
0000
0000
0000
0001
0000
0000
0100
0000
0000
0000
0000
,
1000
0000
0010
0000
0100
0000
0000
0000
0001
0000
0000
0100
0000
0000
0000
0000
,
1000
0000
0010
0000
1000
0000
0000
0000
0100
0000
0000
0010
0000
0000
0000
0000
,
0010
0000
0001
0000
0010
0000
0000
0000
0100
0000
0000
1000
0000
0000
0000
0000
,
1000
0000
0001
0000
1000
0000
0000
0000
0010
0000
0000
0100
0000
0000
0000
0000
,
0001
0000
0100
0000
0001
0000
0000
0000
0010
0000
0000
0100
0000
0000
0000
0000
,
0100
0000
1000
0000
0100
0000
0000
0000
0010
0000
0000
0001
0000
0000
0000
0000
,
0001
0000
1000
0000
0001
0000
0000
0000
0100
0000
0000
0010
0000
0000
0000
0000
,
0010
1000
0100
0000
0010
0000
0110
0000
,
1000
0001
0100
0000
0010
0000
0110
0000
,
1000
0001
0010
0000
0100
0000
1001
0000
,
0010
1000
0100
0000
0010
0000
1001
0000
,
0100
0000
0010
0000
0001
0100
0001
0000
,
0010
0000
0100
0000
1000
0100
1000
0000
,
0010
0000
1000
0000
0001
0100
0001
0000
,
0010
0000
0100
0000
1000
0100
1000
0000
,
0010
0000
1000
0000
0001
1000
0100
0000
,
0010
0000
0001
0000
1000
0001
0100
0000
,
0010
0000
1000
0000
0100
1000
0001
0000
,
0010
0000
0001
0000
0100
0001
1000
0000
,
0010
1000
0100
0000
1000
0001
1000
0000
,
0010
1000
0010
0000
0100
0001
1000
0000
,
0010
0100
0010
0000
1000
0001
0100
0000
,
0001
0010
0001
0000
1000
0100
0010
0000
,
0100
2002
3003
1001
,
0010
2002
3003
1001
,
0100
2002
3003
1001
,
0010
1001
0100
1001
;

//---------------dance-single - ----------------
#NOTES:
     dance-single:
     :
     Easy:
     4:
     0.231802,0.237680,0.000000,0.000000,0.079475,245.000000,245.000000,0.000000,0.000000,0.000000,0.000000,0.231802,0.237680,0.000000,0.000000,0.079475,245.000000,245.000000,0.000000,0.000000,0.000000,0.000000:
// measure 0
0000
0000
0000
0000
,  // measure 1
0000
0000
0000
0000
,  // measure 2
0000
0000
0000
0000
,  // measure 3
0000
0000
0000
0000
,  // measure 4
0001
0100
0000
0010
,  // measure 5
1000
0100
0000
0010
,  // measure 6
0001
1000
0000
0001
,  // measure 7
0100
0010
0000
1000
,  // measure 8
0100
0010
0000
0001
,  // measure 9
1000
0001
0000
0100
,  // measure 10
0010
0100
0000
0010
,  // measure 11
1000
0100
0000
0010
,  // measure 12
0001
1000
0000
0001
,  // measure 13
0100
0010
0000
0100
,  // measure 14
0001
1000
0000
0010
,  // measure 15
1000
0100
0000
0010
,  // measure 16
0001
1000
0000
0001
,  // measure 17
0100
0001
0000
1000
,  // measure 18
0010
0100
0000
0010
,  // measure 19
1000
0100
0000
0010
,  // measure 20
0001
1000
0000
0001
,  // measure 21
0100
0010
0000
1000
,  // measure 22
0001
0100
0000
0010
,  // measure 23
1000
0100
0000
0010
,  // measure 24
0001
0100
0000
0010
,  // measure 25
1000
0001
0000
0010
,  // measure 26
0100
1000
0000
0010
,  // measure 27
1000
0100
0000
0000
,  // measure 28
0010
0000
0000
0000
0000
0000
0000
0000
0001
0000
0000
0001
0000
0000
0000
0000
,  // measure 29
1000
0000
0000
0000
0000
0000
0000
0000
0010
0000
0000
0010
0000
0000
0000
0000
,  // measure 30
0100
0000
0000
0000
0000
0000
0000
0000
0001
0000
0000
0001
0000
0000
0000
0000
,  // measure 31
1000
0000
0000
0000
0000
0000
0000
0000
0100
0000
0000
0100
0000
0000
0000
0000
,  // measure 32
0010
0000
0000
0000
0000
0000
0000
0000
0001
0000
0000
1000
0000
0000
0000
0000
,  // measure 33
0010
0000
0000
0000
0000
0000
0000
0000
1000
0000
0000
0100
0000
0000
0000
0000
,  // measure 34
0010
0000
0000
0000
0000
0000
0000
0000
0100
0000
0000
1000
0000
0000
0000
0000
,  // measure 35
0010
0000
0000
0000
0000
0000
0000
0000
1000
0000
0000
0100
0000
0000
0000
0000
,  // measure 36
0001
0000
0000
0000
0000
0000
0000
0000
0100
0000
0000
0010
0000
0000
0000
0000
,  // measure 37
1000
0000
0000
0000
0000
0000
0000
0000
0100
0000
0000
0010
0000
0000
0000
0000
,  // measure 38
0001
0000
0000
0000
0000
0000
0000
0000
0100
0000
0000
0010
0000
0000
0000
0000
,  // measure 39
1000
0000
0000
0000
0000
0000
0000
0000
0001
0000
0000
0100
0000
0000
0000
0000
,  // measure 40
0000
0000
0000
0000
,  // measure 41
0000
0000
0000
0010
,  // measure 42
1000
0001
0000
0010
,  // measure 43
0001
0100
0000
0010
,  // measure 44
1000
0010
0000
0100
,  // measure 45
0001
1000
0000
0010
,  // measure 46
1000
0001
0000
0010
,  // measure 47
0100
1000
0000
0001
,  // measure 48
0010
0100
0000
1000
,  // measure 49
0010
1000
0000
0001
,  // measure 50
0100
0010
0000
0100
,  // measure 51
0001
1000
0000
0000
,  // measure 52
0010
0000
0000
0000
1000
0000
0000
0000
0001
0000
0000
0100
0000
0000
0000
0000
,  // measure 53
0001
0000
0000
0000
0010
0000
0000
0000
0100
0000
0000
1000
0000
0000
0000
0000
,  // measure 54
0010
0000
0000
0000
1000
0000
0000
0000
0001
0000
0000
1000
0000
0000
0000
0000
,  // measure 55
0100
0000
0000
0000
0010
0000
0000
0000
0001
0000
0000
1000
0000
0000
0000
0000
,  // measure 56
0010
0000
0000
0000
1000
0000
0000
0000
0001
0000
0000
1000
0000
0000
0000
0000
,  // measure 57
0010
0000
0000
0000
1000
0000
0000
0000
0001
0000
0000
0100
0000
0000
0000
0000
,  // measure 58
0100
0000
0000
0000
0001
0000
0000
0000
1000
0000
0000
0001
0000
0000
0000
0000
,  // measure 59
0100
0000
0000
0000
0001
0000
0000
0000
1000
0000
0000
0100
0000
0000
0000
0000
,  // measure 60
0100
0000
0000
0000
1000
0000
0000
0000
0010
0000
0000
0100
0000
0000
0000
0000
,  // measure 61
0100
0000
0000
0000
0001
0000
0000
0000
0010
0000
0000
0100
0000
0000
0000
0000
,  // measure 62
0100
0000
0000
0000
1000
0000
0000
0000
0001
0000
0000
0100
0000
0000
0000
0000
,  // measure 63
0010
0000
0000
0000
1000
0000
0000
0000
0001
0000
0000
1000
0000
0000
0000
0000
,  // measure 64
0001
0010
0100
1000
,  // measure 65
1000
0010
0001
0010
,  // measure 66
1000
0100
0010
0001
,  // measure 67
0100
1000
0100
0001
,  // measure 68
1000
0010
0100
0001
,  // measure 69
0010
0100
0010
0001
,  // measure 70
1000
0100
0001
0100
,  // measure 71
1000
0010
0100
0001
,  // measure 72
0010
1000
0010
0001
,  // measure 73
0100
0010
1000
0100
,  // measure 74
0001
0100
1000
0010
,  // measure 75
0100
0001
0010
0100
,  // measure 76
1000
0001
0000
1000
,  // measure 77
0100
1000
0000
0001
,  // measure 78
0010
0100
0000
0010
,  // measure 79
0001
0100
0000
0010
;

//---------------dance-single - ----------------
#NOTES:
     dance-single:
     :
     Beginner:
     2:
     0.152327,0.184862,0.006623,0.000000,0.000000,161.000000,160.000000,1.000000,0.000000,0.000000,0.000000,0.152327,0.184862,0.006623,0.000000,0.000000,161.000000,160.000000,1.000000,0.000000,0.000000,0.000000:
// measure 0
0000
0000
0000
0000
,  // measure 1
0000
0000
0000
0000
,  // measure 2
0000
0000
0000
0000
,  // measure 3
0000
0000
0000
0000
,  // measure 4
0001
0001
0000
0000
,  // measure 5
1000
1000
0000
0000
,  // measure 6
0010
0010
0000
0000
,  // measure 7
0100
0100
0000
0000
,  // measure 8
0010
0010
0000
0000
,  // measure 9
1000
1000
0000
0000
,  // measure 10
0100
0100
0000
0000
,  // measure 11
0010
0010
0000
0000
,  // measure 12
0001
0001
0000
0000
,  // measure 13
1000
1000
0000
0000
,  // measure 14
0010
0010
0000
0000
,  // measure 15
0100
0100
0000
0000
,  // measure 16
0001
0001
0000
0000
,  // measure 17
0010
0010
0000
0000
,  // measure 18
0100
0100
0000
0000
,  // measure 19
1000
1000
0000
0000
,  // measure 20
0010
0010
0000
0000
,  // measure 21
0100
0100
0000
0000
,  // measure 22
0010
0010
0000
0000
,  // measure 23
1000
1000
0000
0000
,  // measure 24
0001
0001
0000
0000
,  // measure 25
0010
0010
0000
0000
,  // measure 26
0100
0100
0000
0000
,  // measure 27
1000
1000
0000
0000
,  // measure 28
0001
0000
0010
0000
,  // measure 29
0100
0000
1000
0000
,  // measure 30
0001
0000
0100
0000
,  // measure 31
0010
0000
1000
0000
,  // measure 32
0001
0000
0010
0000
,  // measure 33
0100
0000
1000
0000
,  // measure 34
0001
0000
1000
0000
,  // measure 35
0100
0000
1000
0000
,  // measure 36
0001
0000
0100
0000
,  // measure 37
0010
0000
1000
0000
,  // measure 38
0100
0000
0010
0000
,  // measure 39
0001
0000
1000
0000
,  // measure 40
0010
0000
0000
0000
,  // measure 41
0000
0000
0000
0100
,  // measure 42
0000
0001
0000
1000
,  // measure 43
0000
0100
0000
0010
,  // measure 44
0000
0100
0000
1000
,  // measure 45
0000
0001
0000
1000
,  // measure 46
0000
0010
0000
0100
,  // measure 47
0000
0001
0000
0010
,  // measure 48
0000
0100
0000
1000
,  // measure 49
0000
0001
0000
1000
,  // measure 50
0000
0010
0000
0100
,  // measure 51
0000
0001
0000
0000
,  // measure 52
0010
0010
0000
0100
,  // measure 53
0100
0100
0000
1000
,  // measure 54
1000
1000
0000
0001
,  // measure 55
0001
0001
0000
0100
,  // measure 56
0100
0000
0010
0000
,  // measure 57
0100
0000
0010
0000
,  // measure 58
1000
0000
0100
0000
,  // measure 59
0001
0000
0100
0000
,  // measure 60
1000
1000
0000
0001
,  // measure 61
0001
0001
0000
1000
,  // measure 62
1000
1000
0000
0010
,  // measure 63
0010
0010
0000
0100
,  // measure 64
0000
0001
0000
0010
,  // measure 65
0000
0100
0000
1000
,  // measure 66
0000
0010
0000
0100
,  // measure 67
0000
0001
0000
0010
,  // measure 68
0000
0100
0000
0010
,  // measure 69
0000
0100
0000
1000
,  // measure 70
0000
0001
0000
1000
,  // measure 71
0000
0100
0000
0010
,  // measure 72
0000
0001
0000
1000
,  // measure 73
0000
0010
0000
0100
,  // measure 74
0000
0001
0000
0010
,  // measure 75
0000
0100
0000
1000
,  // measure 76
1000
1000
0000
0001
,  // measure 77
0001
0001
0000
0100
,  // measure 78
0000
0010
0000
1000
,  // measure 79
1000
1000
0000
1001
;
