#VERSION:0.83;
#TITLE:Running To The Sea;
#SUBTITLE:;
#ARTIST:Royksopp ft. Susanne Sundfor;
#TITLETRANSLIT:;
#SUBTITLETRANSLIT:;
#ARTISTTRANSLIT:;
#GENRE:The Inevitable End;
#ORIGIN:;
#CREDIT:;
#BANNER:Running To The Sea-bn.png;
#BACKGROUND:Running To The Sea-bg.png;
#PREVIEWVID:Running To The Sea-preview.avi;
#JACKET:Running To The Sea-jacket.png;
#CDIMAGE:;
#DISCIMAGE:;
#LYRICSPATH:;
#CDTITLE:;
#MUSIC:Running To The Sea.mp3;
#OFFSET:-0.006530;
#SAMPLESTART:31.232252;
#SAMPLELENGTH:15.609755;
#SELECTABLE:YES;
#BPMS:0.000=123.000;
#STOPS:;
#DELAYS:;
#WARPS:;
#TIMESIGNATURES:0.000=4=4;
#TICKCOUNTS:0.000=4;
#COMBOS:0.000=1;
#SPEEDS:0.000=1.000=0.000=0;
#SCROLLS:0.000=1.000;
#FAKES:;
#LABELS:0.000=Song Start;
#LASTSECONDHINT:146.394196;
#BGCHANGES:0.000=Running To The Sea-video.avi=1.000=1=0=0=StretchNoLoop==CrossFade==,
99999=-nosongbg-=1.000=0=0=0 // don't automatically add -songbackground-
;
#KEYSOUNDS:;
#ATTACKS:
;

//---------------dance-single - ----------------
#NOTEDATA:;
#CHARTNAME:;
#STEPSTYPE:dance-single;
#DESCRIPTION:;
#CHARTSTYLE:;
#DIFFICULTY:Hard;
#METER:7;
#RADARVALUES:0.392122,0.446962,0.107378,0.140934,0.248312,409.000000,393.000000,16.000000,21.000000,0.000000,0.000000,0.000000,0.000000,0.000000,0.392122,0.446962,0.107378,0.140934,0.248312,409.000000,393.000000,16.000000,21.000000,0.000000,0.000000,0.000000,0.000000,0.000000;
#CREDIT:;
#NOTES:
0000
0000
0000
0000
,
0000
0000
0000
0000
,
0000
0000
0000
0000
,
0000
0000
0000
0000
,
0000
0000
0000
0000
,
0000
0000
0000
0000
,
0000
0000
0000
0000
,
0000
0000
0000
0000
,
0000
0000
0001
1000
0010
0100
0000
0001
,
0000
0010
0000
0100
0000
1000
0000
0020
,
0000
0000
0000
0030
,
0200
0000
0000
0000
,
0301
0000
0000
0010
0100
0000
1000
0001
,
0000
0100
0000
0010
0000
1000
0000
0100
,
0020
0000
0000
0000
,
0032
0000
2003
0000
,
3100
0000
0010
0001
0100
0001
0000
0101
,
0000
1001
0000
1100
0000
0110
0000
1000
,
0020
0000
0001
0000
0130
0001
1000
0000
,
0100
1000
0001
0000
0010
0100
1000
0000
,
2100
0000
0001
0000
3100
0000
0010
0001
,
0000
0000
1000
0000
0000
0000
0010
0000
0000
0000
0100
0000
0000
0000
0001
1000
,
0001
0000
0100
0000
0010
1000
0100
0010
,
0000
0001
0100
1000
0000
1000
0100
0001
,
0010
0000
0001
1000
0010
0100
0000
0101
,
0000
1001
0000
1100
0000
0110
0000
0001
,
0020
0000
0001
0000
0130
0000
0001
0100
,
0010
1000
0100
0000
0010
0001
1000
0000
,
0102
0000
1000
0000
0103
0000
0001
0010
,
0000
0000
0100
0000
0000
0000
1000
0000
0000
0000
0001
0000
0000
0000
0100
0010
,
1000
0000
0100
0000
0010
0000
0001
0200
,
0000
0310
1000
0020
0000
1030
0001
1000
,
0100
0000
0010
0001
1000
0100
0000
1001
,
0000
0010
0000
0100
0000
0001
0000
0020
,
0000
0000
0100
0000
0031
0100
0010
1000
,
0001
0100
0001
0100
0010
1000
0010
1000
,
0100
0000
0010
0001
1000
0100
0000
0110
,
0000
0001
0000
1001
0000
0010
0000
0100
,
0002
0000
1000
0000
0103
0010
1000
0200
,
0000
0310
0100
0010
0001
0000
0101
0000
,
0100
0000
0100
0010
1000
0000
1000
0001
,
0010
0100
0000
0010
0001
1000
0000
0002
,
0100
0100
0010
0010
,
1000
1000
0100
0103
,
0010
0000
1000
0100
0010
0100
0000
2001
,
0000
0010
0000
0001
0000
0100
0000
3010
,
0200
1000
0010
0001
,
0010
0000
1000
0000
0301
0000
1000
0001
,
0100
0000
0000
0100
0010
0000
0000
0010
1000
0000
1000
0000
0000
1000
0001
0000
,
0001
0000
0000
0001
0010
0000
0000
0010
0100
0000
0100
0000
0000
0100
1000
0000
,
0001
0000
0000
0001
0100
0000
0000
0100
0010
0000
0010
0000
0000
0010
1000
0000
,
0100
0000
0000
0100
0010
0000
0000
0010
0001
0000
0001
0000
0000
0001
0100
0000
,
0010
0000
0000
0010
1000
0000
0000
1000
0100
0000
0100
0000
0000
0100
0010
0000
,
0001
0000
0000
0001
1000
0000
0000
1000
0010
0000
0010
0000
0000
0010
0100
0000
,
0001
0000
0000
0001
1000
0000
0000
1000
0100
0000
0100
0000
0000
0100
1000
0000
,
0010
0000
0000
0010
0100
0000
0000
0100
0001
0000
0001
0000
0000
0001
0010
0000
,
0100
0000
0000
1000
0001
0000
0000
1000
0100
0000
0100
0000
0000
0010
0001
0000
,
0100
0000
0000
0010
1000
0000
0000
0001
0100
0000
0010
0000
0000
1000
0001
0000
,
0010
0000
0000
0100
1000
0000
0000
0100
0010
0000
0001
0000
0000
0100
0001
0000
,
1000
0000
0000
0010
0100
0000
0000
0001
1000
0000
0010
0000
0000
0100
0001
0000
,
0010
0000
0000
0100
1000
0000
0000
0001
0010
0000
0100
0000
0000
1000
0001
0000
,
0100
0000
0000
0010
1000
0000
0000
0100
0010
0000
0001
0000
0000
0001
0100
0000
,
0010
0000
0000
1000
0001
0000
0000
1000
0100
0000
0010
0000
0000
0001
0100
0000
,
0010
0000
0000
0010
1000
0000
0000
1000
0100
0000
0010
0000
0000
0001
1000
0000
,
0010
0000
0000
1000
0001
0000
0000
0100
0010
0000
1000
0000
0000
0100
0010
0000
,
0001
0000
0000
0001
0100
0000
0000
0100
0010
0000
0010
0000
0000
1000
0001
0000
,
1000
0000
0000
1000
0100
0000
0000
0100
0010
0000
0010
0000
0000
0001
1000
0000
,
0001
0000
0000
0001
0100
0000
0000
0100
1000
0000
1000
0000
0000
0100
0001
0000
,
1000
0000
0000
1000
0100
0000
0000
0100
0001
0000
0001
0000
0000
0100
1000
0000
,
0010
0000
0000
0010
0100
0000
0000
0100
0001
0000
0001
0000
0000
1000
0100
0000
,
0010
0000
0000
0010
0001
0000
0000
0001
0100
0000
0100
0000
0000
0010
1000
0000
,
0010
0000
0000
0010
1000
0000
0000
1000
0100
0000
0100
0000
0000
0010
0001
0000
,
1002
0000
0103
0010
1000
0001
0000
0200
,
0000
0310
0000
2000
0000
3100
0020
0000
,
0031
0000
0000
0000
;

//---------------dance-single - ----------------
#NOTEDATA:;
#CHARTNAME:;
#STEPSTYPE:dance-single;
#DESCRIPTION:;
#CHARTSTYLE:;
#DIFFICULTY:Medium;
#METER:6;
#RADARVALUES:0.247353,0.347637,0.020133,0.073823,0.000000,258.000000,255.000000,3.000000,11.000000,0.000000,0.000000,0.000000,0.000000,0.000000,0.247353,0.347637,0.020133,0.073823,0.000000,258.000000,255.000000,3.000000,11.000000,0.000000,0.000000,0.000000,0.000000,0.000000;
#CREDIT:;
#NOTES:
0000
0000
0000
0000
,
0000
0000
0000
0000
,
0000
0000
0000
0000
,
0000
0000
0000
0000
,
0000
0000
0000
0000
,
0000
0000
0000
0000
,
0000
0000
0000
0000
,
0000
0000
0000
0000
,
0000
0000
0001
0100
0001
0000
0000
0010
,
0000
0010
0000
0100
0000
0100
0000
2000
,
0000
0000
0000
0000
,
3000
0000
0000
0000
,
0000
0000
0000
0010
1000
0000
1000
0001
,
0000
0001
0000
0100
0000
0100
0000
0020
,
0000
0000
0000
0000
,
0030
0000
0000
0000
,
1000
0000
0100
1000
0100
0000
0000
0010
,
0000
0010
0000
0100
0000
0100
0000
0020
,
0000
0000
0000
0000
,
0030
0001
0100
0001
,
1000
0000
0010
0000
0100
0000
0001
1000
,
0000
0001
0000
1000
0000
0001
0000
0200
,
0000
0000
0000
0000
,
0300
0000
0010
1000
,
0100
0000
0100
0010
0100
0010
0000
0001
,
0000
1000
0000
0010
0000
0100
0000
0001
,
0002
0000
0000
0000
,
0003
0000
0000
0000
,
1000
0000
0010
0000
1000
0000
0100
0010
,
0000
0100
0000
0010
0000
0100
0000
0020
,
0000
0000
0000
0000
,
0030
0000
0001
0000
,
1000
0000
0010
0100
0010
0000
1000
0000
,
0100
0100
0010
0010
,
0001
0100
1000
0100
,
0001
0001
0010
0100
,
0010
0000
0001
0000
1000
0001
0100
0000
,
0010
0010
1000
1000
,
0200
0000
0000
0000
,
0300
0010
0001
1000
,
0010
0000
0100
0001
1000
0000
0010
0000
,
1000
0100
0010
0001
,
1002
1000
1000
1000
,
0100
0100
0010
0010
,
1003
0000
0100
0000
0010
0001
1000
0000
,
0010
0100
0001
1000
,
2001
0100
0100
0010
,
0010
0001
0001
0100
,
3001
0000
0001
0000
0001
0100
1000
0000
,
1000
0000
1000
0000
1000
0100
0001
0000
,
1000
0000
0010
0000
1000
0001
0010
0000
,
0001
0000
0010
0000
0001
1000
0010
0000
,
0100
0000
0100
0000
0001
0100
1000
0000
,
0100
0000
0100
0000
1000
0100
0001
0000
,
0100
0000
0100
0000
0001
0010
1000
0000
,
0010
0000
0010
0000
1000
0010
0001
0000
,
1000
0000
0100
0000
0010
0001
0100
0000
,
0001
0000
0100
0000
1000
1000
1000
0000
,
0001
0000
0100
0000
0010
1000
0100
0000
,
0010
0000
0100
0000
0010
0010
0010
0000
,
0100
0000
1000
0000
0001
0010
1000
0000
,
0010
0000
0100
0000
0001
0001
0001
0000
,
1000
0000
0010
0000
0001
0010
1000
0000
,
0010
0000
0100
0000
0001
0100
1000
0000
,
0100
0010
0100
0000
0001
0010
0001
0000
,
0010
1000
0010
0000
0001
0010
0001
0000
,
1000
0100
1000
0000
0001
0100
0001
0000
,
1000
0001
1000
0000
0010
1000
0100
0000
,
0010
0010
0010
0000
0001
0001
0001
0000
,
1000
1000
1000
0000
0100
0100
0100
0000
,
0001
0100
1000
0000
1000
0100
0001
0000
,
0001
0100
1000
0000
1000
0100
0001
0000
,
0201
0000
0000
0000
,
0320
0000
0000
0000
,
0130
0000
0000
0000
;

//---------------dance-single - ----------------
#NOTEDATA:;
#CHARTNAME:;
#STEPSTYPE:dance-single;
#DESCRIPTION:;
#CHARTSTYLE:;
#DIFFICULTY:Easy;
#METER:4;
#RADARVALUES:0.229137,0.248312,0.013422,0.093956,0.000000,239.000000,237.000000,2.000000,14.000000,0.000000,0.000000,0.000000,0.000000,0.000000,0.229137,0.248312,0.013422,0.093956,0.000000,239.000000,237.000000,2.000000,14.000000,0.000000,0.000000,0.000000,0.000000,0.000000;
#CREDIT:;
#NOTES:
// measure 0
0000
0000
0000
0000
,  // measure 1
0000
0000
0000
0000
,  // measure 2
0000
0000
0000
0000
,  // measure 3
0000
0000
0000
0000
,  // measure 4
0000
0000
0000
0000
,  // measure 5
0000
0000
0000
0000
,  // measure 6
0000
0000
0000
0000
,  // measure 7
0000
0000
0000
0000
,  // measure 8
2000
0010
0010
0000
,  // measure 9
3002
0100
0100
0000
,  // measure 10
0023
0000
0000
0000
,  // measure 11
0230
0000
0000
0000
,  // measure 12
2300
0000
0001
0001
,  // measure 13
3200
0000
0010
0310
,  // measure 14
0002
0000
0000
0000
,  // measure 15
2003
0000
3020
0000
,  // measure 16
0130
0001
0100
0001
,  // measure 17
1000
0010
1000
0010
,  // measure 18
0100
0001
0100
0001
,  // measure 19
1000
0001
1000
0001
,  // measure 20
1000
0100
1000
0100
,  // measure 21
0010
0001
0010
0001
,  // measure 22
1000
0001
1000
0001
,  // measure 23
0100
0100
0010
0010
,  // measure 24
1000
0010
1000
0010
,  // measure 25
0100
0001
0100
0001
,  // measure 26
0010
0100
0010
0100
,  // measure 27
0010
0001
0010
0001
,  // measure 28
1000
0100
1000
0100
,  // measure 29
0010
0001
0010
0001
,  // measure 30
0100
0010
0100
0010
,  // measure 31
1000
1000
0001
0001
,  // measure 32
0100
0010
0100
0010
,  // measure 33
1000
1000
0100
0100
,  // measure 34
0010
0100
0010
0100
,  // measure 35
0010
0010
0001
0001
,  // measure 36
0100
0001
0100
0001
,  // measure 37
1000
1000
0010
0010
,  // measure 38
1000
0100
0010
0001
,  // measure 39
1000
1000
0001
0001
,  // measure 40
0100
0010
1000
0001
,  // measure 41
0100
0100
0010
0010
,  // measure 42
1000
0100
1000
0100
,  // measure 43
0010
0001
1000
0100
,  // measure 44
0010
0001
0100
0100
,  // measure 45
0010
1000
0100
0100
,  // measure 46
0010
0001
0010
0010
,  // measure 47
0100
1000
0100
0100
,  // measure 48
2002
0000
0000
0000
,  // measure 49
0000
0000
0000
3003
,  // measure 50
0010
0000
0010
0000
0100
0100
0000
0000
,  // measure 51
0001
0000
0001
0000
1000
1000
0000
0000
,  // measure 52
0100
0000
0100
0000
0010
0010
0000
0000
,  // measure 53
0001
0000
0001
0000
0100
0100
0000
0000
,  // measure 54
0010
0000
0010
0000
1000
1000
0000
0000
,  // measure 55
0100
0000
0100
0000
0010
0010
0000
0000
,  // measure 56
0001
0000
0001
0000
1000
1000
0000
0000
,  // measure 57
0010
0000
0010
0000
0100
0100
0000
0000
,  // measure 58
0001
0000
0001
0000
1000
1000
0000
0000
,  // measure 59
0100
0000
0100
0000
0010
0010
0000
0000
,  // measure 60
0001
0000
0100
0000
0100
0010
0000
0000
,  // measure 61
0010
0000
1000
0000
1000
0100
0000
0000
,  // measure 62
0100
0000
0010
0000
0010
0001
0000
0000
,  // measure 63
0001
0000
1000
0000
1000
0100
0000
0000
,  // measure 64
0010
0000
0001
0000
0001
0100
0000
0000
,  // measure 65
0010
0000
1000
0000
1000
0100
0000
0000
,  // measure 66
0010
0000
0100
0000
0010
0100
0000
0000
,  // measure 67
1000
0000
0001
0000
1000
0001
0000
0000
,  // measure 68
0100
0000
0010
0000
0100
0010
0000
0000
,  // measure 69
1000
0000
0010
0000
1000
0010
0000
0000
,  // measure 70
0100
0000
0001
0000
0100
0001
0000
0000
,  // measure 71
0010
0000
0100
0000
0010
0100
0000
0000
,  // measure 72
2002
0000
0000
3003
,  // measure 73
0020
0000
0000
0000
,  // measure 74
0130
0000
0000
0000
;

//---------------dance-single - ----------------
#NOTEDATA:;
#CHARTNAME:;
#STEPSTYPE:dance-single;
#DESCRIPTION:;
#CHARTSTYLE:;
#DIFFICULTY:Beginner;
#METER:1;
#RADARVALUES:0.146686,0.198650,0.013422,0.093956,0.000000,153.000000,151.000000,2.000000,14.000000,0.000000,0.000000,0.000000,0.000000,0.000000,0.146686,0.198650,0.013422,0.093956,0.000000,153.000000,151.000000,2.000000,14.000000,0.000000,0.000000,0.000000,0.000000,0.000000;
#CREDIT:;
#NOTES:
0000
0000
0000
0000
,
0000
0000
0000
0000
,
0000
0000
0000
0000
,
0000
0000
0000
0000
,
0000
0000
0000
0000
,
0000
0000
0000
0000
,
0000
0000
0000
0000
,
0000
0000
0000
0000
,
2000
0000
3000
0000
,
0002
0000
0003
0000
,
0020
0000
0030
0000
,
0200
0000
0300
0000
,
2000
0000
3000
0000
,
0200
0000
0300
0000
,
0002
0000
0003
0000
,
2000
3000
0020
0030
,
0100
0000
0001
0000
,
0100
0000
0001
0000
,
1000
0000
0010
0000
,
1000
0000
0010
0000
,
1000
0000
0100
0000
,
1000
0000
0100
0000
,
0010
0000
0001
0000
,
0010
0000
0001
0000
,
1000
0000
0010
0000
,
1000
0000
0010
0000
,
0100
0000
0001
0000
,
0100
0000
0001
0000
,
1000
0000
0100
0000
,
1000
0000
0100
0000
,
0010
0000
0001
0000
,
0010
0000
0001
0000
,
0100
0100
0100
0000
,
0010
0000
0100
0000
,
1000
1000
1000
0000
,
0001
0000
0100
0000
,
0010
0010
0010
0000
,
0100
0000
0001
0000
,
0010
0010
0010
0000
,
0100
0000
1000
0000
,
0100
0100
0100
0000
,
0010
0000
0001
0000
,
1000
1000
1000
0000
,
0010
0000
0100
0000
,
0001
0001
0001
0000
,
0100
0000
0010
0000
,
1000
1000
1000
0000
,
0001
0000
1000
0000
,
2002
0000
0000
0000
,
0000
0000
3003
0000
,
0010
0010
0010
0000
,
0100
0100
0100
0000
,
0001
0001
0001
0000
,
1000
1000
1000
0000
,
0100
0100
0100
0000
,
0010
0010
0010
0000
,
0001
0001
0001
0000
,
0100
0100
0100
0000
,
0010
0010
0010
0000
,
1000
1000
1000
0000
,
0100
0100
0100
0000
,
0010
0010
0010
0000
,
0001
0001
0001
0000
,
1000
1000
1000
0000
,
0010
0010
0010
0000
,
0100
0100
0100
0000
,
0001
0001
0001
0000
,
1000
1000
1000
0000
,
0100
0100
0100
0000
,
0010
0010
0010
0000
,
0001
0001
0001
0000
,
1000
1000
1000
0000
,
2002
0000
0000
3003
,
0020
0000
0000
0000
,
0130
0000
0000
0000
;
