#TITLE:Running Up That Hill;
#SUBTITLE:(A Deal with God);
#ARTIST:Kate Bush;
#TITLETRANSLIT:;
#SUBTITLETRANSLIT:;
#ARTISTTRANSLIT:;
#GENRE:Hounds of Love;
#CREDIT:;
#BANNER:Running Up That Hill-bn.png;
#BACKGROUND:Black.png;
#LYRICSPATH:;
#CDTITLE:;
#MUSIC:Running Up That Hill (A Deal With God).mp3;
#OFFSET:-0.033000;
#SAMPLESTART:46.472469;
#SAMPLELENGTH:16.072708;
#LASTBEATHINT:256.000000;
#SELECTABLE:YES;
#BPMS:0.000000=110.000000
,11.000000=109.000000
,12.000000=107.000000
,15.000000=108.000000
,20.000000=108.250000
,33.000000=109.000000
,39.000000=108.000000
,57.000000=108.250000
,71.000000=108.500000
,99.000000=108.000000
,120.000000=108.250000
,124.000000=109.000000
,133.000000=108.000000
,149.000000=108.250000
,165.000000=109.000000
,172.000000=108.250000
,183.000000=109.000000
,191.000000=108.000000
,208.000000=108.500000
,227.000000=108.000000
,239.000000=108.750000
,245.000000=108.000000
;
#STOPS:
;
#BGCHANGES:0.000=Running Up That Hill (A Deal With God)-video.avi=1.000=1=0=1===CrossFade==,
99999=-nosongbg-=1.000=0=0=0 // don't automatically add -songbackground-
;
#KEYSOUNDS:;
#ATTACKS:;

//---------------dance-single - ----------------
#NOTES:
     dance-single:
     :
     Hard:
     7:
     0.391322,0.414001,0.338948,0.221354,0.069173,396.000000,347.000000,49.000000,32.000000,0.000000,0.000000,0.391322,0.414001,0.338948,0.221354,0.069173,396.000000,347.000000,49.000000,32.000000,0.000000,0.000000:
// measure 0
0000
0000
0000
0000
,  // measure 1
0000
0000
0000
0000
,  // measure 2
0000
0000
0000
0000
0012
0000
1003
0001
,  // measure 3
0100
0000
0100
0000
2010
0000
3001
1000
,  // measure 4
0100
0000
0100
0000
0012
0000
1003
0001
,  // measure 5
0100
0000
0101
0000
0100
0001
0101
0000
,  // measure 6
0100
0001
0101
0000
0100
0001
1000
0100
,  // measure 7
1000
0001
1001
0000
0100
1000
0001
1000
,  // measure 8
0001
0100
1001
0000
0100
0001
1000
0001
,  // measure 9
1000
0000
0100
0000
0001
0000
0200
0000
0000
0000
0300
0000
0010
1000
0020
0000
,  // measure 10
0000
0130
0001
0010
0000
0011
0000
1000
,  // measure 11
0010
0000
0000
0100
0001
0000
1000
0000
0100
0000
0000
0000
0010
0000
0100
0000
,  // measure 12
1000
0000
0001
0100
0000
1100
0000
0001
,  // measure 13
0100
0000
0001
1000
0100
0000
0000
0000
1000
0000
0010
0000
0100
0001
0010
0000
,  // measure 14
0000
0001
1000
0001
0000
0110
0000
1000
,  // measure 15
0100
0000
0010
0001
1000
0000
0010
0100
,  // measure 16
0001
0000
1000
0100
0000
1001
0000
0010
,  // measure 17
0100
0201
1300
1200
,  // measure 18
0301
0201
1300
1200
,  // measure 19
0301
0000
1000
0010
0001
0000
0001
0010
,  // measure 20
1000
0000
1000
0010
0001
0000
0001
0010
,  // measure 21
1001
0000
0000
0000
0010
0000
2200
0000
0000
0000
3300
0000
0000
0000
0010
0100
,  // measure 22
0010
0000
1000
0202
0000
0303
0000
0001
,  // measure 23
0010
1000
0010
0001
0000
1000
0000
0101
,  // measure 24
0000
0000
1100
0000
0000
0000
0010
0000
0100
0001
0100
0000
0010
0000
1000
0000
,  // measure 25
0200
0000
0000
0000
1300
0000
1000
0000
0001
1000
0001
0000
1000
0000
0010
0000
,  // measure 26
0200
0000
0000
0000
0310
0000
0010
0000
1000
0001
1000
0000
0100
0000
0020
0000
,  // measure 27
0000
0031
0100
0000
0001
0000
1100
0000
,  // measure 28
1000
0000
0010
0000
0100
0001
0101
0000
,  // measure 29
2000
0000
0010
0000
0100
0000
0001
0001
,  // measure 30
3002
0000
0010
0000
0100
0000
1000
1000
,  // measure 31
2003
3100
0002
0103
,  // measure 32
0010
0000
1000
0001
1000
0000
0110
0000
,  // measure 33
0001
0000
1000
0100
0000
0101
0000
1000
,  // measure 34
0100
0000
0010
0001
0100
0000
0100
0001
,  // measure 35
0010
0000
0001
1000
0000
0110
0000
0001
,  // measure 36
0100
0000
0010
1000
0001
0000
0000
0000
0100
0000
0001
0000
1000
0100
0010
0000
,  // measure 37
0000
0101
1000
0010
0000
1100
0000
0001
,  // measure 38
0100
0000
0000
0000
0010
0000
1000
0000
0001
0000
0000
0010
0100
0000
1000
0000
,  // measure 39
1000
0000
0001
0100
0000
1001
0000
0100
,  // measure 40
0001
0000
1000
0001
1000
0000
0000
1001
0000
0000
0001
1000
0001
0000
0000
1001
,  // measure 41
0000
1000
0100
0010
0000
1001
0000
0001
,  // measure 42
1000
0000
0001
0100
0001
0010
0000
0100
,  // measure 43
1000
0100
1000
0001
0000
1010
0000
0100
,  // measure 44
0010
0000
1000
0001
0100
0000
0010
1000
,  // measure 45
0100
0101
1100
1001
,  // measure 46
0100
0010
1000
0001
0010
0000
0100
1000
,  // measure 47
0001
1100
0101
1001
,  // measure 48
0010
1000
0001
0000
0010
0000
0202
0000
0000
0000
0303
0000
0000
0000
0010
0100
,  // measure 49
0010
0000
0001
2200
0000
3300
0000
1000
,  // measure 50
0010
0001
0010
0100
0000
0001
0000
1100
,  // measure 51
0000
0000
0011
0000
0000
0000
0001
0000
0100
0010
1000
0000
0010
0000
0100
0000
,  // measure 52
0002
0000
0000
0000
1003
0000
0001
0000
0010
0001
1000
0000
0001
0000
0010
0000
,  // measure 53
0200
0000
0000
0000
1300
0000
0001
0000
0100
0001
1000
0000
0100
0000
0020
0000
,  // measure 54
0000
0031
0100
0000
0010
1000
0101
0000
,  // measure 55
0001
0010
0100
0000
0010
0001
1100
0000
,  // measure 56
0002
0000
0010
0000
0100
0000
1000
1000
,  // measure 57
2003
0000
0010
0000
0100
0000
0001
0001
,  // measure 58
3002
0000
0103
0000
1000
0001
0100
0010
,  // measure 59
1000
0000
0110
0000
0001
0000
0010
0001
,  // measure 60
0100
0000
0110
0000
0100
0000
0010
1000
,  // measure 61
0100
0110
0100
1002
,  // measure 62
0013
0000
1000
0200
0000
0000
0000
0000
,  // measure 63
0300
0000
0000
0000
;

//---------------dance-single - ----------------
#NOTES:
     dance-single:
     :
     Medium:
     6:
     0.292503,0.326843,0.186767,0.249023,0.000000,296.000000,269.000000,27.000000,36.000000,0.000000,0.000000,0.292503,0.326843,0.186767,0.249023,0.000000,296.000000,269.000000,27.000000,36.000000,0.000000,0.000000:
0000
0000
0000
0000
,
0000
0000
0000
0000
,
0000
0000
0000
0000
0001
0000
1000
0200
,
0000
0300
1100
0000
1000
0000
0001
0200
,
0000
0300
0101
0000
0001
0000
1000
0100
,
0010
0001
0100
0010
,
1000
0000
0001
0000
0010
0000
0001
1000
,
0010
0000
0010
0000
0100
0000
0010
1000
,
0001
0010
0010
0100
,
1100
0000
1000
0002
0000
0003
1001
0000
,
0010
0000
0002
1000
0000
1000
0000
1000
,
1003
0000
0010
0000
0100
0000
0001
0010
,
0100
0000
2000
0001
0000
0001
0000
0001
,
3001
0100
0010
0100
,
0001
0000
0020
0100
0000
0100
0000
0100
,
0130
1000
0001
1000
,
0010
0000
0200
0001
0000
0001
0000
0001
,
0301
1000
0100
1000
,
0001
0000
0010
0000
0100
1000
0001
0000
,
1000
0010
0100
0001
,
1000
0000
0010
0000
1000
0001
0100
0000
,
0101
0000
0010
0200
0000
0000
0300
0000
,
1010
0000
0100
0020
0000
0000
0030
0000
,
1000
0100
1000
0000
0001
0100
0001
0000
,
1000
0010
0100
0000
0010
1000
0001
0000
,
2020
0000
3030
0000
1000
0001
0010
0000
,
0202
0000
0303
0000
0001
1000
0100
0000
,
1000
0010
0100
0000
0010
1000
0100
0000
,
1000
0010
0100
0000
0010
1000
0100
0000
,
2200
0300
0010
3100
,
0202
0300
0010
0103
,
1001
0001
1000
0001
,
0010
0000
0100
2000
0000
3000
1100
0000
,
1000
0000
0002
0100
0000
0100
0000
0100
,
0103
0010
1000
0001
,
0010
0000
0200
1000
0000
1000
0000
1000
,
1300
0010
0100
0010
,
1000
0000
0020
0100
0000
0100
0000
0100
,
0130
0001
1000
0100
,
0010
0000
0200
0010
0000
0010
0000
0010
,
0310
0110
1001
1001
,
0110
0000
0100
1000
0000
0001
0000
1000
,
0100
0110
0001
1001
,
0010
0000
0200
1000
0000
1000
0000
1000
,
1300
0000
0001
1000
0100
0000
1000
0001
,
1000
0010
0100
0001
,
0010
0100
0010
0001
,
1000
0001
0100
0000
0010
0000
0100
0000
,
1001
0000
0010
2000
0000
0000
3000
0000
,
0110
0000
0001
0200
0000
0000
0300
0000
,
0001
0010
0001
0000
1000
0100
0010
0000
,
0001
0100
0001
0000
1000
0010
0100
0000
,
0202
0000
0303
0000
0010
1000
0100
0000
,
0220
0000
0330
0000
1000
0001
0010
0000
,
0010
0001
0100
0000
0100
0010
1000
0000
,
1000
0001
0010
0000
0010
0001
0100
0000
,
0202
0003
1000
0301
,
2200
3000
0001
1300
,
2002
0000
3003
0000
0000
0100
0001
1000
,
0000
0000
0000
0000
0000
0000
0010
1000
,
0100
0000
1100
0000
0100
0000
0010
0001
,
0100
0101
0100
0010
,
1000
0000
0001
2000
0000
3000
0100
0000
,
0100
0000
0000
0000
;

//---------------dance-single - ----------------
#NOTES:
     dance-single:
     :
     Easy:
     3:
     0.165027,0.215301,0.083008,0.255940,0.000000,167.000000,155.000000,12.000000,37.000000,0.000000,0.000000,0.165027,0.215301,0.083008,0.255940,0.000000,167.000000,155.000000,12.000000,37.000000,0.000000,0.000000:
0000
0000
0000
0000
,
0000
0000
0000
0000
,
0000
0000
1000
0100
,
2000
3000
0001
1000
,
0002
0003
0100
0001
,
0200
0300
0000
0010
,
2000
0000
3000
0001
,
0020
0000
0030
0100
,
2000
0000
3000
0010
,
1000
0002
0000
0103
,
0010
0100
0000
0001
,
0000
1000
0001
1000
,
0000
0010
0000
0100
,
0000
0010
1000
0100
,
0000
0010
0000
0001
,
0000
0100
0001
1000
,
0100
0010
0000
0010
,
0000
0001
1000
0001
,
1000
0100
0100
0000
,
0000
1000
0001
1000
,
0001
0100
0100
0000
,
2002
3003
0010
0000
,
2002
3003
0010
0000
,
2002
3003
0010
0010
,
0100
0001
1000
0100
,
2002
3003
0010
0010
,
2002
3003
0010
0010
,
2002
3003
0000
0000
,
0000
0000
0010
1000
,
0200
0000
0010
0010
,
0010
0000
0010
1000
,
0310
0000
0000
1000
,
0001
2000
0000
3100
,
0000
0010
0000
0001
,
0000
0100
0010
1000
,
0000
0001
0000
1000
,
0000
0001
0010
0100
,
0000
0010
0000
0001
,
0000
1000
0001
0100
,
0010
1000
0000
0001
,
0000
0020
0130
0200
,
0310
0000
0000
0000
,
0000
0001
1000
0100
,
1000
0000
0001
0000
,
0100
0010
0000
0100
,
0000
0001
0010
0010
,
0000
0100
0000
1000
,
0000
0010
0100
0100
,
2002
3003
0010
0000
,
2002
3003
0010
0000
,
2002
3003
0010
0010
,
1000
0001
0100
0010
,
2002
3003
0010
0010
,
2002
3003
0010
0010
,
2002
3003
0000
0000
,
0000
0000
0001
0010
,
0200
0000
1000
1000
,
1000
0000
0010
1000
,
0310
0000
0000
0001
,
0100
0000
0000
0010
,
0200
0000
0000
0010
,
0001
0000
0000
0010
,
0010
0301
0000
0000
;

//---------------dance-single - ----------------
#NOTES:
     dance-single:
     :
     Beginner:
     1:
     0.092890,0.129181,0.013835,0.179850,0.000000,94.000000,92.000000,2.000000,26.000000,0.000000,0.000000,0.092890,0.129181,0.013835,0.179850,0.000000,94.000000,92.000000,2.000000,26.000000,0.000000,0.000000:
0000
0000
0000
0000
,
0000
0000
0000
0000
,
0000
0000
0000
0000
,
0010
0000
0000
0000
,
1000
0000
0000
0000
,
0001
0000
0000
0100
,
0000
0000
0000
0010
,
0000
0000
0000
0010
,
0000
0000
0000
1000
,
1000
1000
0000
0000
,
0001
0000
0000
0000
,
0010
0000
0000
0000
,
0100
0000
0000
0000
,
1000
0000
1000
0000
,
0001
0000
0001
0000
,
0100
0000
0010
0000
,
0100
0000
0100
0000
,
0010
0000
0000
0000
,
1000
0000
0000
0000
,
1000
0000
1000
0000
,
1000
0000
0000
0000
,
0200
0000
0300
0000
,
0200
0000
0300
0000
,
0200
0300
0200
0300
,
0200
0300
0200
0300
,
0020
0000
0030
0000
,
0020
0000
0030
0000
,
0020
0030
0000
0000
,
0000
0000
0001
0001
,
0002
0000
0003
0000
,
2000
0000
3000
0000
,
0200
0000
0300
0000
,
0000
0000
0000
1000
,
0000
1000
0000
1000
,
0000
0001
0000
0001
,
0000
0001
0000
0001
,
0000
1000
0000
1000
,
0000
1000
0000
1000
,
0000
0001
0000
0001
,
0000
0001
0000
0001
,
0000
1000
0000
0001
,
0000
1000
0000
0001
,
0000
1000
0000
0001
,
0000
1000
0000
0001
,
0000
1000
0000
0100
,
0000
0010
0000
0001
,
0000
0001
0000
0100
,
0000
0010
0000
0000
,
2002
0000
3003
0000
,
0220
0000
0330
0000
,
0020
0030
0020
0030
,
0020
0030
0020
0030
,
0200
0000
0300
0000
,
0200
0000
0300
0000
,
0200
0300
0000
0000
,
0000
0000
1000
1000
,
2000
0000
3000
0000
,
0002
0000
0003
0000
,
0200
0000
0300
0100
,
0000
0010
0000
0010
,
0000
0100
0000
0010
,
0000
0100
0000
0001
,
0001
0001
0000
0000
;
