#VERSION:0.83;
#TITLE:Roman Holiday;
#SUBTITLE:;
#ARTIST:Halsey;
#TITLETRANSLIT:;
#SUBTITLETRANSLIT:;
#ARTISTTRANSLIT:;
#GENRE:Badlands;
#ORIGIN:;
#CREDIT:;
#BANNER:Roman Holiday-bn.png;
#BACKGROUND:Roman Holiday-bg.png;
#PREVIEWVID:;
#JACKET:Roman Holiday-jacket.png;
#CDIMAGE:;
#DISCIMAGE:;
#LYRICSPATH:;
#CDTITLE:;
#MUSIC:Roman Holiday.mp3;
#OFFSET:-0.089000;
#SAMPLESTART:43.718273;
#SAMPLELENGTH:27.181202;
#SELECTABLE:YES;
#BPMS:0.000=149.000;
#STOPS:;
#DELAYS:;
#WARPS:;
#TIMESIGNATURES:0.000=4=4;
#TICKCOUNTS:0.000=2;
#COMBOS:0.000=1;
#SPEEDS:0.000=1.000=0.000=0;
#SCROLLS:0.000=1.000;
#FAKES:;
#LABELS:0.000=Song Start;
#LASTSECONDHINT:129.811432;
#BGCHANGES:;
#KEYSOUNDS:;
#ATTACKS:
;

//---------------dance-single - ----------------
#NOTEDATA:;
#CHARTNAME:;
#STEPSTYPE:dance-single;
#DESCRIPTION:;
#CHARTSTYLE:;
#DIFFICULTY:Hard;
#METER:7;
#RADARVALUES:0.439169,0.507829,0.014960,0.239353,0.000000,411.000000,409.000000,2.000000,32.000000,0.000000,0.000000,0.000000,0.000000,0.000000,0.439169,0.507829,0.014960,0.239353,0.000000,411.000000,409.000000,2.000000,32.000000,0.000000,0.000000,0.000000,0.000000,0.000000;
#CREDIT:;
#NOTES:
0000
0000
0000
0000
,
0000
0000
0000
0000
,
0000
0000
0000
0000
,
0000
0000
0000
0000
,
0000
0000
0000
0000
,
0000
0000
0000
0000
,
0000
0000
0000
0000
,
0000
0000
0000
0000
,
0001
1000
0010
0100
0001
1000
0100
0010
,
0000
0001
1000
0010
0000
1000
0000
0001
,
0000
1000
0100
0010
0100
1000
0010
0100
,
0001
1000
0100
0000
1100
0000
0000
0000
,
0010
1000
0100
0010
0100
1000
0001
0100
,
0010
1000
0001
1000
0100
0010
0100
1000
,
0000
0010
1000
0100
0010
0001
0100
0010
,
0100
0010
0000
0000
1001
0000
0000
0000
,
0001
0100
0010
1000
0100
0001
0100
1000
,
0000
0001
0100
0010
0000
0000
1000
0001
,
0100
0010
0000
1000
0000
0000
0001
0100
,
0000
0010
1000
0100
0010
0001
0100
0000
,
0010
1000
0100
0010
0100
1000
0001
0100
,
0010
1000
0100
0010
0000
0001
1000
0010
,
0000
1000
0001
0100
0000
0010
0100
0010
,
0000
1000
0100
0010
0001
0100
0010
0000
,
0000
0000
1000
0000
,
0001
0000
1000
0100
0000
0010
0000
0200
,
0000
0000
0010
0000
,
0300
0010
0001
0100
0010
1000
0100
0010
,
0001
2000
0000
0000
3100
0010
0001
0100
,
0010
0200
0000
0000
0310
1000
0001
1000
,
0100
0020
0000
0000
0031
1000
0100
1000
,
0000
0010
1000
0001
0100
0010
0100
0001
,
1000
0200
0000
0000
0310
0001
0100
0010
,
1000
0200
0000
0000
0310
0001
1000
0010
,
0000
1000
0001
1000
0000
0100
0010
0100
,
0000
1000
0100
0010
0001
1000
0100
0020
,
0000
0130
0000
1000
0100
0010
0001
0200
,
0000
0310
0000
1000
0010
0100
0001
2000
,
0000
3100
0010
0002
0000
0013
0100
2000
,
0000
0000
0000
0000
3010
1000
0001
0100
,
0000
0010
0000
1000
0000
0100
0000
0020
,
0000
0000
0000
0000
0000
0031
1000
0100
,
0000
0010
0000
0001
0000
0100
0000
0020
,
0000
0000
1000
0030
,
0001
0010
0001
0010
0001
1000
0100
1000
,
0010
1000
0010
1000
0010
0100
0001
0100
,
0010
0100
0010
0100
0010
1000
0100
1000
,
0001
0010
0100
1000
0002
0020
0033
0000
,
0001
0100
1000
0100
0001
0100
0001
0100
,
0010
1000
0010
0001
0010
1000
0010
1000
,
0100
0001
0100
1000
0100
0010
0100
0010
,
0001
1000
0010
0100
0001
1000
0001
1000
,
0100
0010
0100
0010
0001
1000
0001
1000
,
0010
0100
0010
0100
1000
0001
1000
0001
,
0100
0010
0100
0010
0100
0010
0100
0010
,
1000
0100
0010
0002
0000
0000
0003
0000
,
1000
0001
1000
0001
1000
0100
0010
0001
,
1000
0100
1000
0100
0001
0010
0100
1000
,
0001
0010
0001
0010
0100
1000
0100
1000
,
0010
0100
0010
0100
0010
0100
0001
1000
,
0000
0200
0000
0000
0310
0001
0100
0010
,
1000
0200
0000
0000
1300
0010
0100
0001
,
1000
0200
0000
0000
0300
0010
0000
0001
,
0000
1000
0010
0100
0001
1000
0100
0010
,
0000
0200
0000
0000
1300
0100
0001
0100
,
0010
0002
0000
0000
1003
0010
0100
0001
,
0000
1000
0010
1000
0000
0001
0100
0001
,
0000
1000
0100
0010
0001
1000
0100
0010
,
0000
0200
0000
0000
1300
0010
1000
0001
,
0000
0020
0000
0000
0130
1000
0001
0100
,
0000
0010
0000
1000
0000
0100
0000
0020
,
0000
0000
0000
0000
0031
1000
0100
0010
,
0000
0001
0100
0001
0000
1000
0010
2000
,
0000
0000
0000
0000
3100
0010
0001
0100
,
0000
0010
0000
1000
0000
0001
0000
0020
,
0000
0000
0130
0000
,
2000
0100
0002
0000
,
3000
0100
2000
0000
,
0003
0100
0002
3003
,
0000
0000
0020
0000
0030
0200
0000
0300
;

//---------------dance-single - ----------------
#NOTEDATA:;
#CHARTNAME:;
#STEPSTYPE:dance-single;
#DESCRIPTION:;
#CHARTSTYLE:;
#DIFFICULTY:Medium;
#METER:5;
#RADARVALUES:0.290642,0.327567,0.082277,0.000000,0.000000,272.000000,261.000000,11.000000,0.000000,0.000000,0.000000,0.000000,0.000000,0.000000,0.290642,0.327567,0.082277,0.000000,0.000000,272.000000,261.000000,11.000000,0.000000,0.000000,0.000000,0.000000,0.000000,0.000000;
#CREDIT:;
#NOTES:
0000
0000
0000
0000
,
0000
0000
0000
0000
,
0000
0000
0000
0000
,
0000
0000
0000
0000
,
0000
0000
0000
0000
,
0000
0000
0000
0000
,
0000
0000
0000
0000
,
0000
0000
0000
0000
,
1000
0100
0010
0001
,
0100
0010
1000
0001
,
0010
0100
1000
0010
,
0100
0001
0010
0000
,
0001
1000
0100
0010
,
0001
1000
0010
0100
,
0010
1000
0100
0010
,
0001
0100
0010
0000
,
1000
0100
0001
0100
,
1000
0100
0001
0100
,
1000
0010
0100
0001
,
0010
0100
1000
0001
,
0100
0010
1000
0010
,
0001
0010
1000
0100
,
0010
0001
0100
1000
,
0100
0001
0010
0100
,
1000
0010
0100
0000
,
0010
0100
0001
0000
,
1000
0100
0001
0100
,
1000
0000
1001
0000
,
0010
1000
0010
0000
0100
0000
0000
0000
,
0001
1000
0001
0000
0010
0000
0000
0000
,
0100
1000
0100
0000
0010
0000
0000
0000
,
0001
0000
1000
0010
,
0100
0010
0100
0000
0001
0000
0000
0000
,
1000
0001
1000
0000
0010
0000
0000
0000
,
1000
0100
0001
0010
,
1000
0000
0001
0010
,
0100
1000
0100
0000
0010
0000
0000
0000
,
0001
0100
0001
0000
1000
0000
0000
0000
,
0010
1000
0010
0000
0100
0000
0100
0000
,
0001
0000
1000
0000
,
0100
0010
0001
1000
,
0010
0100
1001
0000
,
0100
0010
1000
0001
,
0010
0100
0110
0000
,
1000
0100
1000
0010
,
0001
0100
0001
0010
,
1000
0100
0010
0001
,
0100
0000
0010
0000
1000
0001
1000
0000
,
0010
0100
0001
0010
,
0100
1000
0010
0100
,
0001
0010
0100
1000
,
0010
0000
0100
0000
0001
1000
0001
1000
,
0001
0000
1001
0000
,
0010
0000
0110
0000
,
1000
0000
1001
0100
,
0010
1000
0010
1000
0000
0000
0000
0000
,
0100
0000
0110
0000
,
0001
0000
1001
0000
,
0010
0000
0110
0000
,
0001
0000
1000
0000
0010
0100
0010
0000
,
1000
0100
0001
0010
,
0100
1000
0010
0100
,
0001
0010
0100
1000
,
0001
1000
1001
0000
,
0010
1000
0010
0000
0100
0000
0000
0000
,
0001
0100
0001
0000
1000
0000
0000
0000
,
0100
0010
0001
1000
,
0010
0100
0001
1000
,
0100
0010
0100
0000
0010
0000
0000
0000
,
0001
1000
0001
0000
0100
0000
0000
0000
,
0010
1000
0100
0010
,
0001
1000
1001
0000
,
0010
1000
0100
0000
1000
0000
1000
0000
,
0001
0010
0100
0000
,
0010
0001
0100
0000
0001
0000
1000
0000
,
0010
0100
0010
0000
,
1000
0100
0001
0000
,
0000
0100
1000
0000
,
0000
0100
0001
0000
,
0000
0000
0010
0000
0000
0100
0000
0000
;

//---------------dance-single - ----------------
#NOTEDATA:;
#CHARTNAME:;
#STEPSTYPE:dance-single;
#DESCRIPTION:;
#CHARTSTYLE:;
#DIFFICULTY:Easy;
#METER:3;
#RADARVALUES:0.204091,0.268430,0.029919,0.112197,0.000000,191.000000,187.000000,4.000000,15.000000,0.000000,0.000000,0.000000,0.000000,0.000000,0.204091,0.268430,0.029919,0.112197,0.000000,191.000000,187.000000,4.000000,15.000000,0.000000,0.000000,0.000000,0.000000,0.000000;
#CREDIT:;
#NOTES:
// measure 0
0000
0000
0000
0000
,  // measure 1
0000
0000
0000
0000
,  // measure 2
0000
0000
0000
0000
,  // measure 3
0000
0000
0000
0000
,  // measure 4
0000
0000
0000
0000
,  // measure 5
0000
0000
0000
0000
,  // measure 6
0000
0000
0000
0000
,  // measure 7
0000
0000
0000
0000
,  // measure 8
1000
0100
1000
0000
,  // measure 9
0010
0000
0010
0000
,  // measure 10
0100
0001
0100
0000
,  // measure 11
0001
0000
0000
0000
,  // measure 12
0010
0001
0010
0000
,  // measure 13
0100
0000
1000
0000
,  // measure 14
0010
1000
0010
0000
,  // measure 15
0100
0000
0000
0000
,  // measure 16
0001
1000
0001
0000
,  // measure 17
0010
0000
0100
0000
,  // measure 18
1000
0001
1000
0000
,  // measure 19
0100
0000
0010
0000
,  // measure 20
0001
1000
0001
0000
,  // measure 21
0010
0001
0010
0000
,  // measure 22
0100
1000
0100
0000
,  // measure 23
1000
0001
1000
0000
,  // measure 24
0010
0000
0100
0000
,  // measure 25
0001
0000
1000
0000
,  // measure 26
0010
0000
0100
0000
,  // measure 27
0001
0000
1000
0000
,  // measure 28
0100
0100
0010
0010
,  // measure 29
0100
0100
0010
0010
,  // measure 30
0100
0100
0010
0010
,  // measure 31
0002
0000
1003
0000
,  // measure 32
0010
0010
0100
0100
,  // measure 33
0010
0010
0100
0100
,  // measure 34
0010
0010
0100
0100
,  // measure 35
0010
0010
2000
3000
,  // measure 36
0100
0000
1001
0000
,  // measure 37
0100
0000
1001
0000
,  // measure 38
0010
1000
0010
1000
,  // measure 39
0001
0000
0000
0000
,  // measure 40
0100
0000
1001
0000
,  // measure 41
0100
0000
1001
0000
,  // measure 42
0010
0001
0010
0001
,  // measure 43
1000
0000
0001
0000
,  // measure 44
0100
0100
0100
0010
,  // measure 45
0100
0100
0100
0010
,  // measure 46
1000
1000
1000
0010
,  // measure 47
0100
0100
0100
0000
,  // measure 48
0001
0001
0001
0010
,  // measure 49
1000
1000
1000
0010
,  // measure 50
0001
0001
0001
0010
,  // measure 51
1000
1000
1000
0000
,  // measure 52
0100
0000
0020
0030
,  // measure 53
0200
0300
2000
3000
,  // measure 54
0002
0000
0000
0003
,  // measure 55
0100
0000
0000
0000
,  // measure 56
0010
0000
2000
3000
,  // measure 57
0200
0300
0002
0003
,  // measure 58
0020
0030
1000
0000
,  // measure 59
0100
0000
0010
0000
,  // measure 60
0001
0000
0000
0000
,  // measure 61
0100
0000
0000
0000
,  // measure 62
1000
0000
0000
0000
,  // measure 63
0100
0000
0000
0000
,  // measure 64
0010
0010
0100
0100
,  // measure 65
0010
0010
0100
0100
,  // measure 66
0010
0010
0001
0001
,  // measure 67
0200
0000
0300
0000
,  // measure 68
0010
1000
0010
0000
,  // measure 69
1000
0100
0010
0000
,  // measure 70
0001
1000
0001
0100
,  // measure 71
0001
0000
1000
0010
,  // measure 72
0010
1000
0100
1000
,  // measure 73
0100
0000
0010
0100
,  // measure 74
0100
1000
0001
1000
,  // measure 75
0001
0000
0010
0000
,  // measure 76
0200
0000
0000
0300
,  // measure 77
2000
0000
0000
3000
,  // measure 78
0002
0000
0000
0003
,  // measure 79
0200
0000
0000
0300
;

//---------------dance-single - ----------------
#NOTEDATA:;
#CHARTNAME:;
#STEPSTYPE:dance-single;
#DESCRIPTION:;
#CHARTSTYLE:;
#DIFFICULTY:Beginner;
#METER:1;
#RADARVALUES:0.126088,0.145855,0.000000,0.000000,0.000000,118.000000,118.000000,0.000000,0.000000,0.000000,0.000000,0.000000,0.000000,0.000000,0.126088,0.145855,0.000000,0.000000,0.000000,118.000000,118.000000,0.000000,0.000000,0.000000,0.000000,0.000000,0.000000,0.000000;
#CREDIT:;
#NOTES:
// measure 0
0000
0000
0000
0000
,  // measure 1
0000
0000
0000
0000
,  // measure 2
0000
0000
0000
0000
,  // measure 3
0000
0000
0000
0000
,  // measure 4
0000
0000
0000
0000
,  // measure 5
0000
0000
0000
0000
,  // measure 6
0000
0000
0000
0000
,  // measure 7
0000
0000
0000
0000
,  // measure 8
1000
0000
0000
0000
,  // measure 9
0010
0000
0000
0000
,  // measure 10
0100
0000
0000
0000
,  // measure 11
0001
0000
0000
0000
,  // measure 12
1000
0000
0000
0000
,  // measure 13
0100
0000
0000
0000
,  // measure 14
0010
0000
0000
0000
,  // measure 15
0001
0000
0000
0000
,  // measure 16
1000
0000
0010
0000
,  // measure 17
1000
0000
0100
0000
,  // measure 18
0010
0000
0001
0000
,  // measure 19
0100
0000
0001
0000
,  // measure 20
0010
0000
0100
0000
,  // measure 21
1000
0000
0001
0000
,  // measure 22
0100
0000
0010
0000
,  // measure 23
1000
0000
0001
0000
,  // measure 24
0010
0000
0100
0000
,  // measure 25
1000
0000
0001
0000
,  // measure 26
0100
0000
0100
0000
,  // measure 27
0010
0000
0000
0000
,  // measure 28
1000
1000
0000
0000
,  // measure 29
0100
0100
0000
0000
,  // measure 30
0001
0001
0000
0000
,  // measure 31
0100
0000
0000
0000
,  // measure 32
0010
0010
0000
0000
,  // measure 33
0001
0001
0000
0000
,  // measure 34
0010
0010
0000
0000
,  // measure 35
1000
0000
0000
0000
,  // measure 36
0010
0000
0100
0000
,  // measure 37
0001
0000
1000
0000
,  // measure 38
0100
0000
0010
0000
,  // measure 39
0001
0000
1000
0000
,  // measure 40
0010
0000
0100
0000
,  // measure 41
0001
0000
0010
0000
,  // measure 42
0100
0000
1000
0000
,  // measure 43
0010
0000
0000
0000
,  // measure 44
1000
0000
1000
0000
,  // measure 45
0001
0000
0001
0000
,  // measure 46
0100
0000
0100
0000
,  // measure 47
0010
0000
0010
0000
,  // measure 48
0100
0000
0100
0000
,  // measure 49
0001
0000
0001
0000
,  // measure 50
1000
0000
1000
0000
,  // measure 51
0010
0000
0010
0000
,  // measure 52
0010
0000
0100
0000
,  // measure 53
0100
0000
0001
0000
,  // measure 54
0001
0000
0000
0000
,  // measure 55
1000
0000
0000
0000
,  // measure 56
0001
0000
0010
0000
,  // measure 57
0010
0000
0100
0000
,  // measure 58
0100
0000
0000
0000
,  // measure 59
1000
0000
0001
0000
,  // measure 60
1000
0000
0000
0000
,  // measure 61
1000
0000
0000
0000
,  // measure 62
0001
0000
0000
0000
,  // measure 63
0001
0000
0000
0000
,  // measure 64
0100
0000
0100
0000
,  // measure 65
0010
0000
0010
0000
,  // measure 66
1000
0000
0100
0000
,  // measure 67
0010
0000
0001
0000
,  // measure 68
1000
1000
0000
0000
,  // measure 69
0001
0001
0000
0000
,  // measure 70
0100
0000
0010
0000
,  // measure 71
0100
0000
0000
0000
,  // measure 72
0010
0010
0010
0000
,  // measure 73
0100
0000
0000
0000
,  // measure 74
0001
0001
0001
0000
,  // measure 75
1000
0000
0000
0000
,  // measure 76
0100
0000
0000
0000
,  // measure 77
0000
0000
0000
0000
,  // measure 78
0010
0000
0000
0000
;
