#VERSION:0.83;
#TITLE:Ring;
#SUBTITLE:;
#ARTIST:Camellia;
#TITLETRANSLIT:;
#SUBTITLETRANSLIT:;
#ARTISTTRANSLIT:;
#GENRE:paroxysm;
#ORIGIN:;
#CREDIT:;
#BANNER:Ring-bn.png;
#BACKGROUND:Ring-bg.png;
#PREVIEWVID:;
#JACKET:Ring-jacket.png;
#CDIMAGE:;
#DISCIMAGE:;
#LYRICSPATH:;
#CDTITLE:;
#MUSIC:Ring.mp3;
#OFFSET:-0.042100;
#SAMPLESTART:50.932026;
#SAMPLELENGTH:14.545914;
#SELECTABLE:YES;
#DISPLAYBPM:132.000000:175.000000;
#BPMS:0.000=132.000,
206.000=133.428,
210.000=136.295,
214.000=139.162,
218.000=142.029,
222.000=144.895,
226.000=147.762,
230.000=150.629,
234.000=153.496,
238.000=156.362,
242.000=159.229,
246.000=162.096,
250.000=164.963,
254.000=167.829,
258.000=170.696,
262.000=173.563,
266.000=175.000,
331.000=87.500;
#STOPS:110.000=0.455,
141.000=0.455,
266.000=1.064;
#DELAYS:;
#WARPS:;
#TIMESIGNATURES:0.000=4=4;
#TICKCOUNTS:0.000=2;
#COMBOS:0.000=1;
#SPEEDS:0.000=1.000=0.000=0;
#SCROLLS:0.000=1.000;
#FAKES:;
#LABELS:0.000=Song Start;
#LASTSECONDHINT:143.643677;
#BGCHANGES:;
#KEYSOUNDS:;
#ATTACKS:
;

//---------------dance-single - ----------------
#NOTEDATA:;
#CHARTNAME:;
#STEPSTYPE:dance-single;
#DESCRIPTION:;
#CHARTSTYLE:;
#DIFFICULTY:Hard;
#METER:9;
#RADARVALUES:0.565551,0.695498,0.370932,0.168606,0.472096,587.000000,532.000000,55.000000,25.000000,0.000000,0.000000,0.000000,0.000000,0.000000,0.565551,0.695498,0.370932,0.168606,0.472096,587.000000,532.000000,55.000000,25.000000,0.000000,0.000000,0.000000,0.000000,0.000000;
#CREDIT:;
#DISPLAYBPM:132.000000:175.000000;
#NOTES:
0000
0000
0000
0000
,
0000
0000
0000
0000
,
0000
0000
0000
0000
,
0000
0000
0000
0000
,
1001
0000
0000
0001
0100
0000
0001
0000
1000
0000
0001
0000
0100
0000
0010
0000
,
1000
0000
0000
0001
1000
0000
0100
0000
0010
0000
0100
0000
1000
0000
0001
0000
,
0010
0000
0000
0001
0100
0000
0010
0000
1000
0000
0010
0000
0100
0000
0001
0000
,
1000
0000
0000
0100
0010
0000
1000
0000
0010
0000
0001
0000
1000
0000
0001
0000
,
0100
0000
0001
0100
0001
0000
0001
0000
1000
0000
1000
0000
0010
0000
0010
0000
,
1000
0000
0100
1000
0100
0000
0010
0000
0001
0000
0001
0000
1000
0000
1000
0000
,
0010
0000
0100
0010
0100
0000
0001
0000
1000
0000
1000
0000
0001
0000
0001
0000
,
0010
0000
0100
0010
0100
0000
1000
0000
0001
1000
0001
1000
0001
1000
0001
0000
,
1002
0000
1000
0000
0000
1000
0000
0000
1000
0000
0000
1000
0000
0000
1003
0000
,
0000
0000
2010
0000
0000
0010
0000
0000
0010
0000
0000
0010
0000
3010
0000
0000
,
0000
0000
0102
0000
0000
0100
0000
0000
0100
0000
0000
0100
0000
0000
0103
0000
,
0000
0000
0210
0000
0000
0010
0000
0000
0010
0000
0000
0010
0000
0310
0000
0000
,
0000
0000
2000
0000
0000
0100
0000
0000
0001
0000
0000
0100
0000
0000
3001
0000
,
0000
0000
0020
0000
0000
0001
0000
0000
0100
0000
0000
0031
0000
0100
0000
0000
,
0000
0000
0002
0000
0000
0100
0000
0000
1000
0000
0000
0100
0000
0000
1003
0000
,
0000
0000
0020
0000
0000
1000
0000
0000
0100
0000
0000
1030
0000
0100
0000
0000
,
1100
0000
0001
1000
0100
0000
0100
0000
0010
0000
0010
0000
0100
0000
0100
0000
,
1000
0000
1000
0001
0100
0000
0100
0000
0010
0000
0010
0000
0100
0000
0100
0000
,
0001
0000
0010
0100
0010
0000
0001
0000
1000
0000
1000
0000
0001
0000
0001
0000
,
0100
0000
0010
0100
0010
0000
1000
0000
0001
0000
1000
0000
0100
0000
0010
0000
,
0100
0000
1000
0100
1000
0000
0001
0000
0100
0000
0001
0100
0001
0000
1000
0000
,
0010
0000
0100
0001
1000
0000
0010
0000
0100
0000
0010
1000
0100
0000
0010
0000
,
0100
0000
0010
0001
0010
0000
0100
1000
0100
0000
0010
0001
0010
0000
0100
1000
,
0100
0000
1000
0001
1000
0001
1000
0001
1000
0000
0000
0000
1001
0000
0010
0000
,
1001
0000
0001
0100
0000
0000
0001
1000
0000
0000
0001
0100
0000
0000
0010
1000
,
0000
0000
1000
0100
1000
0001
1000
0001
2000
0000
0000
0000
3100
0000
0010
0000
,
0100
0000
1000
0010
0000
0000
0010
1000
0000
0000
0001
0010
0000
0000
0010
0001
,
0000
0000
1000
0001
1000
0000
0001
0000
0100
0000
0010
0000
0200
0000
0000
0000
,
0301
0000
1000
0100
0000
0000
1000
0001
0000
0000
0001
0100
0000
0000
0001
1000
,
0000
0000
1000
0001
1000
0010
0100
0010
0100
0000
0000
0000
1001
0000
0000
0000
,
0100
0000
0010
1000
0000
0000
1000
0100
0000
0000
0100
0001
0000
0000
0001
0100
,
0000
0000
1000
0100
1000
0000
0000
0000
1001
0000
0000
0000
1001
0000
0000
0000
,
0000
0000
1000
0001
0000
0000
0001
1000
0000
0000
0100
0000
0100
0000
0010
0000
,
0100
0000
1000
0100
1000
0000
0000
0000
0101
0000
0000
0000
0101
0000
0000
0000
,
0000
0000
1000
0010
0000
0000
0100
0001
0000
0000
0010
0100
0000
0000
1000
0001
,
1000
0001
0100
0010
0100
0000
0110
0000
,
0000
0000
0100
0001
0000
0000
1000
0100
0000
0000
0010
0000
0001
0000
1000
0000
,
0010
0000
0100
0010
0100
0000
0000
0000
0110
0000
0000
0000
1001
0000
0000
0000
,
0000
0000
0001
0010
0000
0000
0100
1000
0000
0000
0001
1000
0000
0000
0010
0100
,
0010
1000
0001
0100
2002
0000
0000
0000
,
0000
0000
0000
0000
3003
0000
0000
0000
0000
0000
2000
0000
0000
0010
0000
0000
,
0100
0000
0000
0001
0000
3100
0000
0000
0000
0000
0102
0000
0000
1000
0000
0000
,
0010
0000
0000
1000
0000
0000
0103
0000
0000
0000
0020
0000
0000
1000
0000
0000
,
0100
0000
0000
1030
0000
0100
0000
0000
0000
0000
2000
0000
0000
0001
0000
0000
,
0010
0000
0000
0100
0000
0000
3001
0000
0000
0000
0020
0000
0000
0001
0000
0000
,
1000
0000
0000
0031
0000
0100
0000
0000
0000
0000
0002
0000
0000
0010
0000
0000
,
0100
0000
0000
1000
0000
0000
0103
0000
0000
0000
0020
0000
0000
1000
0000
0000
,
0001
0000
0000
1030
0000
0100
0000
0000
0000
0000
0010
0000
0000
0001
0000
0000
,
1000
0000
0000
0010
0000
0000
0110
0000
0000
0000
0100
0000
0000
0001
0000
0000
,
1000
0000
0000
0100
0000
0000
1001
0000
0000
0000
0010
0000
0000
1000
0000
0000
,
0001
0000
0000
0010
0000
0000
0011
0000
0000
0000
0001
0000
0000
1000
0000
0000
,
0010
0000
0000
0100
0000
0000
0110
0000
0000
0000
0001
0000
0000
1000
0000
0000
,
0100
0000
0000
1100
0000
0000
0110
0000
0000
0000
0010
0000
0000
0001
0000
0000
,
1010
0000
0000
0110
0000
0000
0101
0000
0000
0000
1000
0000
0000
0001
0000
0000
,
1001
0000
0000
0110
0000
0000
0101
0000
0000
0000
0001
0000
0000
1000
0000
0000
,
0010
0000
0000
0100
0000
0000
0001
0000
1001
0000
0000
0000
0101
0000
0000
0000
,
1001
1100
1001
0011
,
1001
1010
0110
0101
,
0110
1010
1100
0110
,
0011
0000
0110
0000
1000
0100
1000
0100
,
1000
0001
1000
0001
0100
0001
0100
0001
,
1000
0001
1000
0001
0010
0100
0010
0100
,
1000
0001
1000
0001
0100
0000
2002
0000
,
3003
0000
0000
0000
1010
0000
0000
0000
0100
0010
0100
0000
0000
0000
0001
0000
,
1000
0001
1000
0000
0000
0000
0010
0000
0100
0010
0100
0010
0000
0000
0000
0000
,
1000
0000
0001
0000
0000
0000
0001
0000
0100
0001
0100
0001
0100
0000
0000
0000
,
0010
1000
0001
0100
0010
0000
2002
0000
,
3003
0000
0000
0000
1010
0000
0000
0000
1000
0001
1000
0000
0000
0000
0100
0000
,
1000
0100
1000
0000
0000
0000
0001
0000
0100
0001
0100
0001
0000
0000
0000
0000
,
0010
0000
0100
0000
0000
0000
1000
0000
0100
1000
0100
1000
0100
0000
0000
0000
,
0001
1000
0010
0100
0001
0000
0101
0000
,
1010
0000
1100
0000
0001
1000
0000
0010
,
0100
0001
0100
0000
0000
0000
0010
0000
1000
0100
1000
0100
0000
0000
0000
0000
,
1000
0000
0001
0000
0000
0000
0100
0000
0010
0100
0010
0100
0010
0000
0000
0000
,
1000
0001
0100
0010
0100
0000
2020
0000
,
3030
0000
1100
0000
0001
0100
0000
0010
,
1000
0010
1000
0000
0000
0000
0100
0000
1000
0100
1000
0100
0000
0000
0000
0000
,
0010
0000
0001
0000
0000
0000
1000
0000
0001
1000
0001
1000
0001
0000
0010
0000
,
0100
1000
0010
0100
0001
0000
0000
0000
;

//---------------dance-single - ----------------
#NOTEDATA:;
#CHARTNAME:;
#STEPSTYPE:dance-single;
#DESCRIPTION:;
#CHARTSTYLE:;
#DIFFICULTY:Medium;
#METER:6;
#RADARVALUES:0.357444,0.500759,0.263025,0.033721,0.000000,371.000000,332.000000,39.000000,5.000000,0.000000,0.000000,0.000000,0.000000,0.000000,0.357444,0.500759,0.263025,0.033721,0.000000,371.000000,332.000000,39.000000,5.000000,0.000000,0.000000,0.000000,0.000000,0.000000;
#CREDIT:;
#DISPLAYBPM:132.000000:175.000000;
#NOTES:
0000
0000
0000
0000
,
0000
0000
0000
0000
,
0000
0000
0000
0000
,
0000
0000
0000
0000
,
0001
0000
0010
0000
0001
0000
1000
0010
,
0100
0000
0010
0000
1000
0000
0001
1000
,
0100
0000
0010
0000
0100
0000
1000
0001
,
0100
0000
0010
0000
0100
0000
0001
0010
,
0001
0000
1000
0000
0100
0000
0010
0100
,
1000
0000
0010
0000
1000
0000
0001
0010
,
0001
0000
1000
0000
0001
0000
0100
0010
,
1000
0000
0001
0000
0010
0100
1000
0001
,
0100
0000
0000
0000
,
0010
0000
0000
0000
,
1000
0100
0001
0001
,
0001
0100
1000
1000
,
0010
1000
0100
0100
,
0010
0100
0010
0010
,
0001
1000
0001
0100
,
0010
0100
0010
0100
,
0010
1000
0100
0100
,
0001
0100
1000
1001
,
0010
0001
0010
0100
,
1000
0010
0100
1001
,
0010
1000
0010
0000
0100
0001
0100
0000
,
0001
1000
0001
0000
0010
0001
0010
0000
,
0100
1000
0100
0000
0001
1000
0001
0000
,
0100
0001
0100
0000
1001
0000
0010
0000
,
1000
0000
0100
0001
0100
1000
0010
0000
,
0100
0000
0010
1000
0001
0000
0100
0000
,
0010
0000
0100
0001
0100
1000
0010
0000
,
1000
0000
0100
0001
0100
0000
0010
0000
,
0100
0000
0010
0001
0010
1000
0100
0000
,
0010
0000
0100
1000
0001
0100
0010
0000
,
0100
0000
0010
0001
0010
1000
0100
0010
,
0100
0110
0001
0001
,
0000
1000
0000
1000
0000
0100
0000
0100
,
0000
0001
0100
1000
0100
0000
0110
0000
,
0000
0010
0000
0010
0000
0001
0000
1000
,
0020
0000
0130
0001
1000
0000
1010
0000
,
0000
0100
0000
0100
0000
0001
0000
0100
,
0000
1000
0001
0100
0010
0000
0011
0000
,
0000
1000
0000
0100
0000
0010
0001
1000
,
0020
0000
0130
0001
1000
0000
0000
0000
,
0000
0000
0100
0001
,
0100
1000
0000
0010
,
0000
0100
0000
0010
,
0001
0010
1000
0100
,
0010
0000
0001
0100
,
0010
0000
1000
0001
,
0010
0000
0100
1000
,
0100
0000
0010
0001
,
0000
1000
0010
0000
0100
0000
0001
0000
,
0000
0010
0100
0000
1000
0000
0001
0000
,
0000
0100
0010
0000
1000
0000
0001
0000
,
0000
0010
0100
0000
1000
0000
0001
0000
,
0000
0100
0001
0000
0010
0000
1000
0000
,
0000
0001
1000
0000
0010
0000
0100
0000
,
0000
1000
0001
0000
0100
0000
1000
0000
,
0000
0001
0100
0000
0001
0000
1001
0000
,
0010
0110
1000
1001
,
0100
0110
0001
0100
,
1000
0100
0001
0010
,
0100
1000
1100
1100
,
0011
0011
0101
0101
,
1010
1010
0110
1001
,
0110
1001
0110
2002
,
3003
0000
1010
0000
,
0101
0000
1100
0000
,
0010
0100
0000
0100
0010
0000
1001
0000
,
1000
0001
1000
0001
0100
0000
0010
0000
,
0100
0000
0000
0000
0001
0010
0000
0010
,
0100
0000
0000
0100
1000
0000
0000
0000
,
1000
0001
0000
0001
0100
0000
1001
0000
,
0002
0100
0003
0100
0010
0000
1001
0000
,
0000
0000
0000
0000
0010
1000
0000
1000
,
0100
0000
0000
0100
0010
0000
0000
0000
,
0001
1000
0000
0001
0100
0000
0101
0000
,
1010
1100
0011
0100
,
0010
0000
0100
0000
1000
0001
0000
0001
,
1000
0000
0000
0010
0100
0000
0000
0000
,
0001
1000
0000
1000
0100
0000
1100
0000
,
0101
0110
1001
0000
;

//---------------dance-single - ----------------
#NOTEDATA:;
#CHARTNAME:;
#STEPSTYPE:dance-single;
#DESCRIPTION:;
#CHARTSTYLE:;
#DIFFICULTY:Easy;
#METER:4;
#RADARVALUES:0.272659,0.472939,0.229304,0.000000,0.000000,283.000000,249.000000,34.000000,0.000000,0.000000,0.000000,0.000000,0.000000,0.000000,0.272659,0.472939,0.229304,0.000000,0.000000,283.000000,249.000000,34.000000,0.000000,0.000000,0.000000,0.000000,0.000000,0.000000;
#CREDIT:;
#DISPLAYBPM:132.000000:175.000000;
#NOTES:
// measure 0
0000
0000
0000
0000
,  // measure 1
0000
0000
0000
0000
,  // measure 2
0000
0000
0000
0000
,  // measure 3
0000
0000
0000
0000
,  // measure 4
1000
0100
0001
1000
,  // measure 5
0010
0100
0010
0100
,  // measure 6
0001
0010
0100
1000
,  // measure 7
0010
0001
1000
0001
,  // measure 8
1000
0100
0010
0100
,  // measure 9
1000
0001
0010
0100
,  // measure 10
0010
0001
1000
0100
,  // measure 11
0001
0010
1000
0100
,  // measure 12
0001
0000
0000
0000
,  // measure 13
0010
0000
0000
0000
,  // measure 14
0100
0000
0000
0000
,  // measure 15
1000
0000
0000
0000
,  // measure 16
0001
0000
0000
0000
,  // measure 17
1000
0000
0000
0000
,  // measure 18
0010
0000
0000
0000
,  // measure 19
0100
0000
0000
0000
,  // measure 20
0001
0001
0001
0001
,  // measure 21
0100
0100
0100
0100
,  // measure 22
1000
1000
1000
1000
,  // measure 23
0010
0010
0010
0010
,  // measure 24
0100
0100
0001
0001
,  // measure 25
1000
1000
0100
0100
,  // measure 26
0010
0001
1000
0010
,  // measure 27
0100
0001
1001
1100
,  // measure 28
1100
1100
1100
1100
,  // measure 29
1100
0110
0000
0011
,  // measure 30
0011
0011
0011
0011
,  // measure 31
0011
0110
0000
1001
,  // measure 32
1001
1001
1001
1001
,  // measure 33
1001
0101
0000
1001
,  // measure 34
1001
1001
1001
1001
,  // measure 35
1001
1010
0010
0010
,  // measure 36
0000
0100
0000
0001
,  // measure 37
0010
1000
0100
0001
,  // measure 38
0000
1000
0000
0001
,  // measure 39
0000
0010
0001
0100
,  // measure 40
1000
0100
0001
0100
,  // measure 41
1000
0100
0001
0100
,  // measure 42
1000
0001
0100
0100
,  // measure 43
0010
0100
1001
0000
,  // measure 44
0000
0000
0001
0000
,  // measure 45
0010
0000
1000
0000
,  // measure 46
0000
0000
1000
0000
,  // measure 47
0100
0000
0001
0000
,  // measure 48
0000
0000
0001
0000
,  // measure 49
0100
0000
1000
0000
,  // measure 50
0000
0000
1000
0000
,  // measure 51
0001
0000
0100
0100
,  // measure 52
0100
0000
0010
0010
,  // measure 53
0010
0000
1000
1000
,  // measure 54
1000
0000
0001
0001
,  // measure 55
0001
0000
0010
0001
,  // measure 56
0010
0000
0100
1000
,  // measure 57
0100
0000
1000
0001
,  // measure 58
1000
0000
0001
0100
,  // measure 59
0001
0000
1000
1000
,  // measure 60
0001
0001
0100
0100
,  // measure 61
0010
0010
1000
0010
,  // measure 62
0001
0010
1000
0010
,  // measure 63
0001
0010
1000
1000
,  // measure 64
0100
0100
0001
0001
,  // measure 65
0100
0100
1000
0001
,  // measure 66
0100
0010
0100
0001
,  // measure 67
0000
1001
0010
1000
,  // measure 68
0010
0001
0010
1000
,  // measure 69
0000
1000
0100
0001
,  // measure 70
0100
1000
1000
0001
,  // measure 71
0001
1000
0100
0001
,  // measure 72
0100
1000
0001
0100
,  // measure 73
0001
1000
0100
1100
,  // measure 74
0000
0101
0000
1001
,  // measure 75
0000
0010
0001
1000
,  // measure 76
0010
0001
0010
1000
,  // measure 77
0001
0100
0010
0100
,  // measure 78
0000
0100
0001
1000
,  // measure 79
0001
0010
1000
0001
,  // measure 80
1000
0001
1000
0001
,  // measure 81
0100
1000
0100
0001
,  // measure 82
1000
0100
0100
0000
;

//---------------dance-single - ----------------
#NOTEDATA:;
#CHARTNAME:;
#STEPSTYPE:dance-single;
#DESCRIPTION:;
#CHARTSTYLE:;
#DIFFICULTY:Beginner;
#METER:2;
#RADARVALUES:0.148373,0.249621,0.114652,0.000000,0.000000,154.000000,137.000000,17.000000,0.000000,0.000000,0.000000,0.000000,0.000000,0.000000,0.148373,0.249621,0.114652,0.000000,0.000000,154.000000,137.000000,17.000000,0.000000,0.000000,0.000000,0.000000,0.000000,0.000000;
#CREDIT:;
#DISPLAYBPM:132.000000:175.000000;
#NOTES:
// measure 0
0000
0000
0000
0000
,  // measure 1
0000
0000
0000
0000
,  // measure 2
0000
0000
0000
0000
,  // measure 3
0000
0000
0000
0000
,  // measure 4
1000
0000
1000
0000
,  // measure 5
0010
0000
0100
0000
,  // measure 6
0001
0000
0001
0000
,  // measure 7
0010
0000
0100
0000
,  // measure 8
1000
0000
0100
0000
,  // measure 9
0001
0000
0100
0000
,  // measure 10
1000
0000
0001
0000
,  // measure 11
0100
0000
0010
0000
,  // measure 12
0110
0000
0000
0000
,  // measure 13
0000
0000
0000
0000
,  // measure 14
1000
0000
0000
0000
,  // measure 15
0000
0000
0000
0000
,  // measure 16
0001
0000
0100
0000
,  // measure 17
0000
0000
1000
0000
,  // measure 18
0000
0000
0010
0000
,  // measure 19
0000
0000
0001
0000
,  // measure 20
0100
0000
0100
0000
,  // measure 21
0010
0000
0010
0000
,  // measure 22
1000
0000
1000
0000
,  // measure 23
0001
0000
0001
0000
,  // measure 24
0010
0000
0010
0000
,  // measure 25
0100
0000
0100
0000
,  // measure 26
1000
0000
0001
0000
,  // measure 27
0100
0000
0010
0010
,  // measure 28
0000
1000
0000
0010
,  // measure 29
0000
1001
0000
0100
,  // measure 30
0000
0001
0000
0100
,  // measure 31
0000
1001
0000
0010
,  // measure 32
0000
0001
0000
1000
,  // measure 33
0000
1001
0000
0010
,  // measure 34
0000
1000
0000
0100
,  // measure 35
0000
0110
0110
0110
,  // measure 36
0000
0001
0000
1000
,  // measure 37
0000
0000
1001
1001
,  // measure 38
0000
0010
0000
1000
,  // measure 39
0000
0000
0110
0110
,  // measure 40
0000
1000
0000
0100
,  // measure 41
0000
0000
1001
1001
,  // measure 42
0000
0010
0000
0001
,  // measure 43
0000
0000
1001
0000
,  // measure 44
0000
0000
0000
0000
,  // measure 45
0000
0000
0010
0000
,  // measure 46
0000
0000
0001
0000
,  // measure 47
0000
0000
1000
0000
,  // measure 48
0000
0000
0100
0000
,  // measure 49
0000
0000
0100
0000
,  // measure 50
0000
0000
0100
0000
,  // measure 51
0000
0000
0100
0000
,  // measure 52
0000
0000
0010
0000
,  // measure 53
0000
0000
0001
0000
,  // measure 54
0000
0000
1000
0000
,  // measure 55
0000
0000
0010
0000
,  // measure 56
0010
0000
0100
0000
,  // measure 57
0100
0000
0001
0000
,  // measure 58
0001
0000
1000
0000
,  // measure 59
1000
0000
0100
0000
,  // measure 60
0100
0000
0010
0000
,  // measure 61
0010
0000
0001
0000
,  // measure 62
0001
0000
1000
0000
,  // measure 63
1000
0000
0010
0000
,  // measure 64
0100
0000
0010
0000
,  // measure 65
0100
0000
0010
0000
,  // measure 66
0100
0000
0010
0010
,  // measure 67
0000
0010
0000
1000
,  // measure 68
0000
1000
0000
0100
,  // measure 69
0000
0100
0000
0001
,  // measure 70
0000
0100
0000
1000
,  // measure 71
0000
0001
0000
0100
,  // measure 72
0000
0010
0000
0100
,  // measure 73
0000
0001
0000
1000
,  // measure 74
0000
0010
0000
1001
,  // measure 75
0000
0010
0000
0001
,  // measure 76
0000
0010
0000
1000
,  // measure 77
0000
0010
0000
0100
,  // measure 78
0000
0001
0000
1000
,  // measure 79
0000
1001
0000
0010
,  // measure 80
0000
1001
0000
0100
,  // measure 81
0000
0010
0000
0100
,  // measure 82
0000
0100
0000
0000
;
