#VERSION:0.81;
#TITLE:Ring A Bell;
#SUBTITLE:;
#ARTIST:Late Night Alumni;
#TITLETRANSLIT:;
#SUBTITLETRANSLIT:;
#ARTISTTRANSLIT:;
#GENRE:The Beat Becomes A Sound;
#ORIGIN:;
#CREDIT:;
#BANNER:Ring A Bell-bn.png;
#BACKGROUND:Ring A Bell-bg.png;
#PREVIEWVID:;
#JACKET:;
#CDIMAGE:;
#DISCIMAGE:;
#LYRICSPATH:;
#CDTITLE:m.png;
#MUSIC:Ring A Bell.mp3;
#OFFSET:-0.031000;
#SAMPLESTART:57.347012;
#SAMPLELENGTH:16.660007;
#SELECTABLE:YES;
#BPMS:0.000=120.000;
#STOPS:114.000=0.500;
#DELAYS:;
#WARPS:;
#TIMESIGNATURES:0.000=4=4,
112.000=3=4,
115.000=4=4;
#TICKCOUNTS:0.000=4;
#COMBOS:0.000=1;
#SPEEDS:0.000=1.000=0.000=0;
#SCROLLS:0.000=1.000;
#FAKES:;
#LABELS:0.000=Song Start;
#LASTSECONDHINT:116.377701;
#BGCHANGES:;
#KEYSOUNDS:;
#ATTACKS:
;

//---------------dance-single - ----------------
#NOTEDATA:;
#CHARTNAME:;
#STEPSTYPE:dance-single;
#DESCRIPTION:;
#CHARTSTYLE:;
#DIFFICULTY:Hard;
#METER:8;
#RADARVALUES:0.534422,0.531041,0.083301,0.658831,0.196892,396.000000,11.000000,87.000000,0.000000,0.000000,0.000000,0.000000,0.000000,0.534422,0.531041,0.083301,0.658831,0.196892,396.000000,11.000000,87.000000,0.000000,0.000000,0.000000,0.000000,0.000000;
#CREDIT:;
#NOTES:
0000
0000
0000
0000
0000
0000
0000
2000
,
0010
0000
0001
0000
0100
0000
3001
0020
,
0100
0000
1000
0000
0100
0000
0031
0200
,
1000
0000
0010
0000
0001
0000
1300
0002
,
0010
0000
1000
0000
0100
0000
1003
0001
,
0100
0000
0000
0100
0010
0000
0000
0000
1000
0000
0000
1000
0100
0000
1000
0000
,
0001
0000
0000
0001
0100
0000
0000
0000
0010
0000
0000
0010
0100
0000
0010
0000
,
1000
0000
0000
1000
0001
0000
0000
0000
0010
0000
0000
0010
0001
0000
0100
0000
,
0001
0000
0000
0001
1000
0000
0000
0000
0010
0000
0000
0010
0100
0000
0001
0000
,
1000
0000
0000
0100
0010
0000
0000
0000
0001
0000
0000
0100
0010
0000
1000
0000
,
0010
0000
0000
0100
0001
0000
0000
0000
0010
0000
0000
0100
1000
0000
0010
0000
,
1000
0000
0000
0100
1000
0000
0000
0000
0010
0000
0000
1000
0001
0000
0010
0000
,
0100
0000
0000
0010
0001
0000
0000
0000
1000
0000
0000
0010
0100
0000
0001
0000
,
0002
0000
1000
0200
0000
0300
2003
0010
,
0020
0000
0000
0000
3000
0001
0000
1030
,
0200
0000
0000
0000
0010
0000
1000
0000
0000
1000
0300
0000
0020
0000
0000
0000
,
0001
0100
1030
0020
,
0031
0100
0010
1000
0000
1010
0000
0001
,
0100
0010
1000
0100
0000
1100
0000
0100
,
0010
0001
0100
0010
0000
1010
0000
0001
,
0100
0010
1000
0100
0000
0110
0000
0010
,
0001
0100
0010
1000
0000
1001
0000
1000
,
0100
0010
0001
0100
0000
0110
0000
0010
,
1000
0100
0010
0001
0000
1001
0000
0001
,
0100
0010
1000
0100
0000
1001
0000
0001
,
0100
0000
0001
0000
0010
0000
0100
0000
1000
0100
0000
2000
0000
0000
3010
0000
,
0100
0000
0001
0000
0010
0000
0100
0000
0010
0001
0000
0020
0000
0000
0031
0000
,
0100
0000
0010
0000
1000
0000
0001
0000
1000
0100
0000
0020
0000
0000
0031
0000
,
1000
0010
0100
0001
0100
0000
0010
1000
,
0100
1000
0000
0010
0000
0000
1000
0000
0100
0000
0010
0000
0001
0000
0100
0000
,
0001
0010
0000
0001
0000
0000
0100
0000
0001
0000
0010
0000
0100
0000
2000
0000
,
0020
3000
2000
0030
0200
0000
3000
0000
1000
0000
1300
0000
0000
0000
0020
0000
,
0200
0030
0002
0300
0020
0000
0003
0000
0001
0000
0031
0000
1000
0000
0001
0000
,
0100
0001
0000
0100
0000
0000
0010
0000
1000
0000
0100
0000
0010
0000
0100
0000
,
1000
0100
0000
1000
0000
0000
0010
0000
0100
0000
0001
0000
0010
0000
0002
0000
,
2000
0003
0020
3000
0200
0000
0030
0000
0010
0000
0310
0000
0000
0000
2000
0000
,
0020
3000
2000
3030
2020
0000
0030
0002
0000
0003
3200
0000
1300
0000
0100
0000
,
0010
0001
0000
0010
0000
0000
0001
0000
1000
0000
0010
0000
0100
0000
0001
0000
,
0010
0100
0000
0010
0000
0000
0001
0000
1000
0000
0010
0000
0100
0000
0002
0000
,
0020
0003
0002
0030
0200
0000
0003
0000
0010
0000
0310
0000
0000
0000
2000
0000
,
0020
3000
2000
0030
0200
0000
3000
0000
0010
0000
0310
0000
1000
0000
0010
0000
,
1000
0001
0000
0100
0000
0000
0001
0000
0010
0000
0001
0000
0010
0000
0100
0000
,
1000
0100
0000
1000
0000
0000
0100
0000
0010
0000
0001
0000
1000
0000
0020
0000
,
0200
0030
0002
0300
0020
0000
0003
0000
0100
0000
0130
0000
0000
0000
0020
0000
,
0002
0030
0020
0033
0022
0000
0030
2000
0000
3000
0200
0000
0000
0000
0000
0000
,
0000
0000
0303
0001
0100
0020
1000
0000
,
0100
0000
0001
0000
0130
0020
1000
0000
,
0100
0000
0001
0000
0130
0001
1000
0020
,
2000
0030
0020
3000
2000
0000
0030
0000
0100
0000
3100
0000
0000
0000
0020
0000
,
0002
0030
0020
0003
0002
0000
0030
0000
0100
0000
0203
0000
0010
0000
0000
0000
,
1000
0000
0001
0000
0310
2000
0100
0000
,
0010
0000
0001
0000
3100
0010
0001
0200
,
0002
0300
0200
0003
0002
0000
0300
0000
0100
0000
0103
0000
0000
0000
0001
0000
,
0001
0000
1000
0010
0000
1000
0010
0000
1000
0000
0100
0000
0010
0000
0001
0000
,
0100
0001
0000
0010
0000
0000
0001
0000
0100
0000
0010
0000
1000
0000
0100
0000
,
1000
0010
0000
1000
0000
0000
0100
0000
1000
0000
0010
0000
0100
0000
0002
0000
,
0020
0003
0002
0030
0200
0000
0003
0000
0001
0000
0301
0000
0000
0000
0020
0000
,
0200
0030
2000
0300
0020
0000
3000
0000
1000
0000
1030
0000
0001
0000
1000
0000
,
0100
1000
0000
0100
0000
0000
0010
0000
0001
0000
0100
0000
0010
0000
0100
0000
,
0001
0100
0000
0001
0000
0000
0010
0000
0100
0000
1000
0000
0010
0000
2000
0000
,
0002
3000
0020
0003
0200
0000
0030
0000
0010
0000
0310
0000
0000
0000
0002
0000
,
0020
0003
0002
0033
0022
0000
0030
2000
0000
3000
0200
0000
0000
0000
0000
0000
,
0000
0000
0000
0000
,
0000
0000
0000
0303
;

//---------------dance-single - ----------------
#NOTEDATA:;
#CHARTNAME:;
#STEPSTYPE:dance-single;
#DESCRIPTION:;
#CHARTSTYLE:;
#DIFFICULTY:Challenge;
#METER:9;
#RADARVALUES:0.571204,0.579317,0.181747,0.265047,0.299125,469.000000,24.000000,35.000000,0.000000,0.000000,0.000000,0.000000,0.000000,0.571204,0.579317,0.181747,0.265047,0.299125,469.000000,24.000000,35.000000,0.000000,0.000000,0.000000,0.000000,0.000000;
#CREDIT:;
#NOTES:
0000
0000
0000
0000
0000
0000
0000
0002
,
0010
0000
1000
0000
0100
0000
1003
0020
,
0001
0000
1000
0000
0100
0000
0031
0200
,
1000
0000
0010
0000
0001
0000
1300
2000
,
0001
0000
0010
0000
0100
0000
3001
0010
,
1000
0000
0000
0100
0010
0000
0000
0000
1000
0000
0000
0100
0001
0000
1000
0000
,
0010
0000
0000
1000
0001
0000
0000
0000
0100
0000
0000
1000
0010
0000
1000
0000
,
0001
0000
0000
0001
0010
0000
0000
0000
0100
0000
0000
1000
0100
0000
0010
0000
,
0001
0000
0000
0100
1000
0000
0000
0000
0010
0000
0000
0001
0100
0000
1000
0000
,
0100
0000
0000
1000
0010
0000
0000
0000
0001
0000
0000
1000
0010
0000
0100
0000
,
0100
0000
0000
0010
0001
0000
0000
0000
0010
0000
0000
0100
1000
0000
0010
0000
,
0010
0000
0000
1000
0001
0000
0000
0000
0010
0000
0000
0001
1000
0000
0010
0000
,
0100
0000
0000
1000
0010
0000
0000
0000
0010
0000
0000
1000
0100
0000
0001
0000
,
2000
0000
0010
0200
0000
0300
3002
0100
,
0020
0000
0000
0000
0003
0100
0000
0130
,
0200
0000
0000
0000
0001
0000
0010
0000
0000
1000
0300
0000
0020
0000
0000
0000
,
0001
0100
0031
2000
,
3010
0100
0001
0011
0000
0101
0000
1001
,
1000
1000
0001
0101
0000
0110
0000
1010
,
1000
0100
0100
0110
0000
1100
0000
1001
,
0100
1000
0010
0110
0000
1010
0000
0110
,
0001
1000
0010
0101
0000
1001
0000
1100
,
0001
0010
0100
0110
0000
0101
0000
1001
,
1000
0001
1000
1100
0000
0011
0000
1010
,
1000
1000
0100
0110
0000
0101
0000
0010
,
0100
0000
1000
0000
0010
0000
0100
0000
0001
0010
0000
0100
1000
0000
0010
0000
,
0100
0000
0001
0000
1000
0000
0100
0000
0010
0001
0000
1000
0010
0000
0100
0000
,
0001
0000
1000
0000
0100
0000
0010
0000
0100
1000
0000
0001
0100
0000
0010
0000
,
1000
0000
0100
0000
0010
0000
0001
0000
0100
0000
0000
0000
0001
0000
0010
0001
,
0010
0000
0100
0000
1000
0000
0100
1000
0100
0000
0010
0000
0001
0000
0010
0001
,
0010
0000
0100
0000
1000
0000
0100
1000
0100
0000
0010
0000
0001
0000
1000
0010
,
1000
0000
0100
0000
0100
0000
0010
0001
0010
0000
0001
0000
0001
0000
1000
0010
,
1000
0000
0100
0000
0100
0000
0010
0001
0010
0000
0001
0000
0100
0000
0010
1000
,
0010
0000
0100
0000
0001
0000
0100
0001
0100
0000
0010
0000
1000
0000
0010
1000
,
0010
0000
0100
0000
0001
0000
0100
0001
0100
0000
0010
0000
1000
0000
0100
1000
,
0001
0000
0100
0000
0010
0000
0100
0001
0010
0000
0100
0000
0010
0000
0100
1000
,
0010
0000
0100
0000
0010
0000
0100
0001
0010
0000
0100
0000
1000
0000
0100
1000
,
0100
0000
0010
0000
0001
0000
0010
0001
0010
0000
0100
0000
1000
0000
0100
1000
,
0100
0000
0010
0000
0001
0000
0010
0001
0010
0000
0100
0000
1000
0000
0001
0100
,
0001
0000
0010
0000
0010
0000
0100
1000
0100
0000
1000
0000
1000
0000
0001
0100
,
0001
0000
0010
0000
0010
0000
0100
1000
0100
0000
1000
0000
0010
0000
0100
0001
,
0100
0000
0010
0000
1000
0000
0010
1000
0010
0000
0100
0000
0001
0000
0100
0001
,
0100
0000
0010
0000
1000
0000
0010
1000
0010
0000
0100
0000
0001
0000
0010
0001
,
1000
0000
0010
0000
0100
0000
0010
1000
0100
0000
0010
0000
0100
0000
0010
0001
,
0100
0000
0010
0000
0100
0000
0010
1000
0100
0000
0020
0000
0000
0000
0000
0000
,
0000
0000
0000
0031
0100
0020
1000
0000
,
0100
0000
0001
0000
0130
0020
1000
0000
,
0100
0000
0001
0000
0130
0001
1000
0020
,
2000
0030
0020
3000
2000
0000
0030
0000
0100
0000
3100
0000
0000
0000
0020
0000
,
0002
0030
0020
0003
0002
0000
0030
0000
0100
0000
0203
0000
0010
0000
0000
0000
,
1000
0000
0001
0000
0310
2000
0100
0000
,
0010
0000
0001
0000
3100
0010
0001
0200
,
0002
0300
0200
0003
0002
0000
0300
0000
0100
0000
0103
0000
0000
0000
0001
0000
,
0001
0000
1000
0010
0000
0001
0010
0000
0100
0000
1001
0000
0100
0000
0020
0000
,
1030
0000
0001
0010
0100
1000
0100
0010
0001
0000
1000
0000
0010
0000
0200
0000
,
0301
0000
1000
0010
0100
0001
0100
0010
1000
0000
0001
0000
0010
0000
0200
0000
,
1300
0000
0001
1000
0010
0100
0001
1000
0010
0000
0100
0000
0001
0000
0010
0000
,
0100
0000
1000
0001
0000
1000
0100
0000
0010
0000
0001
0000
0010
0000
0200
0000
,
1300
0000
0010
1000
0100
1000
0010
1000
0100
0000
0010
0000
0001
0000
0200
0000
,
0301
0000
0010
0001
0100
0001
0010
0001
0100
0000
0010
0000
1000
0000
0002
0000
,
0103
0000
0010
0100
0001
0100
0010
0100
0001
0000
0100
0000
0010
0000
1000
0000
,
0100
0000
1000
0010
0000
1000
0100
0000
0010
0000
0200
0000
0000
0000
0000
0000
,
0000
0000
0000
0000
,
0000
0000
0000
0300
;

//---------------dance-single - ----------------
#NOTEDATA:;
#CHARTNAME:;
#STEPSTYPE:dance-single;
#DESCRIPTION:;
#CHARTSTYLE:;
#DIFFICULTY:Medium;
#METER:6;
#RADARVALUES:0.301829,0.289659,0.015146,0.045437,0.000000,271.000000,2.000000,6.000000,0.000000,0.000000,0.000000,0.000000,0.000000,0.301829,0.289659,0.015146,0.045437,0.000000,271.000000,2.000000,6.000000,0.000000,0.000000,0.000000,0.000000,0.000000;
#CREDIT:;
#NOTES:
0000
0000
0000
0000
0000
0000
0000
2000
,
0000
0000
0000
0000
0000
0000
0000
3200
,
0000
0000
0000
0000
0000
0000
0000
0320
,
0000
0000
0000
0000
0000
0000
0000
0032
,
0000
0000
0000
0000
,
1003
0000
0010
0000
0001
0000
0010
1000
,
0100
0000
0010
0000
0100
0000
0010
0001
,
0100
0000
0010
0000
0100
0000
0010
1000
,
0001
0000
0010
0000
0001
0000
0010
0001
,
1000
0000
0100
0000
0010
0000
0100
1000
,
0001
0000
0100
0000
0010
0000
0100
0001
,
0010
0000
0100
0000
1000
0000
0010
0100
,
0001
0010
0100
1000
,
0010
0000
0100
0010
0100
0000
0001
0000
,
0010
0000
0100
0000
0000
1000
0000
0001
,
0000
0100
0010
1000
,
0100
0010
0001
1000
,
0010
0000
0000
0010
0000
1000
0000
0001
,
0100
0000
0000
0010
0000
0100
0000
0001
,
0010
0000
0000
0100
0000
1000
0000
0010
,
0100
0000
0000
0010
0000
1000
0000
0100
,
0010
0000
0000
0001
0000
1000
0000
0010
,
0100
0000
0000
0001
0000
1000
0000
0100
,
0010
0000
0000
0001
0000
1000
0000
0010
,
0100
0000
0000
0010
0000
1000
0000
0100
,
0010
0000
0000
0001
0000
1000
0000
0010
,
1000
0000
0000
0001
0000
0010
0000
0001
,
1000
0000
0000
0010
0000
1000
0000
0100
,
0010
0000
0000
0001
0000
0000
1000
0000
,
0100
0010
0100
0000
1000
0000
0010
0000
,
1000
0100
1000
0000
0010
0000
1000
0000
,
0001
1000
0010
0000
0100
0001
1000
0000
,
0010
0100
0001
0000
1000
0010
0100
0000
,
0001
1000
0010
0000
1000
0000
0100
0000
,
0010
0001
1000
0000
0100
0000
0010
0000
,
0100
1000
0010
0000
0100
0001
0010
0000
,
0100
1000
0010
0000
1000
0000
0100
0000
,
0010
0001
0100
0000
0010
0000
1000
0000
,
0001
0010
0100
0000
1000
0000
0010
0000
,
1000
0100
0010
0000
0001
1000
0100
0000
,
0010
0001
1000
0000
0100
0010
0001
0000
,
1000
0010
0100
0000
0001
0000
0010
0000
,
0100
1000
0010
0000
0100
0000
0001
0000
,
0010
0100
1000
0000
0010
0100
0001
0000
,
0010
0100
1000
0000
0001
0000
0200
0000
,
0000
0000
0000
0301
,
0010
1000
0010
0001
,
0100
1000
0100
0001
,
1000
0001
0100
0000
0001
1000
0001
0000
,
1000
0001
0100
0000
0001
1000
0001
0000
,
0010
0100
1000
0010
,
0100
0001
0010
0100
,
1000
0001
1000
0000
0100
1000
0001
0000
,
1000
0100
1000
0000
0110
0000
0001
0000
,
1000
0010
0001
0000
0010
0000
1000
0000
,
0001
0010
1000
0000
0010
0000
0001
0000
,
1000
0100
0001
0000
0100
0000
1000
0000
,
0001
0100
1000
0000
0100
0000
0010
0000
,
1000
0010
1000
0000
0100
0000
0010
0000
,
0001
0010
0001
0000
0100
0000
0010
0000
,
1000
0001
0100
0000
0001
0000
0010
0000
,
0100
1000
0110
0002
,
0000
0000
0000
0000
,
0000
0000
0000
0003
;

//---------------dance-single - ----------------
#NOTEDATA:;
#CHARTNAME:;
#STEPSTYPE:dance-single;
#DESCRIPTION:;
#CHARTSTYLE:;
#DIFFICULTY:Easy;
#METER:4;
#RADARVALUES:0.243411,0.186290,0.000000,0.007573,0.000000,224.000000,0.000000,1.000000,0.000000,0.000000,0.000000,0.000000,0.000000,0.243411,0.186290,0.000000,0.007573,0.000000,224.000000,0.000000,1.000000,0.000000,0.000000,0.000000,0.000000,0.000000;
#CREDIT:;
#NOTES:
// measure 0
0000
0000
0000
0000
,  // measure 1
1000
1000
1000
1000
,  // measure 2
0100
0100
0100
0100
,  // measure 3
0010
0010
0010
0010
,  // measure 4
0001
0001
0001
0001
,  // measure 5
1000
0100
0001
0001
,  // measure 6
0001
0100
1000
1000
,  // measure 7
1000
0100
0001
0001
,  // measure 8
0001
0100
1000
1000
,  // measure 9
1000
0010
0001
0001
,  // measure 10
0001
0010
1000
1000
,  // measure 11
0010
0001
0010
0010
,  // measure 12
0100
1000
0100
0100
,  // measure 13
1000
1000
1000
1000
,  // measure 14
1000
1000
1000
0100
,  // measure 15
0001
0001
0001
0001
,  // measure 16
0001
0001
0001
0100
,  // measure 17
1000
1000
1000
0100
,  // measure 18
0001
0001
0001
0010
,  // measure 19
1000
1000
1000
0010
,  // measure 20
0001
0001
0001
0010
,  // measure 21
1000
1000
1000
0010
,  // measure 22
0001
0001
0001
0100
,  // measure 23
1000
1000
0100
0100
,  // measure 24
0001
0001
0100
0100
,  // measure 25
1000
1000
1000
1000
,  // measure 26
1000
1000
1000
0100
,  // measure 27
0001
0001
0001
0001
,  // measure 28
0001
0001
0001
0001
,  // measure 29
0100
1000
0100
0001
,  // measure 30
0100
1000
0100
0001
,  // measure 31
0001
0100
0100
1000
,  // measure 32
1000
0100
0100
0001
,  // measure 33
0010
1000
0010
0001
,  // measure 34
0010
1000
0010
0001
,  // measure 35
0001
0010
0010
1000
,  // measure 36
1000
0010
0010
0001
,  // measure 37
0010
1000
0100
1000
,  // measure 38
0010
0001
0100
0001
,  // measure 39
0010
1000
0100
1000
,  // measure 40
0010
0001
0100
0010
,  // measure 41
0100
0001
1000
0010
,  // measure 42
0100
0001
1000
0010
,  // measure 43
0100
0001
1000
0010
,  // measure 44
0100
0001
1000
0020
,  // measure 45
0000
0000
0000
1030
,  // measure 46
0000
0100
0000
0001
,  // measure 47
0000
0001
0000
0010
,  // measure 48
0000
0100
0000
1000
,  // measure 49
0000
1000
0000
0010
,  // measure 50
0000
0100
0000
0001
,  // measure 51
0000
1000
0000
0010
,  // measure 52
0000
0100
0000
0001
,  // measure 53
0000
0010
0000
0010
,  // measure 54
0100
1000
1000
0010
,  // measure 55
0100
0001
0001
0010
,  // measure 56
0100
1000
1000
1000
,  // measure 57
1000
0001
0001
0100
,  // measure 58
0010
1000
1000
0100
,  // measure 59
0010
0001
0001
0100
,  // measure 60
0010
0100
0100
0100
,  // measure 61
0100
0010
0010
0000
;

//---------------dance-single - ----------------
#NOTEDATA:;
#CHARTNAME:;
#STEPSTYPE:dance-single;
#DESCRIPTION:;
#CHARTSTYLE:;
#DIFFICULTY:Beginner;
#METER:1;
#RADARVALUES:0.125492,0.115958,0.000000,0.000000,0.000000,116.000000,0.000000,0.000000,0.000000,0.000000,0.000000,0.000000,0.000000,0.125492,0.115958,0.000000,0.000000,0.000000,116.000000,0.000000,0.000000,0.000000,0.000000,0.000000,0.000000,0.000000;
#CREDIT:;
#NOTES:
// measure 0
0000
0000
0000
0000
,  // measure 1
0000
0000
0000
0000
,  // measure 2
0000
0000
0000
0000
,  // measure 3
0000
0000
0000
0000
,  // measure 4
0000
0000
0000
0000
,  // measure 5
0010
0000
1000
0000
,  // measure 6
0100
0000
0010
0000
,  // measure 7
0001
0000
0001
0000
,  // measure 8
1000
0000
0010
0000
,  // measure 9
0100
0000
0001
0000
,  // measure 10
0010
0000
0100
0000
,  // measure 11
1000
0000
0100
0000
,  // measure 12
0010
0000
0001
0000
,  // measure 13
1000
0000
1000
0000
,  // measure 14
1000
0000
1000
0000
,  // measure 15
0001
0000
0001
0000
,  // measure 16
0001
0000
0001
0000
,  // measure 17
0100
0000
1000
0000
,  // measure 18
0100
0000
0001
0000
,  // measure 19
0100
0000
1000
0000
,  // measure 20
0010
0000
0001
0000
,  // measure 21
0010
0000
1000
0000
,  // measure 22
0010
0000
0001
0000
,  // measure 23
1000
0000
0100
0000
,  // measure 24
0010
0000
0001
0000
,  // measure 25
1000
0000
0001
0000
,  // measure 26
0100
0000
0010
0000
,  // measure 27
0100
0000
0001
0000
,  // measure 28
0010
0000
0100
0100
,  // measure 29
0000
0000
0000
1000
,  // measure 30
0000
0000
0000
0001
,  // measure 31
0001
0001
0000
1000
,  // measure 32
1000
1000
0000
0010
,  // measure 33
0000
0000
0000
0100
,  // measure 34
0000
0000
0000
0010
,  // measure 35
0010
0010
0000
0100
,  // measure 36
0100
0100
0000
0001
,  // measure 37
0000
0000
0000
0010
,  // measure 38
0000
0000
0000
0100
,  // measure 39
0100
0100
0000
0100
,  // measure 40
0100
0100
0000
1000
,  // measure 41
0000
0000
0000
0010
,  // measure 42
0000
0000
0000
0100
,  // measure 43
0100
0100
0000
0010
,  // measure 44
0010
0010
0000
0000
,  // measure 45
0000
0000
0000
1000
,  // measure 46
0000
1000
0000
0001
,  // measure 47
0000
0001
0000
0100
,  // measure 48
0000
0100
0000
0010
,  // measure 49
0000
0010
0000
0100
,  // measure 50
0000
0100
0000
0001
,  // measure 51
0000
0001
0000
1000
,  // measure 52
0000
1000
0000
0100
,  // measure 53
0000
0100
0000
0010
,  // measure 54
0000
0001
0000
1000
,  // measure 55
1000
1000
0000
0010
,  // measure 56
0000
1000
0000
0001
,  // measure 57
0001
0001
0000
0100
,  // measure 58
0000
0010
0000
1000
,  // measure 59
1000
1000
0000
0100
,  // measure 60
0000
0010
0000
0001
,  // measure 61
0001
0001
0000
0000
;
