#TITLE:Retro City;
#SUBTITLE:;
#ARTIST:Adventure Club;
#TITLETRANSLIT:;
#SUBTITLETRANSLIT:;
#ARTISTTRANSLIT:;
#GENRE:Retro City;
#CREDIT:;
#BANNER:Retro City-bn.png;
#BACKGROUND:Retro City-bg.png;
#LYRICSPATH:;
#CDTITLE:;
#MUSIC:Retro City.mp3;
#OFFSET:-0.045750;
#SAMPLESTART:15.443277;
#SAMPLELENGTH:13.708019;
#LASTBEATHINT:245.398468;
#SELECTABLE:YES;
#BPMS:0.000000=140.063995
,136.000000=136.320007
,140.000000=132.000000
,144.000000=125.500000
,148.000000=123.000000
,152.000000=121.500008
,156.000000=118.000000
,157.000000=117.000000
,158.000000=116.000000
,159.000000=115.000000
,160.000000=114.000000
,161.000000=113.000000
,162.000000=112.000000
,163.000000=111.000000
,164.000000=109.934998
;
#STOPS:
;
#BGCHANGES:34.000=Retro City-bg2.png=1.000=1=0=1===CrossFade==,
68.000=Retro City-bg3.png=1.000=1=0=1===CrossFade==,
100.000=Retro City-bg4.png=1.000=1=0=1===CrossFade==,
132.000=Retro City-bg5.png=1.000=1=0=1===CrossFade==,
163.500=Retro City-bg6.png=1.000=1=0=1===CrossFade==,
194.000=Retro City-bg.png=1.000=1=0=1===CrossFade==,
196.000=Retro City-bg2.png=1.000=1=0=1===CrossFade==,
198.000=Retro City-bg3.png=1.000=1=0=1===CrossFade==,
200.000=Retro City-bg4.png=1.000=1=0=1===CrossFade==,
202.000=Retro City-bg5.png=1.000=1=0=1===CrossFade==,
204.000=Retro City-bg6.png=1.000=1=0=1===CrossFade==,
206.000=Retro City-bg.png=1.000=1=0=1===CrossFade==,
208.000=Retro City-bg2.png=1.000=1=0=1===CrossFade==,
210.000=Retro City-bg3.png=1.000=1=0=1===CrossFade==,
212.000=Retro City-bg4.png=1.000=1=0=1===CrossFade==,
214.000=Retro City-bg5.png=1.000=1=0=1===CrossFade==,
216.000=Retro City-bg6.png=1.000=1=0=1===CrossFade==,
218.000=Retro City-bg.png=1.000=1=0=1===CrossFade==,
220.000=Retro City-bg2.png=1.000=1=0=1===CrossFade==,
222.000=Retro City-bg3.png=1.000=1=0=1===CrossFade==,
224.000=Retro City-bg4.png=1.000=1=0=1===CrossFade==,
226.000=Retro City-bg5.png=1.000=1=0=1===CrossFade==,
228.000=Retro City-bg6.png=1.000=1=0=1===CrossFade==,
256.000=Retro City-bg.png=1.000=1=0=1===CrossFade==,
259.000=Retro City-bg2.png=1.000=1=0=1===CrossFade=#808080=,
99999=-nosongbg-=1.000=0=0=0 // don't automatically add -songbackground-
;
#KEYSOUNDS:;
#ATTACKS:;

//---------------dance-single - ----------------
#NOTES:
     dance-single:
     :
     Challenge:
     11:
     0.758868,0.797945,0.219133,0.158682,1.000000,653.000000,29.000000,21.000000,0.000000,10.000000,0.000000,0.758868,0.797945,0.219133,0.158682,1.000000,653.000000,29.000000,21.000000,0.000000,10.000000,0.000000:
// measure 0
0000
0000
0000
0000
,  // measure 1
0010
0000
1000
0100
0000
0100
1000
0100
0010
0001
0000
0001
0100
0000
0010
0000
,  // measure 2
1000
0000
0010
0100
0000
0100
0001
0000
0010
0100
0010
0100
1000
0000
0001
0000
,  // measure 3
0100
0000
0010
1000
0000
1000
0001
0010
0100
1000
0000
1000
0010
0000
0100
0000
,  // measure 4
0001
0000
0010
0100
1000
0000
1000
0000
0010
0100
0001
1000
0010
0100
0001
1000
,  // measure 5
0100
0000
0010
0001
0000
0001
0010
0100
1000
0100
0000
1000
0010
0000
0100
0000
,  // measure 6
0001
0000
0100
0010
0000
0010
1000
0000
0100
0010
0100
0010
0001
0000
1000
0000
,  // measure 7
0010
0000
0100
0001
0000
0001
1000
0100
0010
0001
0000
0001
0100
0000
0010
0000
,  // measure 8
1000
0000
0100
0010
0001
0000
0001
0000
0100
0010
1000
0001
0100
0010
1000
0001
,  // measure 9
0010
0000
0000
0011
0000
0000
1100
0000
0001
0010
0001
0100
0010
0000
1000
0000
,  // measure 10
1000
0000
0010
0100
0000
0100
0001
0000
0010
0100
0010
0100
1000
0001
0000
0001
,  // measure 11
0100
0000
0010
1000
0000
1000
0001
0010
0100
1000
0000
1000
0010
0000
0100
0000
,  // measure 12
0001
0000
0010
0100
1000
0000
1000
0000
0010
0100
0001
1000
0010
0100
0001
1000
,  // measure 13
0100
0000
0000
1100
0000
0000
0011
0000
1000
0100
1000
0010
0100
0000
0001
0000
,  // measure 14
0001
0000
0100
0010
0000
0010
1000
0000
0100
0010
0100
0010
0001
1000
0000
1000
,  // measure 15
0010
0000
0100
0001
0000
0001
1000
0100
0010
0001
0000
0001
0100
0000
0010
0000
,  // measure 16
1000
0000
0100
0010
0001
0000
0001
0000
0100
0010
1000
0001
0100
0010
1000
0001
,  // measure 17
0200
0000
1010
0000
,  // measure 18
1000
0000
0011
0000
,  // measure 19
0010
0000
1001
0000
,  // measure 20
0010
0000
0301
1000
,  // measure 21
0001
0010
0001
0010
0001
0010
0001
0010
0100
1000
0100
1000
0100
1000
0100
1000
,  // measure 22
0010
1000
0010
1000
0010
1000
0010
1000
0001
0100
0001
0100
0001
0100
0001
0100
,  // measure 23
0010
1000
0010
1000
0010
1000
0010
1000
0100
0010
0100
0010
0100
0010
0100
0010
,  // measure 24
0001
1000
0001
1000
0001
1000
0001
1000
0010
0100
0010
0100
0010
0100
0010
0100
,  // measure 25
0010
0000
0000
1001
0000
0000
0110
0000
2002
0000
0000
0020
0000
3033
0000
0000
,  // measure 26
1000
0100
0010
0100
0000
0100
1000
0000
0010
0100
0001
0010
0000
0100
0010
0000
,  // measure 27
0001
0100
0000
0010
1000
0000
0100
0000
2020
0000
0000
3030
0202
0000
0000
0303
,  // measure 28
1000
0001
1000
0001
0100
0000
0001
1000
0010
0100
0001
0010
0100
1000
0010
0100
,  // measure 29
0002
0000
0000
0000
0000
0000
0000
0000
0013
0100
1000
0020
0000
0000
0030
0000
,  // measure 30
0000
0100
0001
0010
0100
0000
1000
0010
1000
0100
0001
0100
0000
0010
0001
0000
,  // measure 31
0100
0000
0010
1000
0000
1000
0100
0000
0022
0000
0000
0033
2200
0000
0000
3300
,  // measure 32
0001
1000
0001
1000
0001
1000
0010
1000
0001
1000
0001
1000
0100
1000
0001
1000
,  // measure 33
0002
0000
1010
0000
,  // measure 34
0100
0000
0110
0000
,  // measure 35
1000
0000
1100
0000
,  // measure 36
0010
0000
1010
0000
,  // measure 37
0100
0000
1100
0000
,  // measure 38
0010
0000
1010
0000
,  // measure 39
0013
0000
0100
1000
0010
0000
0100
0001
0010
0000
0100
1000
0010
0000
0100
0001
,  // measure 40
0010
0000
0100
1000
0010
0000
0100
0001
0010
0000
0100
1000
0010
0000
0100
0001
,  // measure 41
0010
0000
0010
0001
0000
0001
1000
0001
0100
0000
0010
1000
0100
1000
0100
0010
,  // measure 42
0001
0000
0001
1000
0000
1000
0010
0100
0001
0000
0001
0010
0100
0010
0001
1000
,  // measure 43
0100
0000
1000
0010
0000
0010
1000
0010
0100
0000
0100
0001
0010
0100
1000
0010
,  // measure 44
0100
0000
0010
1000
0000
1000
0001
1000
0010
0000
0010
0100
0001
0010
0100
0010
,  // measure 45
0001
0100
0001
0100
0001
0100
0001
0100
0010
1000
0010
1000
0010
1000
0010
1000
,  // measure 46
0001
0100
0001
0100
0001
0100
0001
0100
0010
1000
0010
1000
0010
1000
0010
1000
,  // measure 47
0001
0100
0001
0100
1000
0100
0010
0100
0001
0100
0001
0100
1000
0100
0010
0100
,  // measure 48
0001
0100
0010
0100
1000
0100
0010
0100
0001
0100
0010
0100
1000
0100
0010
0100
,  // measure 49
0002
0000
0000
0000
0013
0100
1000
0010
0000
0010
0000
0010
0100
0001
0010
0100
,  // measure 50
0000
0001
0010
1000
0000
0001
0010
0100
1000
0010
0100
0001
1000
0000
0001
0000
,  // measure 51
0201
0000
0000
0000
0301
0010
0100
1000
0000
1000
0000
1000
0010
0100
0001
0010
,  // measure 52
0000
0001
0100
1000
0000
0100
0001
0010
0100
1000
0010
0100
0001
0000
0011
0000
,  // measure 53
1200
0000
0000
0000
0310
0001
0100
0010
0000
0010
0000
1000
0001
1000
0010
0001
,  // measure 54
0000
1000
0100
0010
0000
1000
0010
0001
0010
0100
0001
0010
0100
0000
0100
0000
,  // measure 55
1002
0000
0000
0000
0103
0010
1000
0100
0000
0010
0000
0001
1000
0010
0100
1000
,  // measure 56
0000
0100
0010
1000
0000
0010
0100
0001
0010
0100
0010
0001
0100
0010
0100
0001
,  // measure 57
0010
0000
0001
0000
0001
1000
0000
1000
0010
0000
0010
0000
0100
0000
0001
0000
,  // measure 58
0010
0000
0010
0000
0100
1000
0000
1000
0010
0000
0010
1000
0100
0010
0000
0010
,  // measure 59
0001
0000
0100
0000
0010
0100
0000
0100
0001
0000
0010
0000
0010
0000
0100
0000
,  // measure 60
1000
0000
0010
1000
0001
0000
0001
0000
0010
0001
1000
0000
0010
1000
0001
0000
,  // measure 61
0001
0000
0010
0000
0010
1000
0000
1000
0100
0000
0100
0000
0001
0000
0001
0000
,  // measure 62
0100
0000
0100
0000
1000
0010
0000
0001
0010
0000
0100
0000
0100
0001
0000
0100
,  // measure 63
1000
0000
0100
0000
0010
1000
0000
1000
0100
0000
0001
0000
0100
0000
1000
0000
,  // measure 64
1010
0101
0011
1100
,  // measure 65
2002
0000
0000
0000
,  // measure 66
3003
0000
0000
0000
;

//---------------dance-single - ----------------
#NOTES:
     dance-single:
     :
     Hard:
     9:
     0.507351,0.673266,0.105788,0.181351,0.457156,432.000000,14.000000,24.000000,0.000000,0.000000,0.000000,0.507351,0.673266,0.105788,0.181351,0.457156,432.000000,14.000000,24.000000,0.000000,0.000000,0.000000:
// measure 0
0000
0000
0000
0000
,  // measure 1
0020
0000
0100
0001
,  // measure 2
0230
0000
1000
0000
0010
0000
0310
0100
,  // measure 3
2000
0000
0010
0100
,  // measure 4
3020
0000
0001
0000
0130
0000
0010
1000
,  // measure 5
0200
0000
0010
1000
,  // measure 6
0320
0000
0001
0000
0100
0000
0130
0010
,  // measure 7
0002
0000
0100
0010
,  // measure 8
0203
0000
1000
0000
0310
0000
0100
0001
,  // measure 9
0010
0000
0000
0010
0000
0000
0010
0000
1100
0000
0100
0000
0100
0000
0010
0000
,  // measure 10
0001
0000
1000
0001
0000
1000
0001
0000
0100
0001
0000
0100
0001
0000
0010
0000
,  // measure 11
0100
0000
0000
1000
0000
0000
0010
0000
0100
0000
0001
0000
0010
0000
0100
0000
,  // measure 12
1000
0000
0010
1000
0010
0000
0100
0000
0001
1000
0001
0000
0100
0000
0100
0000
,  // measure 13
0010
0000
0000
0010
0000
0000
0010
0000
0101
0000
0100
0000
0100
0000
0010
0000
,  // measure 14
1000
0000
0001
1000
0000
0001
1000
0000
0100
1000
0000
0100
1000
0000
0010
0000
,  // measure 15
0100
0000
0000
0001
0000
0000
0010
0000
0100
0000
1000
0000
0010
0000
0100
0000
,  // measure 16
0001
0000
0010
0001
0010
0000
0100
0000
1000
0001
1000
0000
0100
0000
0100
0000
,  // measure 17
0020
0000
1000
0000
,  // measure 18
0001
0000
0100
0130
,  // measure 19
2000
0000
0010
0000
,  // measure 20
0100
0000
0001
0010
,  // measure 21
3002
0000
0010
0000
,  // measure 22
0100
0000
1000
0100
,  // measure 23
0023
0000
1000
0000
,  // measure 24
0001
0000
0100
0100
,  // measure 25
0130
0000
0000
0100
0000
0000
0100
0000
1001
0000
0000
0020
0000
0000
0030
0000
,  // measure 26
1000
0100
0000
1000
0100
0000
0010
0000
0001
0010
0000
0001
0010
0000
0001
0000
,  // measure 27
0100
0000
0010
0100
0000
0010
0100
0000
0002
0000
0000
0000
2003
0000
0000
0000
,  // measure 28
3010
0000
1000
0010
1000
0000
0100
0000
0010
0100
0010
0000
0001
0000
1000
0000
,  // measure 29
0002
0000
0000
0000
0000
0000
0000
0000
0103
0010
1000
0020
0000
0000
0000
0000
,  // measure 30
1030
0001
0000
1000
0001
0000
0100
0000
0010
0100
0000
0010
0100
0000
0001
0000
,  // measure 31
0010
0000
0100
1000
0000
0100
1000
0000
0010
0000
0000
0000
0100
0000
0000
0000
,  // measure 32
0001
1000
0001
1000
0001
1000
0001
1000
0001
1000
0001
1000
0001
1000
0001
1000
,  // measure 33
0002
0000
0010
0000
,  // measure 34
1000
0000
0100
0000
,  // measure 35
0023
0000
1000
0000
,  // measure 36
0100
0000
0001
0000
,  // measure 37
2030
0000
0100
0000
,  // measure 38
0001
0000
0010
0000
,  // measure 39
3200
0000
0001
0000
,  // measure 40
0010
0000
1000
0000
,  // measure 41
0301
0000
0010
0100
0000
0010
0100
0000
1000
0000
0010
0100
0000
0010
0100
0000
,  // measure 42
0001
0000
0010
0100
0000
0010
0100
0000
1000
0000
0010
0100
0000
0010
0100
0000
,  // measure 43
0001
0000
0100
0001
0000
0100
0001
0000
1000
0000
0010
1000
0000
0010
1000
0000
,  // measure 44
0100
0000
1000
0100
0000
1000
0100
0000
0010
0000
0001
0010
0000
0001
0010
0000
,  // measure 45
0001
0001
1000
1000
0010
0010
0100
0100
,  // measure 46
0001
0001
0010
0010
0100
0100
1000
1000
,  // measure 47
0001
1000
0001
1000
0001
1000
0001
1000
0001
1000
0001
1000
0001
1000
0001
1000
,  // measure 48
0001
1000
0001
1000
0001
1000
0001
1000
0001
1000
0001
1000
0001
1000
0001
1000
,  // measure 49
0002
0000
0000
0000
0013
0100
1000
0100
0000
0100
0000
0010
0001
0000
1000
0010
,  // measure 50
0000
0000
1000
0001
0000
0000
1000
0100
1000
0000
0000
0000
1100
0000
0000
0000
,  // measure 51
0110
0000
0000
0000
0001
0100
0010
0100
0000
0010
0000
1000
0010
0000
0100
0001
,  // measure 52
0000
0000
1000
0001
0000
0000
0010
0001
0010
0000
0000
0000
0011
0000
0000
0000
,  // measure 53
0110
0000
0000
0000
0100
0010
1000
0010
0000
0010
0000
0100
0001
0000
1000
0100
,  // measure 54
0000
0000
1000
0001
0000
0000
1000
0010
1000
0000
0000
0000
1010
0000
0000
0000
,  // measure 55
0110
0000
0000
0000
0001
0010
0100
0010
0000
0100
0000
1000
0100
0000
0010
0001
,  // measure 56
0000
0000
1000
0001
0000
0000
0100
0001
0100
0000
0000
0010
1000
0000
0001
0000
,  // measure 57
0100
0000
0010
0000
1000
0010
0000
1000
0010
0000
0001
0000
0010
0000
0100
0000
,  // measure 58
1000
0000
0100
0000
0010
1000
0000
0010
0001
0000
1000
0010
1000
0010
0000
0100
,  // measure 59
0001
0000
0010
0000
0100
1000
0000
0100
1000
0000
0010
0000
0100
0000
0001
0000
,  // measure 60
1000
0000
0100
0010
0100
0000
1000
0000
0010
0100
0010
0000
1000
0000
0001
0000
,  // measure 61
0010
0000
0100
0000
1000
0010
0000
1000
0010
0000
0100
0000
0100
0000
0001
0000
,  // measure 62
1000
0000
0010
0000
0100
0001
0000
0100
0001
0000
0010
0100
0010
0000
0100
0000
,  // measure 63
1000
0000
0010
0000
1000
0001
0000
1000
0001
0000
0100
0000
0100
0000
0010
0000
,  // measure 64
1010
0011
0101
1100
,  // measure 65
2002
0000
0000
0000
,  // measure 66
3003
0000
0000
0000
;

//---------------dance-single - ----------------
#NOTES:
     dance-single:
     :
     Medium:
     6:
     0.308729,0.374037,0.083119,0.151126,0.037781,255.000000,11.000000,20.000000,0.000000,0.000000,0.000000,0.308729,0.374037,0.083119,0.151126,0.037781,255.000000,11.000000,20.000000,0.000000,0.000000,0.000000:
// measure 0
0000
0000
0000
0000
,  // measure 1
0020
0000
1000
0000
,  // measure 2
0001
0000
0130
1000
,  // measure 3
0020
0000
0001
0000
,  // measure 4
1000
0000
0130
0001
,  // measure 5
0020
0000
0100
0000
,  // measure 6
1000
0000
0031
0100
,  // measure 7
0020
0000
0100
0000
,  // measure 8
0001
0000
1030
0100
,  // measure 9
0010
0000
0000
0001
0000
0000
1000
0000
0100
0000
0000
0000
0010
0000
0000
0000
,  // measure 10
0001
0000
0000
0100
0000
0000
0010
0000
1000
0000
0000
0000
0010
0000
0000
0000
,  // measure 11
0100
0000
0000
0001
0000
0000
0010
0000
0100
0000
0000
0000
1000
0000
0000
0000
,  // measure 12
0010
0000
0000
0100
0000
0000
0001
0000
0010
0000
0000
0000
0100
0000
0000
0000
,  // measure 13
1000
0000
0000
0001
0000
0000
1000
0000
0100
0000
0000
0000
0010
0000
0000
0000
,  // measure 14
0001
0000
0000
0100
0000
0000
0010
0000
1000
0000
0000
0000
0001
0000
0000
0000
,  // measure 15
0010
0000
0000
0100
0000
0000
1000
0000
0010
0000
0000
0000
0100
0000
0000
0000
,  // measure 16
0001
0000
0000
0010
0000
0000
0100
0000
1000
0000
0000
0000
0001
0000
0000
0000
,  // measure 17
0200
0000
1000
0000
,  // measure 18
0001
0000
0010
0000
,  // measure 19
0302
0000
1000
0000
,  // measure 20
0010
0000
1000
0000
,  // measure 21
0023
0000
1000
0000
,  // measure 22
0001
0000
0100
0000
,  // measure 23
2030
0000
0001
0000
,  // measure 24
0010
0000
3001
0000
,  // measure 25
1001
0000
0000
1000
0000
0000
0001
0000
0100
0000
0000
0010
0000
0000
0000
0000
,  // measure 26
1000
0010
1000
0000
0001
0100
0001
0000
,  // measure 27
0010
0010
0110
0110
,  // measure 28
0100
0000
1000
0000
0001
1000
0100
0000
,  // measure 29
0020
0000
0031
0100
,  // measure 30
0010
1000
0100
0100
,  // measure 31
0010
0010
0001
1000
,  // measure 32
0001
1000
0010
0000
0100
0001
1000
0000
,  // measure 33
2002
0000
0000
0003
,  // measure 34
0200
0000
0000
3000
,  // measure 35
0020
0000
0000
0300
,  // measure 36
0002
0000
0000
0030
,  // measure 37
0200
0000
0000
0003
,  // measure 38
0020
0000
0000
0300
,  // measure 39
2000
0000
0000
0030
,  // measure 40
0002
0000
0000
3003
,  // measure 41
1001
0010
0001
0010
,  // measure 42
1000
0000
0010
0000
0001
0010
1000
0010
,  // measure 43
0001
0010
1000
0010
,  // measure 44
0001
0000
0010
0000
1000
0010
0001
0010
,  // measure 45
1000
0000
0010
0000
0001
0010
1000
0010
,  // measure 46
0001
0000
0010
0000
1000
0010
0001
0010
,  // measure 47
1000
0000
0001
1000
0001
0000
0100
0010
,  // measure 48
0100
0100
0001
1000
0100
0100
0100
0000
,  // measure 49
0110
0000
1000
0010
0001
0001
0010
0001
,  // measure 50
0010
0000
0010
0000
1000
0100
0010
0000
,  // measure 51
0001
0000
0100
1000
0100
0100
0001
0100
,  // measure 52
0001
0000
0010
0000
0100
1000
0010
0000
,  // measure 53
1000
0000
0010
0001
0010
0010
1000
0010
,  // measure 54
0001
0000
0010
0000
0100
0001
0010
0100
,  // measure 55
1000
0000
0010
0001
0010
0100
0001
0100
,  // measure 56
0001
0000
0100
0000
0010
1000
0001
0100
,  // measure 57
0010
0000
0100
0000
0001
0100
0001
0000
,  // measure 58
0010
0000
0100
0000
1000
0100
1000
0000
,  // measure 59
0010
0000
1000
0000
0001
1000
0001
0000
,  // measure 60
0010
0100
1000
0001
,  // measure 61
0100
0000
0010
0000
1000
0001
1000
0000
,  // measure 62
0010
0000
0100
0000
0001
1000
0001
0000
,  // measure 63
0010
0000
0100
0000
1000
0010
1000
0000
,  // measure 64
1010
1100
0011
0101
,  // measure 65
2002
0000
0000
0000
,  // measure 66
3003
0000
0000
0000
;

//---------------dance-single - ----------------
#NOTES:
     dance-single:
     :
     Easy:
     4:
     0.294695,0.249358,0.052894,0.392927,0.011334,214.000000,7.000000,52.000000,0.000000,0.000000,0.000000,0.294695,0.249358,0.052894,0.392927,0.011334,214.000000,7.000000,52.000000,0.000000,0.000000,0.000000:
0000
0000
0000
0000
,
0010
0000
0020
0000
,
2030
0000
3200
0000
,
0320
0000
0032
0000
,
0203
0000
0320
0000
,
2030
0000
3002
0000
,
0023
0000
0230
0000
,
2300
0000
3020
0000
,
0230
0000
0302
0000
,
0013
0000
0000
0010
0000
0000
0010
0000
0100
0000
0000
0000
0100
0000
0000
0000
,
1000
0010
0100
0001
,
1000
0001
0010
0100
,
1000
0010
0100
0001
,
0010
0000
0000
0010
0000
0000
0010
0000
0100
0000
0000
0000
1000
0000
0000
0000
,
0001
0100
0010
1000
,
0001
0010
0100
1000
,
0001
0100
0001
0100
,
0020
0000
2030
0000
,
3200
0000
0320
0000
,
0032
0000
2003
0000
,
3020
0000
0230
0000
,
0302
0000
0023
0000
,
0230
0000
2300
0000
,
3020
0000
0230
0000
,
0302
0000
1003
0000
,
0010
0000
0000
0010
0000
0000
0010
0000
0100
0000
0000
0000
0100
0000
0000
0000
,
0001
0010
1000
0010
,
0100
0100
0220
0330
,
0001
0010
0100
1000
,
2002
3003
0010
0010
,
0100
0100
0001
1000
,
0100
0100
0010
0010
,
0001
0010
0100
1000
,
0200
0000
0320
0000
,
0032
0000
2003
0000
,
3020
0000
0230
0000
,
0302
0000
0023
0000
,
0230
0000
2300
0000
,
3020
0000
0230
0000
,
0302
0000
0023
0000
,
0230
0000
2300
0000
,
3001
1000
0001
1000
,
0010
1000
0100
1000
,
0001
1000
0001
0100
,
0001
0010
0001
0100
,
0010
0100
0001
0100
,
0010
1000
0001
1000
,
0010
0100
0001
0010
,
0100
1000
0010
0100
,
1001
0100
0100
0100
,
0001
0000
0001
0000
0010
0010
0010
0000
,
0110
0100
0100
0100
,
1000
0000
1000
0000
0010
0010
0010
0000
,
0110
0100
0100
0100
,
0010
0000
0010
0000
1000
1000
1000
0000
,
1001
0100
0100
0100
,
0010
0000
0010
0000
0001
0001
0001
0000
,
1000
0100
1000
0100
,
0010
0001
0100
0001
,
0010
0001
0010
0001
,
0100
0001
0010
0100
,
1000
0010
1000
0100
,
1000
0100
0010
0001
,
0100
0001
0100
0001
,
0010
0010
0010
0010
,
2002
0000
0000
0000
,
3003
0000
0000
0000
;

//---------------dance-single - ----------------
#NOTES:
     dance-single:
     :
     Beginner:
     1:
     0.119821,0.171906,0.000000,0.000000,0.000000,111.000000,0.000000,0.000000,0.000000,0.000000,0.000000,0.119821,0.171906,0.000000,0.000000,0.000000,111.000000,0.000000,0.000000,0.000000,0.000000,0.000000:
0000
0000
0000
0000
,
0010
0000
0000
0000
,
0100
0000
0000
0000
,
0001
0000
0000
0000
,
0010
0000
0000
0000
,
0100
0000
0000
0000
,
1000
0000
0000
0000
,
0010
0000
0000
0000
,
0100
0000
0000
0000
,
0001
0000
0010
0000
,
0000
0000
0100
0000
,
1000
0000
0001
0000
,
0000
0000
0100
0000
,
0010
0000
1000
0000
,
0000
0000
0001
0000
,
0010
0000
0100
0000
,
0000
0000
1000
0000
,
0001
0000
0000
0000
,
0100
0000
0000
0000
,
0010
0000
0000
0000
,
1000
0000
0000
0000
,
0100
0000
0000
0000
,
0010
0000
0000
0000
,
0001
0000
0000
0000
,
1000
0000
0000
0000
,
0100
0000
0010
0000
,
0001
0000
0100
0000
,
0001
0000
0010
0000
,
0100
0000
1000
0000
,
0010
0000
0100
0000
,
0001
0000
1000
0000
,
0100
0000
0010
0000
,
0001
0000
1000
0000
,
0010
0000
0000
0000
,
0100
0000
0000
0000
,
0001
0000
0000
0000
,
0010
0000
0000
0000
,
0100
0000
0000
0000
,
1000
0000
0000
0000
,
0010
0000
0000
0000
,
0100
0000
0000
0000
,
0001
0000
0001
0000
,
1000
0000
1000
0000
,
0010
0000
0010
0000
,
0100
0000
0100
0000
,
0001
0001
0001
0000
,
1000
1000
1000
0000
,
0010
0010
0010
0010
,
0010
0010
0010
0010
,
0010
0000
0010
0000
,
0100
0000
0100
0000
,
0001
0000
0001
0000
,
1000
0000
1000
0000
,
0010
0000
0100
0000
,
0001
0000
1000
0000
,
0001
0000
0010
0000
,
0100
0000
1000
0000
,
0010
0010
0010
0000
,
0100
0000
0100
0000
,
0001
0001
0001
0000
,
1000
0000
1000
0000
,
0100
0100
0100
0000
,
0010
0000
0010
0000
,
0001
0001
0001
0000
,
1000
0000
0010
0000
,
0100
0000
0000
0000
;
