#TITLE:Reminder;
#SUBTITLE:;
#ARTIST:Moderat;
#TITLETRANSLIT:;
#SUBTITLETRANSLIT:;
#ARTISTTRANSLIT:;
#GENRE:III;
#CREDIT:;
#BANNER:Reminder-bn.png;
#BACKGROUND:Black.png;
#LYRICSPATH:;
#CDTITLE:;
#MUSIC:Reminder.mp3;
#OFFSET:-0.016000;
#SAMPLESTART:59.990887;
#SAMPLELENGTH:18.000000;
#LASTBEATHINT:440.007874;
#SELECTABLE:YES;
#BPMS:0.000000=160.000000
;
#STOPS:63.000000=-3.000000,
103.000000=-3.000000,
143.000000=-3.000000,
183.000000=-3.000000,
215.000000=-3.000000,
247.000000=-3.000000,
279.000000=-3.000000,
311.000000=-3.000000,
367.000000=-3.000000,
399.000000=-3.000000
;
#BGCHANGES:-0.500=Reminder-video.avi=1.000=0=0=1=====,
99999=-nosongbg-=1.000=0=0=0 // don't automatically add -songbackground-
;
#KEYSOUNDS:;
#ATTACKS:;

//---------------dance-single - ----------------
#NOTES:
     dance-single:
     :
     Hard:
     9:
     0.576350,0.749171,0.347672,0.115891,0.521509,557.000000,509.000000,48.000000,16.000000,0.000000,0.000000,0.576350,0.749171,0.347672,0.115891,0.521509,557.000000,509.000000,48.000000,16.000000,0.000000,0.000000:
// measure 0
0000
0000
0000
0000
,  // measure 1
0000
0000
0000
0000
,  // measure 2
0000
0000
0000
0000
,  // measure 3
0000
0000
0000
0000
,  // measure 4
0000
0000
0000
0000
,  // measure 5
0000
0000
0000
0000
,  // measure 6
0000
0000
0000
0000
,  // measure 7
0000
0000
0000
0000
,  // measure 8
0001
0000
0100
0001
0000
0000
1000
0000
0000
0010
0000
0000
0110
0000
0000
0000
,  // measure 9
0010
0000
1000
0100
0000
0000
1000
0000
0001
0000
0000
0000
0101
0000
0000
0000
,  // measure 10
0001
0000
1000
0100
0000
0000
0001
0000
0000
1000
0000
0000
0101
0000
0000
0000
,  // measure 11
0100
0000
0001
1000
0000
0000
0100
0000
1000
0000
0000
0000
0101
0000
0000
0000
,  // measure 12
1000
0000
0010
0100
0000
0000
0010
0000
0000
1000
0000
0000
0110
0000
0000
0000
,  // measure 13
0010
0000
1000
0001
0000
0000
0010
0000
0100
0000
0000
0000
0110
0000
0000
0000
,  // measure 14
1000
0000
0100
0001
0000
0000
0100
0000
1000
0000
0001
0000
0101
0000
0000
0000
,  // measure 15
1100
1010
0011
0200
,  // measure 16
030M
0000
0000
00M0
0000
0000
0M00
0000
0000
M000
0000
0000
0M0M
0000
0000
0000
,  // measure 17
0M00
0000
0000
000M
0000
0000
M000
0000
0000
0000
0000
0000
0200
0000
0000
0000
,  // measure 18
0301
0000
0000
0010
0000
0000
0100
0000
0000
1000
0000
0000
0101
0000
0000
0000
,  // measure 19
0100
0000
0000
0001
0000
0000
1000
0000
0010
0000
0000
0000
0110
0000
0000
0000
,  // measure 20
0010
0000
0000
1000
0000
0000
0001
0000
0000
0010
0000
0000
0100
0000
0000
0000
,  // measure 21
0010
0000
0000
0001
0000
0000
1000
0000
0010
0000
0000
0000
0101
0000
0000
0000
,  // measure 22
1000
0000
0000
0001
0000
0000
0100
0000
0000
0001
0000
0000
1000
0000
0000
0000
,  // measure 23
0001
0000
0000
0010
0000
0000
0001
0000
1000
0000
0000
0000
1100
0000
0000
0000
,  // measure 24
0100
0000
0000
0010
0000
0000
0001
0000
1000
0000
0010
0000
0110
0000
0000
0000
,  // measure 25
1010
1001
0101
0020
,  // measure 26
0M30
0000
M000
000M
0000
M000
0M00
0000
0000
000M
0000
0000
0M00
0000
0000
0000
,  // measure 27
0M00
0000
000M
M000
0000
000M
0M00
0000
0000
0000
0000
0000
0020
0000
0000
0000
,  // measure 28
0130
0000
1000
0001
0000
1000
0100
0000
0000
0001
0000
0000
0100
0000
0000
0000
,  // measure 29
0100
0000
0001
1000
0000
0001
0100
0000
0010
0000
0000
0000
0100
0000
0000
0000
,  // measure 30
0010
0000
1000
0001
0000
1000
0010
0000
0000
0100
0000
0000
0001
0000
0000
0000
,  // measure 31
0010
0000
0001
0100
0000
1000
0100
0000
0010
0000
0000
0000
0100
0000
0000
0000
,  // measure 32
0010
0000
1000
0100
0000
1000
0100
0000
0000
0010
0000
0000
0110
0000
0000
0000
,  // measure 33
0010
0000
0001
0100
0000
0001
0100
0000
0010
0000
0000
0000
0110
0000
0000
0000
,  // measure 34
1000
0000
0010
0100
0000
0001
1000
0000
0010
0000
0100
0000
0101
0000
0000
0000
,  // measure 35
1100
0110
1001
0200
,  // measure 36
030M
0000
00M0
M000
0000
00M0
000M
0000
0000
M000
0000
0000
0M0M
0000
0000
0000
,  // measure 37
0M00
0000
M000
0M00
0000
000M
0M00
0000
0000
0000
0000
0000
0200
0000
0000
0000
,  // measure 38
0301
0000
0010
1000
0000
0010
0001
0000
0000
1000
0000
0000
0101
0000
0000
0000
,  // measure 39
0100
0000
1000
0100
0000
0001
0100
0000
0010
0000
0000
0000
1001
0000
0000
0000
,  // measure 40
0010
0000
1000
0100
0000
0001
0100
0000
0000
0010
0000
0000
1001
0000
0000
0000
,  // measure 41
0010
0000
0001
0100
0000
0010
0100
0000
0001
0000
0000
0000
1001
0000
0000
0000
,  // measure 42
1000
0000
0100
0010
0000
0100
1000
0000
0000
0001
0000
0000
1100
0000
0000
0000
,  // measure 43
0010
0000
0100
0001
0000
1000
0100
0000
0010
0000
0000
0000
0101
0000
0000
0000
,  // measure 44
0001
0000
0001
1000
0000
1000
0100
0000
0010
0000
0001
0000
0011
0000
0000
0000
,  // measure 45
1100
1010
0101
0020
,  // measure 46
0M30
0000
M000
000M
M000
0000
0M00
0000
0000
0000
00M0
0000
000M
0000
M000
0000
,  // measure 47
0M00
0000
0000
00M0
0M00
0000
00M0
0000
0000
0000
0000
0000
0020
0000
0000
0000
,  // measure 48
0130
0000
1000
0001
1000
0000
0100
0000
0000
0000
0010
0000
0001
0000
1000
0000
,  // measure 49
0100
0000
0000
0010
0100
0000
0010
0000
0000
0000
0001
0000
1000
0000
0000
0000
,  // measure 50
0001
0000
0000
0100
0010
0000
1000
0000
0000
0000
0001
0000
1000
0000
0000
0000
,  // measure 51
0100
0000
0000
1000
0001
0000
0100
0000
0000
0000
0001
0000
1000
0000
0000
0000
,  // measure 52
0010
0000
0000
0010
1000
0000
0000
1000
0001
0000
0000
0001
0100
0000
0000
0100
,  // measure 53
0001
0000
0000
0001
1000
0000
0000
1000
0100
0000
0000
0000
0010
0000
0000
0000
,  // measure 54
000M
0000
M000
0M00
00M0
0000
0M00
0000
0000
0000
M000
0000
000M
0000
M000
0000
,  // measure 55
0M00
0000
00M0
000M
0M00
0000
000M
0000
0000
0000
0000
0000
0000
0000
0000
0000
,  // measure 56
0001
0000
1000
0100
0010
0000
0100
0000
0000
0000
1000
0000
0001
0000
1000
0000
,  // measure 57
0100
0000
0010
0001
0100
0000
0001
0000
0000
0000
1000
0000
0001
0000
0100
0000
,  // measure 58
0000
0100
0010
0000
0000
0010
1000
0000
0000
1000
0001
0000
0000
0001
0010
0000
,  // measure 59
0000
0010
0100
0000
0000
0100
2000
0000
0000
0000
3001
0000
1000
0000
0100
0000
,  // measure 60
0010
0000
0001
0100
0010
0000
0100
0000
0000
0000
0001
0000
1000
0000
0001
0000
,  // measure 61
0100
0110
1001
0101
,  // measure 62
00M0
0000
0000
00M0
M000
0000
000M
0000
0000
0000
00M0
0000
0M00
0000
M000
0000
,  // measure 63
000M
0000
0000
0M00
00M0
0000
M000
0000
0000
0000
0000
0000
0101
0000
0000
0000
,  // measure 64
0010
0000
0000
0010
1000
0000
0001
0000
0000
0000
0010
0000
0100
0000
1000
0000
,  // measure 65
0001
0000
0000
0100
0010
0000
1000
0000
0000
0000
0001
0000
0100
0000
0001
0000
,  // measure 66
0000
0001
0010
0000
0000
0010
0100
0000
0000
0100
1000
0000
0000
1000
0010
0000
,  // measure 67
0000
0010
0100
0000
0000
0100
0002
0000
0000
0000
1003
0000
0001
0000
1000
0000
,  // measure 68
0100
0000
0000
0010
0001
0000
1000
0000
0000
0000
0010
0000
1000
0000
0010
0000
,  // measure 69
0100
0000
0000
0001
0100
0000
0001
0000
0000
0000
0100
0000
1001
0000
0000
0000
,  // measure 70
00M0
0000
0000
M000
000M
0000
00M0
0000
0000
0000
0M00
0000
M000
0000
000M
0000
,  // measure 71
0M00
0000
0000
0M00
000M
0000
M000
0000
0000
0000
0000
0000
1001
0000
0000
0000
,  // measure 72
0010
0000
0000
1000
0001
0000
0010
0000
0000
0000
0100
0000
1000
0000
0001
0000
,  // measure 73
0100
0000
0000
0100
0001
0000
1000
0000
0000
0000
0001
0000
0010
0000
0100
0000
,  // measure 74
0000
0100
1000
0000
0000
1000
0010
0000
0000
0010
0001
0000
0000
0001
1000
0000
,  // measure 75
0000
1000
0001
0000
0000
0001
0200
0000
0000
0000
1300
0000
0100
0000
0001
0000
,  // measure 76
0010
0000
0000
0010
0001
0000
0000
0001
1000
0000
0000
1000
0100
0000
0000
0100
,  // measure 77
0010
0000
0000
0010
0001
0000
0000
0001
1000
0000
0000
0000
0202
0000
0000
0000
,  // measure 78
0000
0000
0303
0000
000M
0M00
000M
0M00
,  // measure 79
M000
0M00
000M
0M00
0000
0000
0202
0000
,  // measure 80
0000
0000
0303
0000
0001
0100
0001
0100
,  // measure 81
1000
0100
0001
0100
1000
0100
0001
0100
,  // measure 82
1000
0100
1000
0100
0001
0100
0001
0100
,  // measure 83
1000
0100
0001
0100
1000
0100
0001
0100
,  // measure 84
1000
0100
1000
0100
0001
0100
0001
0100
,  // measure 85
0001
0010
1000
0010
0001
0010
1000
0010
,  // measure 86
0001
0010
0001
0010
1000
0010
1000
0010
,  // measure 87
0001
0010
1000
0010
0001
0010
2002
0000
,  // measure 88
0000
0000
0000
0003
,  // measure 89
0002
0000
0000
0003
,  // measure 90
0002
0000
0000
0003
,  // measure 91
0002
0000
0000
0000
0000
0000
0000
3003
,  // measure 92
M00M
0000
0000
0000
0000
0000
000M
0000
M000
0000
0000
0000
000M
000M
000M
000M
000M
000M
000M
000M
M00M
0000
0000
0000
000M
0000
0000
0000
M000
0000
0000
0000
,  // measure 93
0M00
0000
0000
00M0
000M
0000
M000
0000
0000
0000
0000
0000
0000
0000
0000
0000
,  // measure 94
1001
0000
0000
0001
1000
0000
0002
0000
0000
0000
1003
0000
0001
0000
1000
0000
,  // measure 95
0100
0000
0000
0010
0001
0000
1000
0000
0000
0000
0010
0000
0100
0000
0001
0000
,  // measure 96
1000
0000
0010
1000
0001
0000
0100
0000
0000
0000
0010
0000
1000
0000
0001
0000
,  // measure 97
0010
0000
0100
1000
0001
0000
0100
0000
0000
0000
0100
0000
1001
0000
0000
0000
,  // measure 98
0100
0000
0001
0100
0010
0000
1000
0000
0000
0000
0100
0000
1001
0000
0000
0000
,  // measure 99
0010
0000
0001
1000
0010
0000
0100
0000
0000
0000
0001
0000
0101
0000
0000
0000
,  // measure 100
M000
0000
00M0
0M00
000M
0000
00M0
0000
0000
0000
0M00
0000
M00M
0000
0000
0000
,  // measure 101
0M00
0000
M000
000M
0M00
0000
00M0
0000
0000
0000
0000
0000
0101
0000
0000
0000
,  // measure 102
1000
0000
0010
0100
0001
0000
0010
0000
0000
0000
0100
0000
1001
0000
0000
0000
,  // measure 103
0100
0000
1000
0001
0100
0000
0010
0000
0000
0000
1000
0000
1001
0000
0000
0000
,  // measure 104
0010
0000
1000
0010
0100
0000
0001
0000
0000
0000
1000
0000
0101
0000
0000
0000
,  // measure 105
0100
0000
0001
0010
0100
0000
0001
0000
0000
0000
0010
0000
1100
0000
0000
0000
,  // measure 106
0100
0000
0000
0100
1000
0000
0000
1000
0001
0000
0000
0001
0100
0000
0000
0100
,  // measure 107
0010
0000
0000
0010
1000
0000
0000
1000
0002
0000
0000
0000
0000
0000
0000
0000
,  // measure 108
0000
0000
0000
0000
0000
0000
0000
1003
;

//---------------dance-single - ----------------
#NOTES:
     dance-single:
     :
     Medium:
     7:
     0.385958,0.552020,0.296970,0.260754,0.608427,373.000000,332.000000,41.000000,36.000000,0.000000,0.000000,0.385958,0.552020,0.296970,0.260754,0.608427,373.000000,332.000000,41.000000,36.000000,0.000000,0.000000:
0000
0000
0000
0000
,
0000
0000
0000
0000
,
0000
0000
0000
0000
,
0000
0000
0000
0000
,
0000
0000
0000
0000
,
0000
0000
0000
0000
,
0000
0000
0000
0000
,
0000
0000
0000
0000
,
0001
0000
0000
0100
0000
0000
1000
0000
0000
0010
0000
0000
0100
0000
0000
0000
,
0010
0000
0000
1000
0000
0000
0100
0000
0010
0000
0000
0000
0001
0000
0000
0000
,
1000
0000
0000
0100
0000
0000
0001
0000
0000
0100
0000
0000
1000
0000
0000
0000
,
0100
0000
0000
0010
0000
0000
0001
0000
1000
0000
0000
0000
0001
0000
0000
0000
,
1000
0000
0000
0010
0000
0000
0100
0000
0000
0010
0000
0000
1000
0000
0000
0000
,
0010
0000
0000
1000
0000
0000
0001
0000
0100
0000
0000
0000
0010
0000
0000
0000
,
1000
0000
0000
0100
0000
0000
0001
0000
0000
0000
0000
0000
1001
0000
0000
0000
,
0110
1001
0110
0002
,
M003
0000
0000
00M0
0000
0000
0M00
0000
0000
000M
0000
0000
M000
0000
0000
0000
,
0M00
0000
0000
M000
0000
0000
000M
0000
0000
0000
0000
0000
0002
0000
0000
0000
,
1003
0000
0000
0010
0000
0000
0100
0000
0000
0001
0000
0000
1000
0000
0000
0000
,
0100
0000
0000
1000
0000
0000
0001
0000
0010
0000
0000
0000
0100
0000
0000
0000
,
0010
0000
0000
0001
0000
0000
1000
0000
0000
0010
0000
0000
0100
0000
0000
0000
,
0010
0000
0000
1000
0000
0000
0001
0000
0010
0000
0000
0000
0100
0000
0000
0000
,
0010
0000
0000
0001
0000
0000
1000
0000
0000
0100
0000
0000
0010
0000
0000
0000
,
0001
0000
0000
0100
0000
0000
0010
0000
1000
0000
0000
0000
1001
0000
0000
0000
,
0100
0000
0000
0010
0000
0000
1000
0000
0000
0000
0000
0000
0110
0000
0000
0000
,
1001
0110
1001
0020
,
0M30
0000
0000
000M
0000
0000
0M00
0000
0000
000M
0000
0000
M000
0000
0000
0000
,
00M0
0000
0000
M000
0000
0000
000M
0000
0000
0000
0000
0000
0020
0000
0000
0000
,
0130
0000
0000
0001
0000
0000
0100
0000
0000
0001
0000
0000
1000
0000
0000
0000
,
0010
0000
0000
1000
0000
0000
0001
0000
0010
0000
0000
0000
0100
0000
0000
0000
,
0010
0000
0000
0001
0000
0000
1000
0000
0000
0001
0000
0000
0010
0000
0000
0000
,
0001
0000
0000
0100
0000
0000
0010
0000
1000
0000
0000
0000
0001
0000
0000
0000
,
0010
0000
0000
1000
0000
0000
0100
0000
0000
1000
0000
0000
0100
0000
0000
0000
,
0010
0000
0000
0001
0000
0000
0100
0000
0001
0000
0000
0000
0100
0000
0000
0000
,
0010
0000
0000
1000
0000
0000
0001
0000
0000
0000
0000
0000
0101
0000
0000
0000
,
1100
0101
1100
0020
,
003M
0000
0000
M000
0000
0000
000M
0000
0000
M000
0000
0000
0M0M
0000
0000
0000
,
000M
0000
0000
00M0
0000
0000
0M00
0000
0000
0000
0000
0000
0020
0000
0000
0000
,
0031
0000
0000
1000
0000
0000
0001
0000
0000
1000
0000
0000
0101
0000
0000
0000
,
0001
0000
0000
0010
0000
0000
0100
0000
1000
0000
0000
0000
1001
0000
0000
0000
,
0010
0000
0000
1000
0000
0000
0100
0000
0000
0001
0000
0000
1001
0000
0000
0000
,
0010
0000
0000
0001
0000
0000
0100
0000
0010
0000
0000
0000
1001
0000
0000
0000
,
1000
0000
0000
0100
0000
0000
0010
0000
0000
0100
0000
0000
1100
0000
0000
0000
,
0010
0000
0000
0100
0000
0000
0001
0000
1000
0000
0000
0000
0101
0000
0000
0000
,
0001
0000
0000
1000
0000
0000
0100
0000
0000
0000
0000
0000
0110
0000
0000
0000
,
1001
0110
1001
0020
,
0M30
0000
0000
0000
0000
0000
0000
0000
0000
0000
0000
0000
0000
0000
0000
0000
0000
0000
0000
0000
0000
0000
0000
0000
000M
000M
000M
000M
000M
000M
000M
000M
000M
000M
000M
000M
000M
000M
000M
000M
M00M
0000
0000
0000
0000
0000
0000
0000
000M
0000
0000
0000
0000
0000
0000
0000
M000
M000
M000
M000
M000
M000
M000
M000
,
M000
M000
M000
M000
M000
M000
M000
M000
M000
M000
M000
M000
M000
M000
M000
M000
M000
M000
M000
M000
M000
M000
M000
M000
MM00
0000
0000
0000
0000
0000
0000
0000
0000
0000
0000
0000
0000
0000
0000
0000
0000
0000
0000
0000
0000
0000
0000
0000
0020
0000
0000
0000
0000
0000
0000
0000
0000
0000
0000
0000
0000
0000
0000
0000
,
0130
0000
0000
0002
0000
1003
0001
2000
,
0000
0000
0000
0100
0000
0000
3100
0000
,
0010
0000
0002
0100
0000
0000
0103
0000
,
0010
0000
2000
0100
0000
0000
3100
0000
,
0010
0110
0001
1001
,
0100
0110
0001
2002
,
3003
0000
0000
000M
0000
0000
000M
0000
,
00M0
00M0
00M0
00M0
00M0
00M0
00M0
00M0
00M0
00M0
00M0
00M0
00M0
00M0
00M0
00M0
00M0
00M0
00M0
00M0
00M0
00M0
00M0
00M0
M0M0
0000
0000
0000
0000
0000
0000
0000
0000
0000
0000
0000
0000
0000
0000
0000
0000
0000
0000
0000
0000
0000
0000
0000
2002
0000
0000
0000
0000
0000
0000
0000
0000
0000
0000
0000
0000
0000
0000
0000
,
3003
0000
0000
0001
0000
0000
0001
0000
,
0020
0000
0000
1000
0000
0000
1030
0000
,
0100
0000
1000
0001
0000
1000
0100
0000
,
0010
0000
0001
0100
0000
0001
1000
0000
,
0010
0000
0100
0001
0000
1000
0001
0000
,
0100
1001
0110
2002
,
3003
0000
0000
00M0
0000
0000
0MM0
0000
,
000M
000M
000M
000M
000M
000M
000M
000M
000M
000M
000M
000M
000M
000M
000M
000M
000M
000M
000M
000M
000M
000M
000M
000M
M00M
0000
0000
0000
0000
0000
0000
0000
0000
0000
0000
0000
0000
0000
0000
0000
0000
0000
0000
0000
0000
0000
0000
0000
2002
0000
0000
0000
0000
0000
0000
0000
0000
0000
0000
0000
0000
0000
0000
0000
,
3003
0000
0000
0010
0000
0000
0110
0000
,
0002
0000
0000
1000
0000
0000
1003
0000
,
0100
0000
2000
0001
0000
0000
3100
0000
,
0010
0000
0002
1000
0000
0000
0103
0000
,
0010
0000
2000
0100
0000
0000
3001
0000
,
0010
0000
0001
0100
0000
0000
2002
0000
,
3003
0000
0000
0000
0000
0000
0000
0000
0000
0000
0000
0000
0000
0000
0000
0000
000M
0000
0000
0000
0000
0000
0000
0000
0M00
0M00
0M00
0M00
0M00
0M00
0M00
0M00
0M00
0M00
0M00
0M00
0M00
0M00
0M00
0M00
0MM0
0000
0000
0000
0000
0000
0000
0000
M000
0000
0000
0000
0000
0000
0000
0000
000M
0000
0000
0000
0000
0000
0000
0000
,
0M00
0M00
0M00
0M00
0M00
0M00
0M00
0M00
0M00
0M00
0M00
0M00
0M00
0M00
0M00
0M00
0M00
0M00
0M00
0M00
0M00
0M00
0M00
0M00
0MM0
0000
0000
0000
0000
0000
0000
0000
0000
0000
0000
0000
0000
0000
0000
0000
0000
0000
0000
0000
0000
0000
0000
0000
2002
0000
0000
0000
0000
0000
0000
0000
0000
0000
0000
0000
0000
0000
0000
0000
,
3003
0000
0001
0200
0000
0310
1000
0001
,
0200
0000
0000
0010
0000
0000
0310
0000
,
1000
0000
0001
0100
0000
0010
1000
0000
,
0001
0000
1000
0100
0000
0010
0001
0000
,
1000
0101
0001
1100
,
1000
0101
0001
2200
,
0000
0300
000M
000M
,
3M00
000M
0000
2200
,
0000
0300
0001
0001
,
0100
0001
3010
1000
,
0200
0001
0010
1300
,
0002
0010
1000
0103
,
0020
1000
0100
0031
,
2000
0100
0001
3010
,
0200
0001
0010
1300
,
0002
0010
1000
0203
,
0000
0000
0000
0300
,
0200
0000
0000
0300
,
0200
0000
0000
0300
,
0200
0000
0000
0300
,
M00M
0000
0000
00M0
0000
0000
M0M0
0000
,
000M
0000
0000
M000
0000
0000
0000
0000
,
1001
0000
0000
0010
0000
0000
1010
0000
,
0001
0000
0000
1000
0000
0000
1001
0000
,
0100
0000
0001
1000
0000
0001
0100
0000
,
0010
0000
1000
0100
0000
0010
0001
0000
,
0100
0000
0010
1000
0000
0001
0010
0000
,
0100
0000
1000
0001
0000
1000
0200
0000
,
03M0
0000
000M
M000
0000
000M
0M00
0000
,
00M0
0000
M000
0M00
0000
0000
0200
0000
,
0310
0000
0001
1000
0000
0001
0100
0000
,
0010
0000
1000
0100
0000
0010
0001
0000
,
0100
0000
0001
1000
0000
0001
0010
0000
,
0100
0000
1000
0010
0000
0100
0001
0000
,
0010
0110
1000
1001
,
0100
0002
2000
0000
,
0000
0000
0000
0000
0000
0000
0000
3003
;

//---------------dance-single - ----------------
#NOTES:
     dance-single:
     :
     Easy:
     5:
     0.306283,0.512590,0.282484,0.137620,0.000000,296.000000,257.000000,39.000000,19.000000,0.000000,0.000000,0.306283,0.512590,0.282484,0.137620,0.000000,296.000000,257.000000,39.000000,19.000000,0.000000,0.000000:
0000
0000
0000
0000
,
0000
0000
0000
0000
,
0000
0000
0000
0000
,
0000
0000
0000
0000
,
0000
0000
0000
0000
,
0000
0000
0000
0000
,
0000
0000
0000
0000
,
0000
0000
0000
0000
,
0001
0000
0000
0010
0000
0000
0100
0000
,
1000
0010
0100
0100
,
0001
0000
0000
1000
0000
0000
0100
0000
,
0010
0001
0100
0100
,
0010
0000
0000
1000
0000
0000
0001
0000
,
0010
0100
0100
1000
,
0001
0000
0000
0100
0000
0000
1001
0000
,
1001
1001
1001
1001
,
M000
000M
M000
M000
,
000M
M000
0000
1001
,
1000
0001
1000
1000
,
0001
1000
0001
0100
,
0010
0100
0010
0010
,
0100
0010
0100
0100
,
0010
1000
0100
0100
,
0010
0001
0100
0100
,
0010
0100
0010
1001
,
1001
1001
1001
1001
,
00M0
M000
00M0
000M
,
00M0
M000
0000
1001
,
0010
1000
0010
0001
,
0010
1000
0100
0100
,
0010
0001
0010
0010
,
0100
1000
0100
0100
,
0010
0001
0100
0100
,
0010
1000
0100
0100
,
0010
0100
0010
1001
,
1001
1001
1001
1001
,
00M0
000M
0M00
M000
,
0M00
000M
0000
1001
,
0010
0001
0100
1000
,
0100
0001
0100
0010
,
1000
0100
0010
0001
,
1000
0001
0100
0010
,
1000
0100
0010
0001
,
1000
0001
0100
0010
,
1000
0100
0010
1001
,
1001
1001
1001
1001
,
M00M
0000
0000
00M0
0000
0000
0M00
0000
,
M000
0000
0000
0M00
0000
0000
1001
0000
,
1001
0000
0000
0010
0000
0000
0100
0000
,
1000
0000
0000
0100
0000
0000
0010
0000
,
0001
0000
0000
0010
0000
0000
0100
0000
,
1000
0000
0000
0100
0000
0000
0010
0000
,
0002
0103
2000
3100
,
0002
0103
1000
2002
,
0000
0000
3003
0M00
0000
0000
000M
0000
,
M000
0000
0000
000M
0000
0000
2002
0000
,
0000
0000
3003
0100
0000
0000
0001
0000
,
1000
0000
0000
0001
0000
0000
1000
0000
,
0010
0100
0010
0100
,
1000
0010
0001
0010
,
1000
0000
0000
0100
0000
0000
0010
0000
,
0001
1001
1001
1001
,
00M0
0000
0000
000M
0000
0000
0M00
0000
,
00M0
0000
0000
M000
0000
0000
1001
0000
,
0010
0000
0000
0001
0000
0000
0100
0000
,
0010
0000
0000
1000
0000
0000
0001
0000
,
0010
0100
1000
1000
,
0010
0001
0010
1000
,
0001
0000
0000
0100
0000
0000
0010
0000
,
1000
0000
0000
0100
0000
0000
1001
0000
,
0M00
0000
0000
00M0
0000
0000
M000
0000
,
0M00
0000
0000
00M0
0000
0000
1001
0000
,
0100
0000
0000
0010
0000
0000
1000
0000
,
0100
0000
0000
0010
0000
0000
0001
0000
,
1000
0001
1000
0100
,
0001
0100
1000
0000
,
0002
1003
0020
0031
,
2000
3100
0001
2002
,
0000
0000
0000
3003
,
00M0
0000
0000
M000
0000
0000
2002
0000
,
0000
0000
0000
3003
,
0010
0000
0000
1000
0000
0000
0001
0000
,
0200
0000
0000
0000
,
0301
0000
0000
1000
0000
0000
0001
0000
,
0020
0000
0000
0000
,
0130
0000
0000
1000
0000
0000
0001
0000
,
2000
0000
0000
0000
,
3100
0000
0000
0010
0000
0000
2002
0000
,
0000
0000
0000
0000
,
0000
0000
0000
0000
,
0000
0000
0000
0000
,
0000
0000
0000
3003
,
M00M
0000
0000
00M0
0000
0000
M0M0
0000
,
000M
0000
0000
M000
0000
0000
0000
0000
,
1001
0000
0000
0010
0000
0000
1010
0000
,
0001
0000
0000
1000
0000
0000
1001
0000
,
0100
0000
0000
0010
0000
0000
0110
0000
,
1000
0000
0000
0001
0000
0000
1001
0000
,
0010
0000
0000
1000
0000
0000
1010
0000
,
0100
0000
0000
0001
0000
0000
0101
0000
,
00M0
0000
0000
M000
0000
0000
M00M
0000
,
00M0
0000
0000
000M
0000
0000
0101
0000
,
0010
0000
0000
1000
0000
0000
1001
0000
,
0010
0000
0000
0001
0000
0000
0011
0000
,
1000
0000
0000
0100
0000
0000
1100
0000
,
0001
0000
0000
1000
0000
0000
1001
0000
,
0200
0301
2000
3100
,
0002
1003
0020
0000
,
0000
0000
0000
0000
0000
0000
0000
0030
;

//---------------dance-single - ----------------
#NOTES:
     dance-single:
     :
     Beginner:
     2:
     0.145898,0.272524,0.007243,0.000000,0.000000,141.000000,140.000000,1.000000,0.000000,0.000000,0.000000,0.145898,0.272524,0.007243,0.000000,0.000000,141.000000,140.000000,1.000000,0.000000,0.000000,0.000000:
0000
0000
0000
0000
,
0000
0000
0000
0000
,
0000
0000
0000
0000
,
0000
0000
0000
0000
,
0000
0000
0000
0000
,
0000
0000
0000
0000
,
0000
0000
0000
0000
,
0000
0000
0000
0000
,
0010
0000
0000
0000
,
0100
0000
0000
0000
,
1000
0000
0000
0000
,
0001
0000
0000
0000
,
0100
0000
0000
0000
,
0010
0000
0000
0000
,
1000
0000
0000
0100
,
0100
0100
0100
0000
,
0010
0000
0000
0000
,
0001
0000
0000
0000
,
0010
0000
0000
0000
,
0001
0000
0000
0000
,
1000
0000
0000
0000
,
0010
0000
0000
0000
,
0100
0000
0000
0000
,
0001
0000
0000
0000
,
0010
0000
0000
0100
,
0100
0100
0100
0000
,
1000
0000
0000
0000
,
0001
0000
0000
0000
,
1000
0000
0000
0000
,
0001
0000
0000
0000
,
0100
0000
0000
0000
,
0010
0000
0000
0000
,
1000
0000
0000
0000
,
0001
0000
0000
0000
,
0010
0000
0000
0100
,
0100
0100
0100
0000
,
1000
0000
0000
0000
,
0010
0000
0000
0000
,
1000
0000
0000
0000
,
0010
0000
0000
0000
,
0100
0000
0000
0000
,
0001
0000
0000
0000
,
0010
0000
0000
0000
,
0100
0000
0000
0000
,
1000
0000
0000
0100
,
0100
0100
0100
0000
,
0010
0000
0001
0000
,
1000
0000
0000
0000
,
0010
0000
0001
0000
,
1000
0000
0010
0000
,
0100
0000
0001
0000
,
0010
0000
0100
0000
,
1000
1000
1000
0000
,
0001
0001
0001
0000
,
0010
0000
0100
0000
,
1000
0000
0000
0000
,
0010
0000
0100
0000
,
1000
0000
0001
0000
,
0100
0100
0100
0000
,
0010
0010
0010
0000
,
1000
0000
0001
0000
,
0000
0100
0100
0100
,
0000
0000
0001
0000
,
0010
0000
0000
0100
,
0000
0000
0001
0000
,
0010
0000
1000
0000
,
0100
0100
0100
0000
,
0010
0010
0010
0000
,
0001
0000
1000
0000
,
0010
0000
0100
0000
,
0001
0000
0010
0000
,
1000
0000
0000
0000
,
0001
0000
0010
0000
,
1000
0000
0010
0000
,
0100
0100
0100
0000
,
0001
0001
0001
0000
,
1000
1000
1000
0000
,
0010
0010
0010
0010
,
0000
0000
0000
0000
,
1000
0000
0000
0010
,
0000
0000
0000
0000
,
1000
0000
0001
0000
,
0100
0000
0000
0000
,
0001
0000
1000
0000
,
0010
0000
0000
0000
,
1000
0000
0001
0000
,
0100
0000
0000
0000
,
0001
0000
1000
0000
,
0000
0000
0000
0000
,
0000
0000
0000
0000
,
0000
0000
0000
0000
,
0000
0000
0000
0000
,
0000
0000
0000
0000
,
0000
0000
0000
0000
,
1001
0000
0010
0000
,
1000
0000
0100
0000
,
0010
0000
0001
0000
,
0100
0000
0010
0000
,
1000
0000
0100
0000
,
0010
0000
0001
0000
,
0000
0000
0000
0000
,
0000
0000
0000
0000
,
1000
0000
0001
0000
,
0100
0000
0010
0000
,
1000
0000
0100
0000
,
0010
0000
0001
0000
,
1000
1000
1000
0000
,
0100
0100
0100
0000
;
