#TITLE:Reflections;
#SUBTITLE:(Gryffin Remix);
#ARTIST:Misterwives;
#TITLETRANSLIT:;
#SUBTITLETRANSLIT:;
#ARTISTTRANSLIT:;
#GENRE:Our Own House;
#CREDIT:;
#BANNER:Reflections (Gryffin Remix)-bn.png;
#BACKGROUND:Reflections (Gryffin Remix)-bg.png;
#LYRICSPATH:;
#CDTITLE:;
#MUSIC:Reflections (Gryffin Remix).mp3;
#OFFSET:-0.088000;
#SAMPLESTART:74.628593;
#SAMPLELENGTH:18.635345;
#LASTBEATHINT:251.936478;
#SELECTABLE:YES;
#BPMS:0.000000=103.000000
;
#STOPS:
;
#BGCHANGES:;
#KEYSOUNDS:;
#ATTACKS:;

//---------------dance-single - ----------------
#NOTES:
     dance-single:
     :
     Challenge:
     9:
     0.452667,0.524727,0.060936,0.203120,0.457020,468.000000,459.000000,9.000000,30.000000,0.000000,0.000000,0.452667,0.524727,0.060936,0.203120,0.457020,468.000000,459.000000,9.000000,30.000000,0.000000,0.000000:
0000
0000
0000
0000
,
0000
0000
0000
0000
,
0020
0000
1030
0110
,
0001
1000
0010
1001
,
2000
0000
0000
0010
0000
0000
3001
0000
0020
0000
0000
0000
0130
0000
0001
0000
,
1000
0000
0000
0010
0000
0000
0100
0000
0001
0000
0000
0000
0101
0000
0000
0000
,
0020
0000
0130
1001
,
0010
0001
0100
1001
,
0002
0000
0000
0100
0000
0000
1003
0000
0020
0000
0000
0000
0130
0000
1000
0000
,
0100
0000
0000
0001
0000
0000
1000
0000
0100
0000
0000
0000
1001
0000
0000
0000
,
0010
0000
1000
0100
0000
0000
0100
1000
0000
0000
0001
0100
0000
0000
0100
0010
,
0000
0000
1000
0001
0000
0000
0010
0100
0000
0000
0010
0001
0000
0000
0010
0001
,
0000
0000
1000
0100
0000
0000
0001
0100
0000
0000
1000
0100
0000
0000
1000
0100
,
0000
0000
0001
0010
0000
0000
0100
0010
0000
0000
0001
0100
0000
0000
0010
1000
,
0000
0000
0100
1000
0000
0000
0100
0001
0000
0000
0100
1000
0000
0000
0100
1000
,
0000
0000
0001
0100
0000
0000
1000
0100
0000
0000
1000
0100
0000
0000
0001
0100
,
0000
0000
0010
0001
0000
0000
0010
1000
0000
0000
0100
0001
0000
0000
1000
0100
,
0000
0000
0010
0001
0000
0000
1000
0010
0000
0000
0100
0001
0000
0000
1000
0001
,
1000
0000
0010
0100
0000
0100
0001
0000
0010
0000
0100
1000
0000
1000
0002
0000
,
0000
0103
1000
0100
0001
1000
1100
0000
,
1000
0000
0001
0010
0000
0001
0010
0000
1000
0000
0001
0010
0000
0001
0010
0000
,
0000
0100
0100
0001
1000
0010
0001
0100
,
0020
0000
0000
0001
0000
0000
0130
0000
0002
0000
0000
0100
0000
0000
1003
0000
,
0200
0000
0000
1000
0000
0000
0310
0000
2000
0000
0000
0000
0010
0000
0000
0000
,
3200
1000
0000
1300
,
0000
0000
0100
0000
0100
0010
0000
0010
0001
0000
0001
0000
1000
0000
1000
0001
,
0100
0000
0010
1000
0000
0100
0001
0000
1000
0000
0001
0010
0000
1000
0100
0000
,
0000
0000
1000
0000
1000
0010
0000
1000
0001
0000
1000
0000
0100
0000
0010
0100
,
0010
0000
0001
0100
0000
1000
0100
0000
0100
0000
0001
0010
0000
1000
0010
0000
,
0000
0000
1000
0000
0001
0010
0000
0001
0100
0000
0010
0000
1000
0000
0001
0100
,
0001
0000
1000
0100
0000
0001
0100
0000
0001
0000
1000
0010
0000
0001
0010
0000
,
0000
0000
1000
0000
0100
0010
0000
0001
1000
0000
0010
0000
0100
0000
0001
1000
,
0001
0000
0010
0100
0000
1000
0001
0000
0001
0000
0010
0100
0000
1000
0001
0000
,
0000
1000
0010
0001
0200
0000
0310
0100
,
1001
0000
0010
0000
1000
0100
0000
0001
0010
0000
0100
0000
0010
0000
0001
0100
,
0010
0000
1000
0000
0001
0100
0000
0010
1000
0000
0100
0000
0010
0000
0001
1000
,
0010
0000
1000
0000
0100
0010
0000
0001
1000
0000
0010
0000
1000
0000
0100
1000
,
0001
0000
0010
0000
0001
0100
0000
0100
0010
0000
1000
0000
0001
0000
0010
0001
,
0010
0000
0100
0000
1000
0010
0000
1000
0001
0000
0010
0000
0100
0000
1000
0100
,
1000
0000
0001
0000
0100
0010
0000
1000
0010
0000
1000
0000
0100
0000
1000
0001
,
1000
0000
0010
0000
1000
0001
0000
1000
0100
0000
0010
0000
0001
0000
1000
0001
,
0100
0000
0010
0000
1000
0010
0000
1000
0100
0000
0010
0000
0001
0000
0100
0001
,
0100
0000
0010
1000
0010
0000
1000
0100
1000
0000
0100
0010
0100
0000
0010
0000
,
0001
0000
1000
0001
1000
0000
0010
1000
0010
0000
1000
0100
1000
0000
0100
0000
,
0010
0000
0100
1000
0100
0000
0010
0001
0010
0000
0001
0100
0001
0000
1000
0000
,
0010
0000
1000
0010
1000
0000
0001
0100
0001
0000
1000
0010
1000
0000
0100
0000
,
0010
0000
0001
1000
0001
0000
0100
0010
0100
0000
0010
1000
0010
0000
1000
0001
,
1000
0000
0100
1000
0100
0000
0010
0100
0010
0000
0001
0010
0001
0000
1000
0001
,
1000
0000
0010
1000
0010
0000
0100
0010
0100
0000
0001
0100
0001
0000
1000
0010
,
1000
0000
0100
1000
0001
0000
0010
0001
0100
0000
0010
1000
0001
0000
0100
0001
,
0100
0000
0010
0000
1000
0000
0001
1000
0100
0000
0010
0000
0001
0000
1000
0001
,
0100
0000
0010
0000
1000
0000
0001
1000
0100
0000
0010
0000
0001
0000
1000
0001
,
0100
0000
0010
0000
1000
0000
0100
0010
0001
0000
1000
0000
0010
0000
0100
0010
,
1000
0000
0001
0000
0100
0000
0010
0100
0001
0000
1000
0000
0001
0000
0010
0100
,
1000
2200
0300
0002
,
0003
0020
0030
0002
,
3000
0020
0030
2000
,
3000
0200
0300
0020
,
0003
0200
0300
0002
,
0003
2000
3000
0230
,
0000
2000
3000
0002
,
0003
2000
3000
0020
,
0330
0000
0000
0000
;

//---------------dance-single - ----------------
#NOTES:
     dance-single:
     :
     Hard:
     7:
     0.346271,0.398792,0.101560,0.250515,0.216661,358.000000,343.000000,15.000000,37.000000,0.000000,0.000000,0.346271,0.398792,0.101560,0.250515,0.216661,358.000000,343.000000,15.000000,37.000000,0.000000,0.000000:
0000
0000
0000
0000
,
0000
0000
0000
0000
,
0020
0000
1030
0110
,
0001
1000
0010
1001
,
0100
0000
0000
0001
0000
0000
1000
0000
0100
0000
0000
0000
0010
0000
0100
0000
,
0010
0000
0000
0001
0000
0000
1000
0000
0010
0000
0000
0000
0110
0000
0000
0000
,
2000
0000
3001
1001
,
0010
0100
0010
1001
,
0100
0000
0000
0010
0000
0000
1000
0000
0100
0000
0000
0000
0010
0000
0100
0000
,
0010
0000
0000
0001
0000
0000
1000
0000
0010
0000
0000
0000
0110
0000
0000
0000
,
0002
0000
1003
0010
,
2000
0000
0000
0000
0000
0000
3100
0000
0010
0000
0000
0001
0000
0000
1000
0000
,
0010
0000
0000
0200
0000
0000
0301
0000
0010
0000
0000
0100
0000
0000
1000
0000
,
0001
0010
0001
0000
1000
0100
1000
0001
,
0010
0000
1001
0000
0010
0000
0100
0010
,
0100
0000
1001
0000
0100
0000
0010
0001
,
0200
0302
2003
3020
,
1030
0001
1000
0000
0010
0000
1001
0000
,
0010
0000
1000
0001
0000
0001
1000
0000
0100
0000
1000
0010
0000
0100
0020
0000
,
0000
1030
0100
0010
0001
1000
1001
0000
,
0010
0000
1000
0100
0000
0010
0100
0000
0010
0000
0001
0100
0000
0010
0200
0000
,
0000
0310
1000
0001
0010
0100
0010
0001
,
2000
0000
0000
0100
0000
0000
3001
0000
0020
0000
0000
0100
0000
0000
0031
0000
,
0200
0000
0000
1000
0000
0000
0301
0000
2000
0000
0000
0000
3020
0000
0000
0000
,
2030
0000
0000
0000
,
0000
0000
3000
0000
,
0001
0000
1000
0100
0000
0100
0010
0000
0001
0000
1000
0010
0000
0010
0100
0000
,
0000
0010
0000
1000
0000
0100
0000
0001
,
1000
0000
0001
0100
0000
0100
0001
0000
1000
0000
0010
1000
0000
1000
0010
0000
,
0000
0001
0000
1000
0000
0100
0000
0010
,
0001
0000
0100
0010
0000
0010
1000
0000
0001
0000
1000
0100
0000
0100
0010
0000
,
0000
0001
0000
1000
0000
0010
0000
0100
,
0001
0000
1000
0100
0000
0001
0100
0000
0001
0000
1000
0100
0000
0001
0100
0000
,
0000
0001
0010
0100
0020
0000
0031
1000
,
1002
0000
0000
0010
0000
0000
1003
0000
0010
0000
0000
1000
0000
0000
0100
0000
,
2000
0000
0000
0100
0000
0000
3001
0000
0100
0000
0000
0001
0000
0000
0010
0000
,
0002
0000
0000
0010
0000
0000
1003
0000
0010
0000
0000
1000
0000
0000
0100
0000
,
2000
0000
0000
0100
0000
0000
3001
0000
0010
0000
0000
0100
0000
0000
0010
0000
,
0002
0000
0000
1000
0000
0000
0013
0000
2000
0000
0000
0001
0000
0000
3010
0000
,
0200
0000
0000
0001
0000
0000
0310
0000
2000
0000
0000
0010
0000
0000
3001
0000
,
0020
0000
0000
0001
0000
0000
0130
0000
0002
0000
0000
0100
0000
0000
1003
0000
,
0100
0001
0100
1000
0020
0000
1030
0001
,
1000
0000
0010
0000
0100
0001
0000
1000
0001
0000
1000
0000
0100
0000
0000
0000
,
0010
0000
0001
0000
0100
0010
0000
1000
0010
0000
0100
0000
0001
0000
0000
0000
,
1000
0000
0100
0000
0100
0010
0000
0001
0010
0000
0001
0000
0100
0000
0000
0000
,
0001
0000
1000
0000
0010
1000
0000
1000
0001
0000
0100
0000
0010
0000
0000
0000
,
1000
0000
0001
0000
1000
0100
0000
0010
0001
0000
1000
0000
0010
0000
0100
0000
,
0001
0000
1000
0000
0001
0100
0000
0010
1000
0000
0100
0000
0010
0000
0001
0000
,
1000
0000
0100
0000
0010
0100
0000
1000
0001
0000
0100
0000
0010
0000
1000
0000
,
0001
0000
0100
0000
0010
1000
0000
1000
0001
0000
0010
0000
0100
0000
1000
0000
,
0010
0000
0101
0000
1000
0010
1000
0000
,
0100
0000
0011
0000
0001
1000
0010
0100
,
0001
0000
1010
0000
1000
0100
0010
0000
,
0001
0000
1100
0000
1000
0001
0100
0010
,
2000
0100
0000
3001
,
0020
0001
0000
0130
,
2000
0001
0000
3010
,
0200
1000
0000
0310
,
0002
0100
0000
0013
,
2000
0010
0000
3100
,
0002
0100
0000
0013
,
2000
0010
0000
0100
,
3001
0000
0000
0000
;

//---------------dance-single - ----------------
#NOTES:
     dance-single:
     :
     Medium:
     6:
     0.263089,0.293847,0.074477,0.250515,0.118487,272.000000,261.000000,11.000000,37.000000,0.000000,0.000000,0.263089,0.293847,0.074477,0.250515,0.118487,272.000000,261.000000,11.000000,37.000000,0.000000,0.000000:
0000
0000
0000
0000
,
0000
0000
0000
0000
,
0020
0000
1030
0110
,
0001
1000
0010
1001
,
0100
0000
0000
0100
0000
0000
0100
0000
0001
0000
0000
0000
0001
0000
0000
0000
,
1000
0000
0000
1000
0000
0000
1000
0000
0010
0000
0000
0000
0110
0000
0000
0000
,
2000
0000
3001
1001
,
0010
0100
0010
1001
,
0100
0000
0000
0100
0000
0000
0100
0000
0010
0000
0000
0000
1000
0000
0001
0000
,
0010
0000
0000
0010
0000
0000
0010
0000
0100
0000
0000
0000
0110
0000
0000
0000
,
0002
0000
1003
0010
,
2000
0000
0000
0000
3100
0000
0010
0001
,
0100
0000
0010
0000
1000
0000
0001
1000
,
0100
0000
0010
0000
0001
0000
0010
0100
,
0010
0000
1001
0000
0010
0000
0100
0010
,
0100
0000
1001
0000
0100
0000
0010
0001
,
0200
0302
2003
3020
,
1030
0001
1000
0000
0010
0000
1001
0000
,
0010
1000
0010
0000
1000
0001
1000
0000
,
0100
0010
0001
1000
,
0010
0000
0000
1000
0000
0000
0010
0000
0100
0000
0000
0001
0000
0000
0100
0000
,
0000
0001
0010
0110
,
1000
0000
0000
1000
0000
0000
1000
0000
0010
0000
0000
0010
0000
0000
0010
0000
,
0100
0000
0000
0100
0000
0000
0100
0000
0001
0000
0000
0000
1000
0000
0000
0000
,
0200
0000
0000
0000
,
0000
0000
0300
0000
,
0002
0013
2000
3010
,
0200
0301
2000
3100
,
0020
0130
0002
1003
,
0200
0310
2000
3001
,
0020
1030
0200
0301
,
2000
3010
0002
0103
,
0010
0010
0100
0100
,
0001
1000
0001
1000
0001
0000
1001
0000
,
0010
0000
0000
0010
0000
0000
0010
0000
1000
0000
0000
1000
0000
0000
1000
0000
,
0001
0000
0000
0001
0000
0000
0001
0000
0100
0000
0000
0100
0000
0000
0100
0000
,
0010
0000
0000
0010
0000
0000
0010
0000
1000
0000
0000
1000
0000
0000
1000
0000
,
0100
0000
0000
0100
0000
0000
0100
0000
0010
0000
0000
0010
0000
0000
0010
0000
,
0001
0000
0000
0001
0000
0000
0001
0000
0100
0000
0000
0100
0000
0000
0100
0000
,
0010
0000
0000
0010
0000
0000
0010
0000
1000
0000
0000
1000
0000
0000
1000
0000
,
0100
0000
0000
0100
0000
0000
0100
0000
0010
0000
0000
0010
0000
0000
0010
0000
,
0002
0100
0100
0103
,
0001
0000
0100
0000
0010
0000
0000
0000
1000
0000
0000
0010
0000
0000
1000
0000
,
0100
0000
0000
0000
0010
0000
0000
0000
0001
0000
0000
1000
0000
0000
0010
0000
,
0100
0000
0000
0000
0001
0000
0000
0000
1000
0000
0000
0001
0000
0000
1000
0000
,
0100
0000
0000
0000
0010
0000
0000
0000
0001
0000
0000
0010
0000
0000
0100
0000
,
1000
0000
0000
0100
0000
0000
1000
0000
0001
0000
0000
1000
0000
0000
0001
0000
,
0100
0000
0000
0001
0000
0000
0100
0000
0010
0000
0000
0100
0000
0000
0010
0000
,
1000
0000
0000
0010
0000
0000
0100
0000
0010
0000
0000
0100
0000
0000
0001
0000
,
0100
0000
0000
0001
0000
0000
1000
0000
0010
0000
0000
1000
0000
0000
0001
0000
,
0100
0010
1000
0001
,
0010
0100
0010
0001
,
1000
0100
0010
0100
,
1000
0010
0100
0001
,
1000
0200
0000
0302
,
0000
0023
0000
0230
,
0000
2300
0000
3020
,
0000
0032
0000
0023
,
0000
0230
0000
0320
,
0000
2030
0000
3200
,
0000
0302
0000
0023
,
0000
2030
0000
3100
,
0001
0000
0000
0000
;

//---------------dance-single - ----------------
#NOTES:
     dance-single:
     :
     Easy:
     4:
     0.193448,0.209891,0.006771,0.257285,0.000000,200.000000,199.000000,1.000000,38.000000,0.000000,0.000000,0.193448,0.209891,0.006771,0.257285,0.000000,200.000000,199.000000,1.000000,38.000000,0.000000,0.000000:
0000
0000
0000
0000
,
0000
0000
0000
0000
,
0020
0000
1030
1000
,
0001
1000
0010
0000
,
0100
0100
0001
0001
,
1000
1000
0010
0010
,
2000
0000
3001
0001
,
0010
0100
0010
0000
,
0100
0100
0010
1000
,
0010
0010
0100
0100
,
0002
0000
1003
0010
,
2000
0000
3100
0010
,
0100
0010
1000
0001
,
0100
0010
0001
0100
,
0010
1000
0010
0100
,
0100
0001
0100
0010
,
0200
0302
2003
3020
,
1030
1000
0010
1001
,
0010
0010
1000
1000
,
0100
0010
0001
1000
,
0010
0010
0100
0100
,
0000
0001
0010
0100
,
2000
0000
3020
0000
,
0230
0000
0301
1000
,
0200
0000
0000
0000
,
0000
0000
0300
0000
,
0002
0003
2000
3000
,
0100
0001
1000
0100
,
0020
0030
0002
0003
,
0100
0010
1000
0001
,
0020
0030
0200
0300
,
1000
0010
0001
0100
,
0010
0010
0100
0100
,
0001
1000
0001
1000
,
0010
0010
1000
1000
,
0001
0001
0100
0100
,
0010
0010
1000
1000
,
0100
0100
0010
0010
,
0001
0001
0100
0100
,
0010
0010
1000
1000
,
0100
0100
0010
0010
,
0002
0100
0100
0103
,
0001
0010
1000
1000
,
0100
0010
0001
0001
,
0100
0001
1000
1000
,
0100
0010
0001
0001
,
1000
0100
0001
1000
,
0100
0001
0010
0100
,
1000
0100
0010
0001
,
0100
0001
0010
1000
,
0200
0300
1000
0001
,
0020
0030
0010
0001
,
2000
3000
0010
0100
,
0002
0003
0100
0001
,
1000
0200
0300
2000
,
3000
0020
0030
0200
,
0300
0002
0003
0020
,
0030
0200
0300
0020
,
0030
0002
0003
0020
,
0030
2000
3000
0020
,
0030
0002
0003
0200
,
0300
0020
0030
1000
,
0001
0000
0000
0000
;

//---------------dance-single - ----------------
#NOTES:
     dance-single:
     :
     Beginner:
     1:
     0.109298,0.125934,0.000000,0.000000,0.000000,113.000000,113.000000,0.000000,0.000000,0.000000,0.000000,0.109298,0.125934,0.000000,0.000000,0.000000,113.000000,113.000000,0.000000,0.000000,0.000000,0.000000:
// measure 0
0000
0000
0000
0000
,  // measure 1
0000
0000
0000
0000
,  // measure 2
0010
0000
1000
0000
,  // measure 3
0100
0000
0010
0000
,  // measure 4
0001
0000
0001
0000
,  // measure 5
1000
0000
1000
0000
,  // measure 6
0100
0000
0010
0000
,  // measure 7
0001
0000
1000
0000
,  // measure 8
0010
0000
0100
0000
,  // measure 9
0001
0000
1000
0000
,  // measure 10
0100
0000
0010
0000
,  // measure 11
0010
0000
0100
0000
,  // measure 12
1000
0000
0001
0000
,  // measure 13
0100
0000
0000
0000
,  // measure 14
0010
0000
1000
0000
,  // measure 15
0010
0000
0001
0000
,  // measure 16
0010
0000
1000
0000
,  // measure 17
0001
0000
1000
0000
,  // measure 18
0100
0000
0100
0000
,  // measure 19
0010
0000
0001
0000
,  // measure 20
0100
0000
0100
0000
,  // measure 21
0010
0000
1000
0000
,  // measure 22
0100
0000
0010
0000
,  // measure 23
0100
0000
0010
0000
,  // measure 24
0001
0000
0000
0000
,  // measure 25
0000
0000
0000
0000
,  // measure 26
1000
1000
1000
1000
,  // measure 27
0000
0000
0000
0000
,  // measure 28
0010
0010
0010
0010
,  // measure 29
0000
0000
0000
0000
,  // measure 30
0100
0100
0100
0100
,  // measure 31
0000
0000
0000
0000
,  // measure 32
0001
0000
0001
0000
,  // measure 33
1000
0000
0010
0000
,  // measure 34
0100
0000
0100
0000
,  // measure 35
0010
0000
0001
0000
,  // measure 36
0010
0000
0010
0000
,  // measure 37
1000
0000
0100
0000
,  // measure 38
0010
0000
0010
0000
,  // measure 39
0001
0000
1000
0000
,  // measure 40
0001
0000
0100
0000
,  // measure 41
1000
0000
0100
0000
,  // measure 42
0001
0001
0000
1000
,  // measure 43
0000
0010
0000
0100
,  // measure 44
0100
0100
0000
0010
,  // measure 45
0000
1000
0000
0100
,  // measure 46
0100
0100
0000
0010
,  // measure 47
0000
0001
0000
0010
,  // measure 48
0010
0010
0000
0100
,  // measure 49
0000
1000
0000
0001
,  // measure 50
0001
0000
1000
0000
,  // measure 51
0001
0000
0100
0000
,  // measure 52
1000
0000
0001
0000
,  // measure 53
1000
0000
0100
0000
,  // measure 54
0010
0000
0000
0000
,  // measure 55
0100
0000
0000
0000
,  // measure 56
1000
0000
0000
0000
,  // measure 57
0001
0000
0000
0000
,  // measure 58
0100
0000
0000
0000
,  // measure 59
0001
0000
0000
0000
,  // measure 60
0100
0000
0000
0000
,  // measure 61
0100
0000
0000
0000
,  // measure 62
0010
0000
0000
0000
;
