#VERSION:0.83;
#TITLE:Pumpin Blood;
#SUBTITLE:;
#ARTIST:Nonono;
#TITLETRANSLIT:;
#SUBTITLETRANSLIT:;
#ARTISTTRANSLIT:;
#GENRE:We Are Only What We Feel;
#ORIGIN:;
#CREDIT:;
#BANNER:Pumpin Blood-bn.png;
#BACKGROUND:Pumpin Blood-bg.png;
#PREVIEWVID:Pumpin Blood-preview.avi;
#JACKET:Pumpin Blood-jacket.png;
#CDIMAGE:;
#DISCIMAGE:;
#LYRICSPATH:;
#CDTITLE:;
#MUSIC:Pumpin Blood.mp3;
#OFFSET:-0.018000;
#SAMPLESTART:55.209290;
#SAMPLELENGTH:17.394955;
#SELECTABLE:YES;
#DISPLAYBPM:119.000000;
#BPMS:0.000=119.000;
#STOPS:110.000=0.504,
138.500=2.017,
234.500=2.017;
#DELAYS:;
#WARPS:;
#TIMESIGNATURES:0.000=4=4,
108.000=3=4,
111.000=4=4;
#TICKCOUNTS:0.000=4;
#COMBOS:0.000=1;
#SPEEDS:0.000=1.000=0.000=0;
#SCROLLS:0.000=1.000;
#FAKES:;
#LABELS:0.000=Song Start;
#LASTSECONDHINT:141.235672;
#BGCHANGES:0.000=Pumpin Blood-video.avi=1.000=0=0=0=StretchNoLoop====,
99999=-nosongbg-=1.000=0=0=0 // don't automatically add -songbackground-
;
#KEYSOUNDS:;
#ATTACKS:
;

//---------------dance-single - ----------------
#NOTEDATA:;
#CHARTNAME:;
#STEPSTYPE:dance-single;
#DESCRIPTION:;
#CHARTSTYLE:;
#DIFFICULTY:Hard;
#METER:8;
#RADARVALUES:0.525284,0.516261,0.197612,0.112921,0.331705,521.000000,493.000000,28.000000,16.000000,0.000000,0.000000,0.000000,0.000000,0.000000,0.525284,0.516261,0.197612,0.112921,0.331705,521.000000,493.000000,28.000000,16.000000,0.000000,0.000000,0.000000,0.000000,0.000000;
#CREDIT:;
#DISPLAYBPM:0.000000;
#NOTES:
// measure 0
0000
0000
0000
0000
,  // measure 1
0000
0000
0000
0000
,  // measure 2
0000
0000
0000
0000
,  // measure 3
0000
0000
0000
0000
,  // measure 4
0001
0000
0010
0100
0000
0010
0100
0000
1000
0000
0020
0000
0000
0000
0030
0000
,  // measure 5
1000
0000
0010
0100
0000
0010
0100
0000
0001
0000
0020
0000
0000
0000
0030
0000
,  // measure 6
0001
0000
0010
0100
0000
0010
0100
0000
1000
0000
0200
0000
0000
0000
0300
0000
,  // measure 7
1000
0000
0010
0100
0000
0010
0100
0000
0001
0000
0200
0000
0000
0000
0300
0000
,  // measure 8
0001
0000
1000
0010
0000
0100
0001
0000
1000
0000
0020
0000
0000
0000
0030
0000
,  // measure 9
1000
0000
0001
0010
0000
0100
1000
0000
0001
0000
0020
0000
0000
0000
0030
0000
,  // measure 10
0001
0000
1000
0100
0000
0010
0001
0000
1000
0000
0200
0000
0000
0000
0300
0000
,  // measure 11
1000
0000
0001
0100
0000
0010
1000
0000
0001
0000
0100
0000
1001
0000
0000
0000
,  // measure 12
0100
0000
0001
0100
0010
0000
0000
0000
1000
0000
0001
0010
0000
0100
1000
0000
,  // measure 13
0100
0000
0100
0000
0010
0001
0100
0010
,  // measure 14
0100
0010
1000
0001
,  // measure 15
1000
0010
0001
0000
0010
0000
0100
0000
,  // measure 16
1000
0000
0010
1000
0010
0000
0000
0000
0100
0000
0000
0001
0000
1000
0001
0000
,  // measure 17
0100
0000
0010
0010
1000
0100
0010
0001
,  // measure 18
0100
0000
0000
0000
0010
0000
0000
0000
1000
0000
0000
0000
0001
0000
0010
0100
,  // measure 19
0010
0100
1000
0000
0001
0000
0100
0000
,  // measure 20
0020
0000
1030
0000
0100
0000
0000
0000
0010
0000
0100
1000
0000
0000
0000
0000
,  // measure 21
0020
0000
0130
0000
0000
0000
0001
0000
1000
0000
0010
0000
0100
0000
0001
0100
,  // measure 22
0002
0013
0100
1000
0000
1000
0100
0000
,  // measure 23
2000
3010
0100
0001
0000
0001
0100
0000
,  // measure 24
0020
1030
0001
0000
0010
0100
0000
0010
,  // measure 25
0002
0000
1003
0000
0000
0000
0000
0000
0100
0000
0010
0100
0000
0000
1000
0001
,  // measure 26
2000
3010
0100
0001
0000
1000
0001
0000
,  // measure 27
0002
0013
0100
1000
1000
0000
1001
1000
,  // measure 28
0010
0100
0001
1000
0010
1000
1001
0100
,  // measure 29
0010
0000
1000
0000
0001
0000
0100
0000
0010
0000
1000
0000
0001
0000
0100
0010
,  // measure 30
0000
0100
0010
0000
1000
0000
0001
0000
0100
0000
0010
0000
1000
0000
0010
0100
,  // measure 31
0000
0010
0100
0000
0001
0000
1000
0000
0010
0000
0100
0000
1001
0000
0100
0000
,  // measure 32
0010
1000
0001
0100
0010
0100
1001
1000
,  // measure 33
0010
0000
0100
0000
0001
0000
1000
0000
0010
0000
0100
0000
0001
0000
1000
0010
,  // measure 34
0000
0100
0001
0000
1000
0000
0010
0000
0100
0000
0001
0000
0101
0000
0001
0010
,  // measure 35
0000
0100
1000
0000
0010
0000
0100
0000
0001
0000
0000
0000
1001
0000
1000
0100
,  // measure 36
0000
0010
0001
0000
0100
0000
0010
0000
1000
0000
0000
0000
1001
0000
0010
0100
,  // measure 37
0000
0001
0010
0000
0100
0000
1000
0000
0010
0000
0000
0000
1001
0000
0100
0010
,  // measure 38
0000
1000
0001
0000
0010
0000
0100
0000
1000
0000
0000
0000
1100
0000
0001
0100
,  // measure 39
0000
0010
1000
0000
0100
0000
0010
0000
0100
0000
0000
0000
1100
0000
1000
0010
,  // measure 40
0000
0100
0001
0000
0010
0000
0100
0000
0010
0000
0000
0000
0011
0000
1000
0001
,  // measure 41
0000
1000
0100
0000
0010
0000
0100
0000
1000
0000
0000
0000
1010
0000
0001
1000
,  // measure 42
0000
0001
0100
0000
0010
0000
0100
0000
1001
0000
0000
0000
0100
0000
0001
0100
,  // measure 43
0000
0001
0100
0000
0010
0000
0010
0000
1000
0000
1000
0100
1000
0000
0100
1000
,  // measure 44
0000
0100
1000
0000
0010
0000
0010
0000
0100
0000
0001
0010
0001
0000
0001
0010
,  // measure 45
0000
0010
0001
0000
0100
0000
0100
0000
0010
0000
0010
1000
0010
0000
1000
0001
,  // measure 46
0000
1000
0001
0000
0100
0000
0010
0000
0200
0000
0000
0000
0301
0000
0010
0100
,  // measure 47
0000
1000
0010
0000
0100
0000
0010
0000
0100
0000
0001
1000
0001
0000
0010
0100
,  // measure 48
0000
1000
0010
0000
0100
0000
0010
0000
0100
0000
0001
1000
0001
0000
0100
0010
,  // measure 49
0000
1000
0001
0000
0010
0000
0100
0000
0010
0000
0001
1000
0001
0000
0100
0010
,  // measure 50
0000
1000
0010
0000
1000
0000
0100
0000
0010
0000
0001
0100
0001
0000
0001
0000
,  // measure 51
0000
1001
0000
1000
1000
0000
1001
0100
,  // measure 52
0010
0001
1000
0100
0010
0100
1001
0001
,  // measure 53
0010
0000
0100
0000
1000
0000
0001
0000
1000
0000
0001
0000
0100
0000
0010
1000
,  // measure 54
0000
0010
0100
0000
0001
0000
0010
0000
0100
0000
1000
0000
0010
0000
1000
0001
,  // measure 55
0000
1000
0100
0000
0010
0000
0001
0000
0100
0000
0010
0000
0110
0000
0001
0000
,  // measure 56
1000
0010
0100
0010
1000
0010
0110
0001
,  // measure 57
1000
0000
0010
0000
0100
0000
0010
0000
0100
0000
0010
0000
1000
0000
0001
0100
,  // measure 58
0000
0010
1000
0000
0100
0000
0010
0000
0100
0000
1000
0000
1001
0000
1000
0100
,  // measure 59
0000
0001
0100
0000
0010
0000
1000
0000
0100
0000
0010
0000
1001
0000
0001
0100
,  // measure 60
0000
1000
0100
0000
0010
0000
0001
0000
0100
0000
0010
0000
1001
0000
0001
0010
,  // measure 61
0000
1000
0010
0000
0100
0000
0001
0000
0010
0000
0010
0000
1001
0000
1000
0010
,  // measure 62
0000
0001
0010
0000
0100
0000
1000
0000
0010
0000
0100
0000
1001
0000
0001
0100
,  // measure 63
0000
1000
0100
0000
0010
0000
0001
0000
0100
0000
0010
0000
1001
0000
1000
0100
,  // measure 64
0000
0001
0100
0000
0010
0000
1000
0000
0100
0000
0010
0000
1001
0000
0001
1000
,  // measure 65
0000
0010
0100
0000
0010
0000
1000
0000
0001
0000
0100
0000
1001
0000
0100
0010
,  // measure 66
0000
0001
1000
0000
0100
0000
0010
0000
1001
0000
0000
0000
0000
0000
0000
0000
;

//---------------dance-single - ----------------
#NOTEDATA:;
#CHARTNAME:;
#STEPSTYPE:dance-single;
#DESCRIPTION:;
#CHARTSTYLE:;
#DIFFICULTY:Medium;
#METER:6;
#RADARVALUES:0.315574,0.328529,0.098806,0.028230,0.112921,313.000000,299.000000,14.000000,4.000000,0.000000,0.000000,0.000000,0.000000,0.000000,0.315574,0.328529,0.098806,0.028230,0.112921,313.000000,299.000000,14.000000,4.000000,0.000000,0.000000,0.000000,0.000000,0.000000;
#CREDIT:;
#NOTES:
0000
0000
0000
0000
,
0000
0000
0000
0000
,
0000
0000
0000
0000
,
0000
0000
0000
0000
,
1000
0000
0000
0100
0000
0000
1000
0000
0100
0000
0000
0000
0010
0000
0000
0000
,
0001
0000
0000
0010
0000
0000
0001
0000
0010
0000
0000
0000
0100
0000
0000
0000
,
1000
0000
0000
0001
0000
0000
1000
0000
0001
0000
0000
0000
0100
0000
0000
0000
,
0001
0000
0000
1000
0000
0000
0001
0000
1000
0000
0000
0000
0100
0000
0000
0000
,
0010
0000
0000
0100
0000
0000
0010
0000
0001
0000
0000
0000
1000
0000
0000
0000
,
0100
0000
0000
0010
0000
0000
0100
0000
1000
0000
0000
0000
0010
0000
0000
0000
,
0100
0000
0000
0010
0000
0000
0100
0000
0001
0000
0000
0000
0010
0000
0000
0000
,
0100
0000
0000
1000
0000
0000
0010
0000
0100
0000
0000
0000
0010
0000
0000
0000
,
1000
0100
1000
0000
0010
0000
0100
0000
,
0001
0010
0100
0100
,
0010
0001
0100
0000
0001
0000
0100
0000
,
0010
1000
0100
0010
,
0001
1000
0100
0000
0010
0000
0100
0000
,
0010
0001
0100
0010
,
1000
0001
0100
0000
0010
0000
0100
0000
,
0001
1000
0100
0010
,
0001
0100
0001
0000
1000
0010
1000
0000
,
0100
0000
0100
0000
0010
0100
0010
0000
,
0001
1000
0010
1001
,
0010
0100
0010
1001
,
0100
0001
1000
0000
0010
1000
0001
0000
,
0010
0000
0100
0000
1000
0100
0010
0000
,
0001
0000
0100
0000
0010
0100
0001
0000
,
1000
0010
0100
1001
,
0010
0000
0100
0001
0100
0001
0100
0000
,
0010
1000
0010
0000
0100
0000
1001
0000
,
0100
0000
0010
1000
0100
0000
1001
0000
,
0100
0000
0010
0001
0100
0000
1001
0000
,
0100
0000
0010
0100
0010
0100
0010
0000
,
1000
0001
1000
0000
0100
0000
1001
0000
,
0100
0000
0000
0000
0010
0000
0000
0000
0001
0000
0000
0000
1000
0000
0000
0010
,
0000
0000
1000
0000
0100
0000
0000
0000
0010
0000
0000
0000
0001
0000
0000
0010
,
0000
0000
0001
0000
0100
0000
0000
0000
0001
0000
0000
0000
1000
0000
0000
0010
,
0000
0000
0100
0000
0001
0000
0000
0000
1000
0000
0000
0000
0001
0000
0000
0010
,
0000
0000
0100
0000
1000
0000
0000
0000
0001
0000
0000
0000
1000
0000
0000
0100
,
0000
0000
0010
0000
0001
0000
0000
0000
1000
0000
0000
0000
0100
0000
0000
0010
,
0000
0000
0001
0000
1000
0000
0000
0000
0010
0000
0000
0000
0100
0000
0000
0001
,
0000
0000
1000
0000
0010
0000
0000
0000
0100
0000
0000
0000
0001
0000
0000
0010
,
0000
0000
0100
0000
1000
0000
0000
0000
1001
0000
0000
0000
0100
0000
0000
0010
,
0000
0000
1000
0000
0010
0000
0000
0000
0000
0000
0000
0000
0100
0000
0000
0010
,
0000
0000
0100
0000
0001
0000
0000
0000
0000
0000
0000
0000
0010
0000
0000
0100
,
0000
0000
1000
0000
0100
0000
0000
0000
0000
0000
0000
0000
0010
0000
0000
0001
,
0000
0000
1000
0000
0100
0000
0000
0000
0000
0000
0000
0000
0010
0000
0000
0001
,
0000
0000
0200
0000
0000
0000
0000
0000
0300
0000
0000
0000
0010
0000
0000
1000
,
0000
0000
0200
0000
0000
0000
0000
0000
0300
0000
0000
0000
1000
0000
0000
0001
,
0000
0000
0200
0000
0000
0000
0000
0000
0300
0000
0000
0000
0001
0000
0000
1000
,
0000
0200
0000
0000
0300
0000
0010
0010
,
0000
0010
0000
0010
0010
0000
1001
0000
,
0100
0000
0010
1000
0010
1000
0010
0000
,
0100
0001
0100
0000
0010
0000
1001
0000
,
0100
0000
0010
0001
0100
0000
1001
0000
,
0100
0000
0010
1000
0100
0000
1001
0000
,
0100
0000
0010
0001
0010
0001
0010
0000
,
0100
1000
0001
0000
0100
0000
1001
0000
,
0100
0000
0000
0000
0010
0000
0000
0000
1000
0000
0000
0000
0001
0000
0000
0010
,
0000
0000
0001
0000
1000
0000
0000
0000
0100
0000
0000
0000
1000
0000
0000
0010
,
0000
0000
1000
0000
0001
0000
0000
0000
0100
0000
0000
0000
0010
0000
0000
0100
,
0000
0000
0001
0000
0010
0000
0000
0000
0100
0000
0000
0000
1000
0000
0000
0010
,
0000
0000
0100
0000
0001
0000
0000
0000
0010
0000
0000
0000
0100
0000
0000
1000
,
0000
0000
0001
0000
0100
0000
0000
0000
0010
0000
0000
0000
1000
0000
0000
0001
,
0000
0000
0010
0000
0100
0000
0000
0000
0010
0000
0000
0000
0001
0000
0000
1000
,
0000
0000
0010
0000
0100
0000
0000
0000
0010
0000
0000
0000
1000
0000
0000
0001
,
0000
0100
0010
0000
1001
0000
0000
0000
;

//---------------dance-single - ----------------
#NOTEDATA:;
#CHARTNAME:;
#STEPSTYPE:dance-single;
#DESCRIPTION:;
#CHARTSTYLE:;
#DIFFICULTY:Easy;
#METER:4;
#RADARVALUES:0.223826,0.234664,0.028230,0.000000,0.014115,222.000000,218.000000,4.000000,0.000000,0.000000,0.000000,0.000000,0.000000,0.000000,0.223826,0.234664,0.028230,0.000000,0.014115,222.000000,218.000000,4.000000,0.000000,0.000000,0.000000,0.000000,0.000000,0.000000;
#CREDIT:;
#NOTES:
0000
0000
0000
0000
,
0000
0000
0000
0000
,
0000
0000
0000
0000
,
0000
0000
0000
0000
,
1000
0100
0010
0000
,
0001
0100
0010
0000
,
1000
0010
0001
0000
,
0001
0010
1000
0000
,
1000
0100
0010
0000
,
0001
0100
0010
0000
,
1000
0010
0001
0000
,
0001
0010
1000
1000
,
0100
0010
0100
0010
,
0001
1000
0001
1000
,
0100
0010
0100
0010
,
0001
0100
0001
0100
,
1000
0010
0100
0001
,
1000
0010
0100
0001
,
0010
0100
1000
0001
,
0010
0100
1000
0001
,
0100
0010
0100
0010
,
1000
0001
1000
0001
,
0010
0100
1000
0000
,
0010
0100
0001
0000
,
0010
0001
1000
0100
,
0010
0001
1000
0100
,
0010
0001
0100
0000
,
0010
1000
0100
1001
,
0100
1000
0100
0001
,
0100
1000
1000
0001
,
0100
1000
0100
0001
,
0100
1000
0100
0001
,
0010
0100
0010
0001
,
0010
1000
1000
0010
,
0001
0010
1000
0100
,
1000
0010
0000
0100
,
0001
0010
0000
0001
,
0010
1000
0000
1000
,
0010
0001
0000
1000
,
0001
0100
0000
1000
,
0001
0100
0000
0001
,
0010
1000
0000
0001
,
0010
1000
1000
0100
,
0010
0001
0000
0100
,
0010
1000
0000
0010
,
0100
0001
0000
0010
,
0100
0000
0000
0000
1000
0000
0000
0000
0000
0000
0000
0000
1000
0000
0000
0100
,
0000
0000
1000
0000
0000
0000
0000
0000
0000
0000
0000
0000
0001
0000
0000
0100
,
0000
0000
0001
0000
0000
0000
0000
0000
0000
0000
0000
0000
1000
0000
0000
0010
,
0000
0000
1000
0000
0000
0000
0000
0000
0000
0000
0000
0000
0001
0000
0000
0010
,
0000
0001
0000
0000
0000
0000
0100
0000
,
0000
0010
0010
1001
,
0100
0001
0100
1000
,
0100
0010
0010
0001
,
0010
1000
0010
0001
,
0010
1000
0010
1001
,
0100
1000
0100
0001
,
0100
1000
1000
0001
,
0010
1000
0010
0001
,
0100
1000
0000
1000
,
0100
0001
0000
1000
,
0010
0001
0000
0001
,
0010
1000
0000
0001
,
0100
0010
0000
1000
,
0100
0001
0000
1000
,
0010
0001
0000
0010
,
0100
0010
1001
0000
;

//---------------dance-single - ----------------
#NOTEDATA:;
#CHARTNAME:;
#STEPSTYPE:dance-single;
#DESCRIPTION:;
#CHARTSTYLE:;
#DIFFICULTY:Beginner;
#METER:1;
#RADARVALUES:0.095781,0.140798,0.063518,0.000000,0.000000,95.000000,86.000000,9.000000,0.000000,0.000000,0.000000,0.000000,0.000000,0.000000,0.095781,0.140798,0.063518,0.000000,0.000000,95.000000,86.000000,9.000000,0.000000,0.000000,0.000000,0.000000,0.000000,0.000000;
#CREDIT:;
#NOTES:
0000
0000
0000
0000
,
0000
0000
0000
0000
,
0000
0000
0000
0000
,
0000
0000
0000
0000
,
0010
0000
0000
0000
,
1000
0000
0000
0000
,
0100
0000
0000
0000
,
0010
0000
0000
0000
,
0001
0000
0000
0000
,
1000
0000
0000
0000
,
0100
0000
0000
0000
,
0010
0000
0000
0000
,
0001
0000
0001
0000
,
0100
0000
0000
0000
,
1000
0000
1000
0000
,
0100
0000
0000
0000
,
0010
0000
0010
0000
,
0100
0000
0000
0000
,
1000
0000
1000
0000
,
0001
0000
0000
0000
,
0100
0000
0010
0000
,
0100
0000
0010
0000
,
1000
0000
0000
0000
,
0001
0000
0000
0000
,
0010
0000
0100
0000
,
0010
0000
0100
0000
,
1000
0000
0000
0000
,
0001
0000
0000
1001
,
0000
0000
0000
1001
,
0000
0000
0000
0100
,
0000
0100
0000
0100
,
0000
0100
0000
1001
,
0000
0000
0000
1001
,
0000
0000
0000
0010
,
0000
0010
0000
1000
,
0000
1000
0000
0100
,
0000
0100
0000
0001
,
0000
0001
0000
0100
,
0000
0100
0000
1000
,
0000
1000
0000
0100
,
0000
0100
0000
0001
,
0000
0001
0000
0100
,
0000
0100
0000
0010
,
0000
0000
0000
0010
,
0000
0000
0000
0100
,
0000
0000
0000
0100
,
0000
0000
0000
0001
,
0000
0000
0000
1000
,
0000
0000
0000
0100
,
0000
0000
0000
0010
,
0000
0000
0000
0001
,
0000
0000
0000
1001
,
0000
0000
0000
1001
,
0000
0000
0000
0010
,
0000
1000
0000
0001
,
0000
0100
0000
1001
,
0000
0000
0000
1001
,
0000
0000
0000
0010
,
0000
0100
0000
1000
,
0000
0000
0000
0001
,
0000
0000
0000
0100
,
0000
0000
0000
0010
,
0000
0000
0000
0100
,
0000
0000
0000
0001
,
0000
0000
0000
1000
,
0000
0000
0000
0010
,
0000
0000
1001
0000
;
