#VERSION:0.83;
#TITLE:Promise Me A Rose Garden;
#SUBTITLE:;
#ARTIST:The M Machine;
#TITLETRANSLIT:;
#SUBTITLETRANSLIT:;
#ARTISTTRANSLIT:;
#GENRE:Promise Me A Rose Garden / Glow;
#ORIGIN:;
#CREDIT:;
#BANNER:Promise Me A Rose Garden-bn.png;
#BACKGROUND:Promise Me A Rose Garden-bg.png;
#PREVIEWVID:;
#JACKET:Promise Me A Rose Garden-jacket.png;
#CDIMAGE:;
#DISCIMAGE:;
#LYRICSPATH:;
#CDTITLE:;
#MUSIC:Promise Me A Rose Garden.mp3;
#OFFSET:-0.016000;
#SAMPLESTART:67.494751;
#SAMPLELENGTH:15.000000;
#SELECTABLE:YES;
#DISPLAYBPM:64.000000:128.000000;
#BPMS:0.000=128.000,
64.000=64.000,
80.000=128.000,
112.000=28.095,
115.000=40.000,
115.250=45.000,
115.500=64.000,
115.750=100.000,
116.000=128.000,
119.500=512.000,
120.000=128.000,
128.000=512.000,
130.000=128.000,
131.000=512.000,
132.000=128.000,
135.500=512.000,
136.000=128.000,
140.000=512.000,
141.000=128.000,
147.000=512.000,
148.000=128.000,
151.500=512.000,
152.000=128.000,
162.000=256.000,
163.000=512.000,
164.000=128.000,
167.500=256.000,
168.000=128.000,
176.000=512.000,
180.000=128.000,
268.500=256.000,
269.000=128.000;
#STOPS:119.500=0.088,
119.750=0.088,
128.000=0.088,
128.250=0.088,
128.500=0.088,
128.750=0.088,
129.000=0.088,
129.250=0.088,
129.500=0.088,
129.750=0.088,
131.000=0.352,
135.500=0.088,
135.750=0.088,
140.000=0.176,
140.500=0.088,
140.750=0.088,
147.000=0.088,
147.250=0.088,
147.500=0.088,
147.750=0.088,
151.500=0.088,
151.750=0.088,
162.000=0.059,
162.250=0.059,
162.500=0.059,
162.750=0.059,
163.000=0.088,
163.250=0.088,
163.500=0.088,
163.750=0.088,
167.500=0.059,
167.750=0.059,
176.000=0.088,
176.250=0.088,
176.500=0.088,
176.750=0.088,
177.000=0.088,
177.250=0.088,
177.500=0.088,
177.750=0.088,
178.000=0.088,
178.250=0.088,
178.500=0.088,
178.750=0.088,
179.000=0.088,
179.250=0.088,
179.500=0.088,
179.750=0.088,
268.500=0.059,
268.750=0.059;
#DELAYS:;
#WARPS:;
#TIMESIGNATURES:0.000=4=4;
#TICKCOUNTS:0.000=4;
#COMBOS:0.000=1;
#SPEEDS:0.000=1.000=0.000=0;
#SCROLLS:0.000=1.000;
#FAKES:;
#LABELS:0.000=Song Start;
#LASTSECONDHINT:158.512222;
#BGCHANGES:;
#KEYSOUNDS:;
#ATTACKS:
;

//---------------dance-single - ----------------
#NOTEDATA:;
#CHARTNAME:;
#STEPSTYPE:dance-single;
#DESCRIPTION:;
#CHARTSTYLE:;
#DIFFICULTY:Challenge;
#METER:10;
#RADARVALUES:0.533062,0.596596,0.688022,0.570253,0.415293,602.000000,491.000000,111.000000,92.000000,0.000000,0.000000,0.000000,0.000000,0.000000,0.533062,0.596596,0.688022,0.570253,0.415293,602.000000,491.000000,111.000000,92.000000,0.000000,0.000000,0.000000,0.000000,0.000000;
#CREDIT:;
#DISPLAYBPM:64.000000:128.000000;
#NOTES:
0000
0000
0000
0000
,
0000
0000
0000
0000
,
0000
0000
0000
0000
,
0000
0000
0000
0000
,
0000
0000
0000
0000
,
0000
0000
0000
0000
,
0000
0000
0000
0000
,
0000
0000
0000
0000
,
2010
0000
0000
0001
0000
0000
0100
0000
0010
0000
0000
0000
3001
0000
0000
0000
,
0102
0000
0000
1000
0000
0000
0010
0000
1000
0000
0000
0000
0103
0000
0000
0000
,
0210
0000
1000
0000
0000
0001
0000
0000
1000
0000
0000
0000
0310
0000
0000
0000
,
0120
0000
0001
0000
0000
1000
0000
0000
0001
0000
0000
0000
0130
0000
0000
0000
,
0102
0000
0000
0010
0000
0000
1000
0000
0100
0000
0000
0000
0013
0000
0000
0000
,
2100
0000
0000
0010
0000
0000
0001
0000
0100
0000
0000
0000
3010
0000
0000
0000
,
2001
0000
0010
0000
0000
0001
0000
0000
0010
0000
0000
0000
3001
0000
0000
0000
,
1002
0000
0010
0000
0000
1000
0000
0000
0010
0000
0000
0000
1003
0000
0000
0000
,
1002
0000
0000
1000
0000
0000
1000
0000
1000
0000
0000
0000
1000
0000
0000
0000
0100
0000
0000
0100
0000
0000
0100
0000
0100
0000
0000
0000
0103
0000
0000
0000
,
0000
0100
0000
0100
0100
0000
0000
0000
0000
0010
0000
0010
0010
0000
0000
0010
,
0001
0000
0000
1000
0000
0000
0010
0000
0100
0000
0000
0000
0001
0000
0000
0000
0010
0000
0000
0100
0000
0000
1000
0000
0010
0000
0000
0000
1000
0000
0000
0000
,
0000
0000
0100
0000
0000
0000
0001
0000
1000
0000
0000
0000
0000
0000
0000
0000
0000
0000
0010
0000
0000
0000
0001
0000
0100
0000
0000
0000
0110
0000
0001
1000
,
0001
0000
0000
0010
0100
0000
1000
0000
0010
0000
0000
0000
0110
0000
1000
0001
,
0100
0000
0000
0010
1000
0000
0100
0000
0010
0000
0000
0000
0011
0000
1000
0100
,
1000
0000
0010
0000
0001
0000
0010
0000
1000
0000
0000
0000
1001
0000
1000
0001
,
0100
0000
1000
0000
0100
0000
0001
0000
1000
0000
0000
0000
0110
0000
0010
1000
,
0100
0000
0000
1000
0001
0000
0010
0000
0001
0000
0000
0000
1001
0000
0010
0100
,
1000
0000
0000
0001
0010
0000
0100
0000
1000
0000
0000
0000
0101
0000
0000
0000
,
0010
0000
0000
0000
0100
0000
0000
0000
0001
0000
1000
0000
0110
0000
0010
0100
,
0001
0000
0010
0100
1000
0100
0010
0100
0010
0001
0100
0001
1000
0010
1000
0001
,
0100
0000
0000
0000
,
2010
0000
0000
3000
0101
0000
0000
0000
1000
0010
0100
0002
0003
0001
0010
0100
,
2000
0000
0000
3000
1100
0000
0010
1000
0100
0000
0000
0010
0000
0000
0001
0000
,
0102
0000
0000
0003
1010
0000
0000
0000
0001
0100
0010
2000
3000
1000
0010
0100
,
0001
1000
0010
1000
0000
1000
0100
1000
0000
0000
0010
0000
1200
0000
0000
0300
,
0012
0000
0000
0003
1010
0000
0000
0000
1000
0001
0100
0020
0000
0031
0010
1000
,
0200
0000
0000
0300
1010
0000
0001
1000
0100
0000
0000
0010
0000
0000
0001
0000
,
1100
0000
0001
0100
0001
0000
0000
0000
1000
0010
0100
0002
0000
0003
0000
0000
,
1000
0000
0000
1100
0000
0000
0001
0000
0010
0000
0010
0000
0001
1000
0010
0100
,
0002
0000
0000
0003
1100
0000
0000
0000
0001
0010
1000
0020
0000
0031
0010
0100
,
0020
0000
0000
0030
0110
0000
0001
1000
0100
0000
0000
1000
0000
0000
0001
0000
,
0200
0000
0000
0300
1010
0000
0000
0000
0001
0100
0010
2000
3000
1000
0010
1000
,
0100
0000
0000
0110
0000
0000
0110
0000
0010
0000
0010
0000
0001
0100
0010
1000
,
0200
0000
0000
0300
1001
0000
0000
0000
0010
1000
0001
0020
0030
0010
0001
1000
,
0020
0000
0000
0030
1001
0000
0001
1000
0010
0000
0000
1000
0000
0000
0100
0000
,
0020
0000
0000
0030
0101
0000
0000
0000
0010
0001
0100
0020
0000
0030
0000
0000
,
1000
0010
0100
0001
0000
0010
0100
1000
0000
0010
0100
0001
1000
0010
0100
0001
,
1000
1100
1001
0101
,
0110
0101
1010
1001
,
1100
0110
0011
1001
,
0101
0110
1010
0011
,
0110
1100
1010
1001
,
0101
1100
0110
0011
,
1100
0101
1100
0110
,
0101
0000
0000
1000
1001
0000
1000
1010
0000
0010
0210
0000
0001
0000
0301
0000
,
1001
0000
1000
0010
0200
0000
1000
0000
0010
0000
0010
0000
0301
0000
1000
0100
,
0010
0000
0001
1000
0020
0000
0001
0000
0100
0000
1000
0000
0130
0000
0001
1000
,
0010
0000
1000
0001
0200
0000
1000
0000
0010
0000
0001
0000
0310
0000
0001
0010
,
0100
0000
0010
0100
2000
0000
0100
0000
0010
0000
0001
0000
3100
0000
1100
0000
,
0001
0000
0010
0001
0200
0000
1000
0000
0010
0000
0001
0000
0310
0000
0001
1000
,
0010
0000
1000
0001
0020
0000
1000
0000
0001
0000
0100
0000
0031
0000
0100
0010
,
0002
1000
0010
0100
,
1003
0000
0100
1000
0100
0000
0010
0000
1001
0000
0100
0000
1001
0000
1001
0000
,
0210
0000
0000
0000
1000
0000
0000
0000
0301
0100
0001
0200
0000
0000
0000
0000
,
0320
0000
0000
0000
0001
0000
0000
0000
1000
0000
0000
1000
0030
0000
1000
0000
,
0200
0000
0000
0000
0001
0000
0000
0000
1300
0100
1000
0200
0000
1300
0200
0000
,
0320
0000
0000
0000
0001
0000
0100
0000
0001
0000
0030
0100
0020
0000
0001
0000
,
0230
0000
0000
0300
0201
0000
0000
0000
0310
0100
0010
0200
0000
0310
0200
0000
,
0302
0000
0000
0003
0102
0000
0000
0003
0002
0000
0000
1003
0002
0000
1000
0003
,
2000
0000
0001
3001
2000
0000
0000
3000
0100
1000
0100
2000
0000
3100
2000
0000
,
3020
0000
0000
0030
0120
0000
0000
0030
0120
0030
0120
0000
1000
0000
0130
0000
,
0102
0000
0000
0003
1200
0000
0000
0000
1300
0010
1000
0010
2001
0000
0000
3000
,
0021
0000
0000
0030
0210
0000
0000
0300
0102
0000
0000
1003
2100
0000
0100
3000
,
1002
0000
0000
0003
1020
0000
0000
0030
2001
0000
0000
3000
0201
0000
0000
0300
,
1020
0000
0000
1030
2100
0000
0100
3000
0021
0000
0001
0030
0101
0000
0101
0000
,
2010
0000
0000
3000
2100
0000
0000
3000
2001
0000
0000
3000
2100
0000
0000
3000
,
0012
0000
0000
0003
1002
0000
0000
0003
0102
0000
0000
0003
1002
0000
0000
0003
,
0120
0000
0000
0030
1200
0000
0000
0300
0120
0000
0000
0030
0201
0000
0000
0300
,
1020
0000
0000
0030
0210
0000
0010
0300
0021
0000
0000
0130
0210
0300
0210
0000
,
0300
0000
0000
0000
;

//---------------dance-single - ----------------
#NOTEDATA:;
#CHARTNAME:;
#STEPSTYPE:dance-single;
#DESCRIPTION:;
#CHARTSTYLE:;
#DIFFICULTY:Hard;
#METER:8;
#RADARVALUES:0.394927,0.452677,0.247936,0.266531,0.241738,446.000000,406.000000,40.000000,43.000000,0.000000,0.000000,0.000000,0.000000,0.000000,0.394927,0.452677,0.247936,0.266531,0.241738,446.000000,406.000000,40.000000,43.000000,0.000000,0.000000,0.000000,0.000000,0.000000;
#CREDIT:;
#DISPLAYBPM:64.000000:128.000000;
#NOTES:
// measure 0
0000
0000
0000
0000
,  // measure 1
0000
0000
0000
0000
,  // measure 2
0000
0000
0000
0000
,  // measure 3
0000
0000
0000
0000
,  // measure 4
0000
0000
0000
0000
,  // measure 5
0000
0000
0000
0000
,  // measure 6
0000
0000
0000
0000
,  // measure 7
0000
0000
0000
0000
,  // measure 8
1000
0000
0000
0010
0000
0000
1000
0000
0100
0000
0000
0000
0010
0000
0000
0000
,  // measure 9
0001
0000
0000
0100
0000
0000
0001
0000
0010
0000
0000
0000
0100
0000
0000
0000
,  // measure 10
0010
0000
0001
0000
0000
1000
0000
0000
0010
0000
0000
0000
0100
0000
0000
0000
,  // measure 11
0010
0000
1000
0000
0000
0001
0000
0000
0010
0000
0000
0000
0100
0000
0000
0000
,  // measure 12
1000
0000
0000
0100
0000
0000
0010
0000
0001
0000
0000
0000
0100
0000
0000
0000
,  // measure 13
0001
0000
0000
0100
0000
0000
0010
0000
1000
0000
0000
0000
0100
0000
0000
0000
,  // measure 14
0010
0000
0001
0000
0000
1000
0000
0000
0100
0000
0000
0000
0010
0000
0000
0000
,  // measure 15
0001
0000
0100
0000
0000
0010
0000
0000
1000
0000
0000
0000
0001
0000
0000
0000
,  // measure 16
0100
0000
0000
0100
0000
0000
0100
0000
0100
0000
0000
0000
0100
0000
0000
0000
0010
0000
0000
0010
0000
0000
0010
0000
0010
0000
0000
0000
0010
0000
0000
0000
,  // measure 17
0000
1000
0000
1000
1000
0000
0000
0000
0000
0001
0000
0001
0001
0000
0000
0001
,  // measure 18
0010
0000
0000
0010
0000
0000
0010
0000
0010
0000
0000
0000
0010
0000
0000
0000
0100
0000
0000
0100
0000
0000
0100
0000
0100
0000
0000
0000
0100
0000
0000
0000
,  // measure 19
0000
1000
0000
1000
1000
0000
0000
0000
0000
0001
0000
0001
0001
0000
1000
0001
,  // measure 20
0100
0000
0000
0000
0010
0000
0000
0000
1100
0000
0000
0000
0001
0000
1000
0001
,  // measure 21
1000
0000
0000
0010
0000
0000
0000
0000
1010
0000
0000
0000
0011
0000
0001
0010
,  // measure 22
0001
0000
0000
0000
0010
0000
0000
0000
0110
0000
0000
0000
0110
0000
1000
0001
,  // measure 23
1000
0000
0000
0000
0100
0000
0000
0000
1001
0000
0000
0000
0110
0000
0010
0100
,  // measure 24
0010
0000
0000
0000
1000
0000
0000
0000
1001
0000
0000
0000
0110
0000
0100
0010
,  // measure 25
0100
0001
1001
1010
,  // measure 26
0010
0000
0000
0000
0100
0000
0000
0000
0001
0000
1000
0000
0010
0000
0100
0001
,  // measure 27
0100
0001
1000
0100
0010
0001
1000
0010
,  // measure 28
0100
0000
0000
0000
,  // measure 29
0010
0000
0000
0000
1000
0000
0000
0000
0100
1000
0100
2000
0000
3000
0100
0000
,  // measure 30
0010
0000
0000
0000
0001
0000
0000
0000
1000
0000
0000
0001
0000
0000
0100
0000
,  // measure 31
0010
0000
0000
0000
1000
0000
0000
0000
0100
1000
0100
2000
0000
3000
0000
0000
,  // measure 32
0010
0100
0010
1001
,  // measure 33
0001
0000
0000
0000
1000
0000
0000
0000
0001
0100
0001
0200
0000
0300
0010
0000
,  // measure 34
1000
0000
0000
0000
0100
0000
0010
0000
0100
0000
0000
0010
0000
0000
0001
0000
,  // measure 35
1000
0000
0010
0000
1000
0100
0010
0000
,  // measure 36
0001
0000
0000
1000
0000
0000
0010
0000
1000
0000
1000
0000
0001
0000
0000
0000
,  // measure 37
0010
0000
0000
0000
0100
0000
0000
0000
0010
0001
0010
0002
0000
0003
0010
0000
,  // measure 38
0100
0000
0000
0000
1000
0000
0010
0000
1000
0000
0000
0100
0000
0000
0010
0000
,  // measure 39
0001
0000
0000
0000
1000
0000
0000
0000
0010
1000
0010
2000
0000
3000
0000
0000
,  // measure 40
0100
0000
0000
0010
0000
0000
0100
0000
1000
0000
1000
0000
0001
1000
0001
1000
,  // measure 41
0001
0000
0000
0000
0010
0000
0000
0000
0100
0010
0100
0020
0000
0030
0100
0000
,  // measure 42
1000
0000
0000
0000
0001
0000
1000
0000
0010
0000
0000
1000
0000
0000
0001
0000
,  // measure 43
0100
0000
0000
0000
0010
0000
0000
0000
1000
0010
1000
0020
0000
0030
0000
0000
,  // measure 44
1000
0000
0100
0000
0010
0100
1000
0001
,  // measure 45
0010
0001
0101
1001
,  // measure 46
0100
1000
1100
0011
,  // measure 47
0100
0010
1010
1001
,  // measure 48
0100
1000
0011
1001
,  // measure 49
0101
0100
0110
1010
,  // measure 50
0010
1000
0101
1010
,  // measure 51
0001
1000
0011
1001
,  // measure 52
0100
0000
0000
0000
1000
0000
0000
1001
0000
0000
0001
0000
0100
0000
0010
0000
,  // measure 53
1001
0000
0000
1000
0010
0000
1000
0000
0100
0000
0010
0000
0001
0000
0000
0000
,  // measure 54
0100
0000
0000
0001
1000
0000
0010
0000
0100
0000
0001
0000
1000
0000
0000
0000
,  // measure 55
0100
0000
0000
1000
0010
0000
1000
0000
0100
0000
0010
0000
0001
0000
0000
0000
,  // measure 56
0100
0000
0000
0010
0100
0000
0001
0000
1000
0000
0100
0000
1000
0000
1000
0000
,  // measure 57
0100
0000
0000
0010
0001
0000
0100
0000
0010
0000
1000
0000
0100
0000
0000
0000
,  // measure 58
0010
0000
0000
0001
1000
0000
0010
0000
0100
0000
0001
0000
1000
0000
0000
0000
,  // measure 59
1100
0101
0110
1001
,  // measure 60
0010
1000
0100
0001
0100
1000
0100
0000
,  // measure 61
0110
0000
0000
0000
1001
0000
0000
0000
1000
0010
1000
0020
0000
0000
0030
0000
,  // measure 62
2000
0000
0000
0000
3200
0000
0000
0000
0320
0000
0000
0032
0000
0000
2003
0000
,  // measure 63
3020
0000
0000
0000
0230
0000
0000
0000
0301
1000
0001
2000
0000
0000
3000
0000
,  // measure 64
0002
0000
0000
0000
0103
0000
0010
0000
2000
0000
3000
0010
0100
0000
0001
0000
,  // measure 65
2000
0000
0000
0000
3200
0000
0000
0000
0310
0001
0010
0002
0000
0000
0003
0000
,  // measure 66
2000
0000
0000
0000
3200
0000
0000
0000
0320
0000
0000
0032
0000
0000
2003
0000
,  // measure 67
3010
0000
1000
0001
2000
0000
0000
0000
3010
1000
0010
2000
0000
0000
3000
0000
,  // measure 68
0200
0000
0310
0001
0100
0010
1000
0001
,  // measure 69
1000
0000
0000
0000
1100
0000
0000
0000
1000
0010
1000
0010
2000
0000
0000
0000
,  // measure 70
3100
2001
0010
3002
,  // measure 71
1003
0000
0101
0000
0001
1000
0002
0000
,  // measure 72
0013
0000
0000
0010
0100
0000
1000
0000
0010
0000
0100
0000
0001
0000
0001
0000
,  // measure 73
0100
0000
0210
0000
0320
0000
1030
0100
,  // measure 74
0020
0032
1003
2001
,  // measure 75
3020
2030
3200
0320
,  // measure 76
0032
0000
0000
0000
1003
0000
0001
0000
0100
0000
0000
0100
0010
0000
0010
0000
;

//---------------dance-single - ----------------
#NOTEDATA:;
#CHARTNAME:;
#STEPSTYPE:dance-single;
#DESCRIPTION:;
#CHARTSTYLE:;
#DIFFICULTY:Medium;
#METER:5;
#RADARVALUES:0.298409,0.356795,0.254134,0.260333,0.000000,337.000000,296.000000,41.000000,42.000000,0.000000,0.000000,0.000000,0.000000,0.000000,0.298409,0.356795,0.254134,0.260333,0.000000,337.000000,296.000000,41.000000,42.000000,0.000000,0.000000,0.000000,0.000000,0.000000;
#CREDIT:;
#DISPLAYBPM:64.000000:128.000000;
#NOTES:
0000
0000
0000
0000
,
0000
0000
0000
0000
,
0000
0000
0000
0000
,
0000
0000
0000
0000
,
0000
0000
0000
0000
,
0000
0000
0000
0000
,
0000
0000
0000
0000
,
0000
0000
0000
0000
,
1000
0000
0001
1000
0100
0000
0100
0000
,
0010
0000
1000
0001
0100
0000
0100
0000
,
0010
0010
1000
0000
,
0001
0001
0010
0000
,
0100
0000
1000
0010
0100
0000
0010
0000
,
1000
0000
0001
0100
0010
0000
0100
0000
,
0001
1000
0100
0000
,
0010
0001
1000
0000
,
2002
0000
0000
0003
0020
0000
0000
3030
,
0000
0200
0000
0300
0000
0200
0000
0300
,
0020
0000
0000
1030
0200
0000
0000
0310
,
0000
0002
1000
0000
0003
2000
0001
0000
,
3010
1000
1100
0101
,
0010
0100
0110
1001
,
0001
0010
0011
0110
,
1000
0001
1010
0110
,
1000
0001
0101
0110
,
0010
1000
1100
0110
,
0010
0001
1000
0010
,
1000
0000
0001
0000
0100
0010
0100
0000
,
1001
0000
0000
0000
,
1001
0000
0010
0000
1000
0001
0100
0010
,
0100
0000
0100
0000
0010
0000
0010
1000
,
0100
0000
0100
0000
0010
0001
0100
0000
,
0002
0000
0100
0000
1000
0003
1001
0000
,
0010
0000
1000
0000
0001
0100
0001
1000
,
0010
0000
1000
0000
0100
0000
0010
0100
,
1000
0000
1001
0000
0010
1000
0100
0000
,
0010
0000
0010
0000
0001
1000
0010
0010
,
0100
0000
0001
0000
0100
0010
1000
0001
,
0100
0000
0100
0000
0010
0000
0010
1000
,
0100
0000
1100
0000
0100
0010
0100
0000
,
0010
0000
0010
0000
0001
1000
0010
0100
,
0001
0000
0101
0000
1000
0010
0100
0000
,
0010
0000
1100
0000
0001
0000
1000
0010
,
1000
0000
1001
0000
0100
0010
1000
0000
,
0010
0001
0100
1000
,
0100
0001
1000
0100
,
0010
0001
0011
1001
,
0001
0100
0110
0101
,
1000
0010
1010
1001
,
1000
0100
0010
0001
,
1000
0100
0110
1001
,
0010
1000
0101
1001
,
0010
0001
1100
1010
,
1001
0000
0010
1000
0100
0000
0100
0000
,
1000
0000
0100
0001
0010
0000
0010
0000
,
0001
0000
0010
0001
0100
0000
0100
0000
,
0001
0000
0100
1000
0010
0000
0010
0000
,
1000
0000
0010
0001
1000
0000
0100
0000
,
0001
0000
0010
1000
0001
0000
0100
0000
,
1000
0100
0001
0100
,
0000
1000
0001
1000
0010
0000
1000
0000
,
0002
0023
0230
2300
,
3002
2003
3020
2030
,
3002
0203
0302
2003
,
3020
0230
0320
2030
,
3200
0320
0032
2003
,
3002
0203
0320
2030
,
3200
2300
3002
0023
,
0032
0203
0320
2030
,
3100
1001
0100
0100
,
0010
1010
0010
0010
,
1000
0101
0100
0100
,
0010
1000
0100
0010
,
0100
1100
0100
0100
,
0010
0011
0010
0010
,
0001
1001
0010
0100
,
0010
1001
0100
0010
;

//---------------dance-single - ----------------
#NOTEDATA:;
#CHARTNAME:;
#STEPSTYPE:dance-single;
#DESCRIPTION:;
#CHARTSTYLE:;
#DIFFICULTY:Easy;
#METER:4;
#RADARVALUES:0.254134,0.285436,0.130166,0.099174,0.000000,287.000000,266.000000,21.000000,16.000000,0.000000,0.000000,0.000000,0.000000,0.000000,0.254134,0.285436,0.130166,0.099174,0.000000,287.000000,266.000000,21.000000,16.000000,0.000000,0.000000,0.000000,0.000000,0.000000;
#CREDIT:;
#DISPLAYBPM:64.000000:128.000000;
#NOTES:
0000
0000
0000
0000
,
0000
0000
0000
0000
,
0000
0000
0000
0000
,
0000
0000
0000
0000
,
0000
0000
0000
0000
,
0000
0000
0000
0000
,
0000
0000
0000
0000
,
0000
0000
0000
0000
,
1000
1000
0100
0100
,
0001
0001
0100
0100
,
1000
0100
0001
0000
,
0001
0100
1000
0000
,
0010
0010
1000
1000
,
0100
0100
0010
0010
,
0001
1000
0001
0000
,
1000
0001
0100
0000
,
0010
0000
1000
0100
,
0010
0001
0010
0001
,
1000
0001
0100
0010
,
1000
0010
1000
0010
,
1000
0100
0010
0001
,
1000
0001
0100
0010
,
0100
0001
1000
0001
,
1000
0100
0010
0001
,
0100
0001
1000
0100
,
1000
0100
0010
0001
,
1000
0010
0100
0001
,
1000
0010
1000
0100
,
0110
0000
0000
0000
,
0010
1000
0100
0001
,
1000
0001
0100
0100
,
0010
1000
0100
0010
,
0001
1000
0010
1001
,
0010
1000
0100
0001
,
0100
0010
1000
0110
,
0010
1000
0100
0010
,
0001
0001
1000
1000
,
0010
1000
0100
0010
,
0100
0100
0010
0001
,
1000
1000
0100
0100
,
0010
0100
0010
0001
,
0100
0010
1000
0100
,
0010
0100
0010
0010
,
0001
0001
1000
1000
,
0010
1000
0100
0010
,
0100
0100
1000
1000
,
0001
0001
0011
0011
,
0010
0010
0100
0100
,
1000
1000
1100
1100
,
1000
1000
0001
0001
,
0100
0100
0110
0110
,
0010
0010
1000
1000
,
0001
0001
1001
1001
,
2000
3010
0200
0301
,
0020
0130
2000
3001
,
2000
3010
0002
0103
,
0002
0013
2000
3100
,
0002
1003
0200
0310
,
2000
3001
0020
0130
,
1000
0100
0001
0010
,
1000
0100
0010
0001
,
1001
0010
2000
3010
,
0001
0100
0010
0010
,
0100
0001
0020
0130
,
0010
0001
1000
1100
,
0101
0100
0020
1030
,
0100
0010
0001
1000
,
0001
1001
0020
1030
,
1000
0100
0010
0001
,
1001
0110
0010
0010
,
0100
0100
0010
0010
,
0100
1001
0100
0000
,
0010
1001
0010
0000
,
1000
0100
0010
0001
,
1000
0001
0100
0100
,
0010
1001
0100
0100
,
0010
1001
0100
0100
;

//---------------dance-single - ----------------
#NOTEDATA:;
#CHARTNAME:;
#STEPSTYPE:dance-single;
#DESCRIPTION:;
#CHARTSTYLE:;
#DIFFICULTY:Beginner;
#METER:2;
#RADARVALUES:0.143449,0.214077,0.080579,0.192150,0.000000,162.000000,149.000000,13.000000,31.000000,0.000000,0.000000,0.000000,0.000000,0.000000,0.143449,0.214077,0.080579,0.192150,0.000000,162.000000,149.000000,13.000000,31.000000,0.000000,0.000000,0.000000,0.000000,0.000000;
#CREDIT:;
#DISPLAYBPM:64.000000:128.000000;
#NOTES:
0000
0000
0000
0000
,
0000
0000
0000
0000
,
0000
0000
0000
0000
,
0000
0000
0000
0000
,
0000
0000
0000
0000
,
0000
0000
0000
0000
,
0000
0000
0000
0000
,
0000
0000
0000
0000
,
1000
1000
1000
0000
,
0100
0100
0100
0000
,
0001
0001
0001
0000
,
0001
0001
0001
0000
,
1000
1000
1000
0000
,
0100
0100
0100
0000
,
0001
0001
0001
0000
,
0001
0001
0001
0000
,
1001
0000
0000
0000
,
0020
0000
0030
0000
,
0200
0000
0300
0000
,
0020
0000
0030
0000
,
0001
0000
0100
0100
,
0100
0000
1000
1000
,
1000
0000
0010
0010
,
0010
0000
0001
0001
,
0001
0000
0100
0100
,
0100
0000
0010
0010
,
0010
0000
1000
1000
,
1000
0000
0001
0001
,
0001
0000
0000
0000
,
1000
0000
0100
0100
,
0100
0000
0010
0010
,
0010
0000
0100
0000
,
1000
0000
0001
0001
,
0001
0000
0100
0000
,
0010
0000
1000
1000
,
1000
0000
0100
0000
,
0010
0000
0001
0001
,
0001
0000
1000
0000
,
0100
0000
0010
0010
,
0010
0000
0001
0000
,
1000
1000
1000
0000
,
0100
0000
0010
0000
,
0001
0000
1000
1000
,
1000
0000
0010
0000
,
0100
0000
0100
0000
,
0010
0000
1000
0000
,
0100
0000
0010
0000
,
0001
0000
1000
0000
,
0100
0000
0010
0000
,
0001
0000
1000
0000
,
0010
0000
0100
0000
,
0001
0000
1000
0000
,
0100
0000
0010
0000
,
1001
0000
1001
0000
,
0100
0000
0010
0000
,
0110
0000
0110
0000
,
0001
0000
1000
0000
,
1001
0000
1001
0000
,
0100
0000
0010
0000
,
0110
0000
0110
0000
,
0001
0000
1000
0000
,
0200
0000
0300
0000
,
0020
0000
0030
0000
,
0002
0000
0003
0000
,
2000
0000
3000
0000
,
0020
0000
0030
0000
,
0200
0000
0300
0000
,
0002
0000
0003
0000
,
2000
0000
3000
0000
,
2000
3000
2000
3000
,
0002
0003
0002
0003
,
0200
0300
0200
0300
,
0020
0030
0020
0030
,
2000
3000
0200
0300
,
0002
0003
0020
0030
,
0220
0330
2002
3003
,
0220
0330
2002
3003
;
