#TITLE:Prayer in C;
#SUBTITLE:(Robin Schulz Remix);
#ARTIST:Lilly Wood And The Prick;
#TITLETRANSLIT:;
#SUBTITLETRANSLIT:;
#ARTISTTRANSLIT:;
#GENRE:Prayer;
#CREDIT:;
#BANNER:Prayer in C-bn.png;
#BACKGROUND:Black.png;
#LYRICSPATH:;
#CDTITLE:;
#MUSIC:Prayer in C (Robin Schulz Remix).mp3;
#OFFSET:-0.006000;
#SAMPLESTART:93.660553;
#SAMPLELENGTH:15.609756;
#LASTBEATHINT:288.008362;
#SELECTABLE:YES;
#BPMS:0.000000=123.000000
;
#STOPS:
;
#BGCHANGES:0.000=Prayer in C-video.avi=1.000=0=0=1=====,
99999=-nosongbg-=1.000=0=0=0 // don't automatically add -songbackground-
;
#KEYSOUNDS:;
#ATTACKS:;

//---------------dance-single - ----------------
#NOTES:
     dance-single:
     :
     Hard:
     7:
     0.431990,0.414127,0.204781,0.081912,0.000000,443.000000,413.000000,30.000000,12.000000,0.000000,0.000000,0.431990,0.414127,0.204781,0.081912,0.000000,443.000000,413.000000,30.000000,12.000000,0.000000,0.000000:
// measure 0
0000
0000
0000
0000
,  // measure 1
0000
0000
0000
0000
,  // measure 2
0000
0000
0000
0000
,  // measure 3
0000
0000
0000
0000
,  // measure 4
2001
0000
3001
0100
0010
1000
0100
0010
,  // measure 5
0100
0000
1000
0100
0010
0000
1100
0000
,  // measure 6
1001
0000
1000
0010
0001
0010
0100
0000
,  // measure 7
0110
0000
0100
0001
1000
0100
0001
0000
,  // measure 8
0201
0000
0310
1000
0100
0010
0100
1000
,  // measure 9
0020
0000
1030
0001
0010
0000
1001
0000
,  // measure 10
0101
0000
0010
1000
0100
0010
0100
0000
,  // measure 11
1010
0000
0100
0001
0010
0100
0010
0000
,  // measure 12
1001
0000
1000
0010
0100
0001
0100
0010
,  // measure 13
1000
0100
0010
0100
1000
0010
0100
0001
,  // measure 14
0100
0000
0010
1000
0100
0010
0100
1000
,  // measure 15
0100
0010
0100
0000
1000
0001
0100
0000
,  // measure 16
1001
0000
0100
0001
0010
0100
1000
0100
,  // measure 17
0010
0001
0100
0001
0100
0010
1000
0010
,  // measure 18
1000
0000
0100
1000
0001
1000
0100
0010
,  // measure 19
0100
1000
0000
0100
0000
0000
0000
0000
,  // measure 20
0110
0000
0001
1000
0010
0100
0010
1000
,  // measure 21
0010
0000
1000
0100
1000
0010
1000
0100
,  // measure 22
0010
0000
0001
0100
0001
0010
0001
0100
,  // measure 23
0001
1000
0100
0000
0100
0010
0001
0000
,  // measure 24
1000
0000
0010
1000
0100
0000
0010
0000
,  // measure 25
0001
1000
0010
0100
0001
0100
0001
0000
,  // measure 26
1000
0010
1000
0100
0010
0100
0010
0001
,  // measure 27
1000
0001
0000
0100
0000
0000
0000
0000
,  // measure 28
2001
0000
0000
0001
0001
0000
3001
0000
,  // measure 29
1002
0000
0000
1000
1000
0000
1003
0000
,  // measure 30
0120
0000
0000
0100
0100
0000
0130
0000
,  // measure 31
0210
0000
0000
0010
0010
0000
0310
0000
,  // measure 32
2002
0000
3003
0001
1000
0010
0100
0001
,  // measure 33
1000
0010
0100
0001
1000
0010
0100
0001
,  // measure 34
1000
0000
0000
0001
1000
0001
1000
0001
,  // measure 35
0100
0010
0000
0000
0000
0000
0000
0000
,  // measure 36
2002
0000
3003
1000
0001
0100
0010
1000
,  // measure 37
0001
0100
0010
1000
0001
0100
0010
1000
,  // measure 38
0001
0000
0000
1000
0001
1000
0001
1000
,  // measure 39
0001
0100
0000
0010
0000
0000
0000
0000
,  // measure 40
0102
0000
0103
0010
1000
0010
0100
0001
,  // measure 41
0100
0000
0100
0001
0010
0000
1100
0000
,  // measure 42
1001
0000
1000
0001
0100
0010
0100
0000
,  // measure 43
1010
0000
0001
1000
0010
1000
0100
0000
,  // measure 44
0110
0000
0010
0001
1000
0010
0100
0001
,  // measure 45
1000
0000
0001
0100
0010
0000
0101
0000
,  // measure 46
1001
0000
0001
1000
0010
1000
0100
0000
,  // measure 47
1100
0000
0100
1000
0001
0010
0001
0000
,  // measure 48
1001
0000
0100
0010
1000
0001
0100
0010
,  // measure 49
1000
0001
0010
0100
0010
0001
0100
0010
,  // measure 50
0100
0000
0001
1000
0010
1000
0001
0100
,  // measure 51
0001
1000
0100
0000
1000
0010
0001
0000
,  // measure 52
1010
0000
1000
0100
0010
0001
0100
0010
,  // measure 53
0100
0001
1000
0010
1000
0100
0010
0001
,  // measure 54
0100
0000
0010
0100
0001
1000
0010
0100
,  // measure 55
0001
0100
0000
0001
0000
0000
0000
0000
,  // measure 56
1001
0000
1000
0100
0010
0001
0010
0001
,  // measure 57
0010
0100
1000
0100
0010
0000
0001
0100
,  // measure 58
1000
0000
0001
0100
0010
1000
0100
0010
,  // measure 59
0100
1000
0100
0000
0010
0001
1000
0000
,  // measure 60
1001
0000
0010
1000
0001
1000
0100
0000
,  // measure 61
0010
0001
0100
0001
0010
0100
1000
0100
,  // measure 62
0010
0000
0001
1000
0010
0100
0001
1000
,  // measure 63
0100
0010
0000
0100
0000
0000
0000
0000
,  // measure 64
0110
0000
1000
0010
0001
0010
1000
0010
,  // measure 65
0100
0000
0001
0100
1000
0100
0001
0100
,  // measure 66
0010
0000
1000
0001
0100
0010
0100
0010
,  // measure 67
1000
0001
0100
0000
0010
1000
0100
0000
,  // measure 68
0010
0000
0100
1000
0001
0000
1000
0000
,  // measure 69
0001
0010
0100
0010
0100
1000
0001
0000
,  // measure 70
1000
0010
0001
0000
0010
0100
0010
0100
,  // measure 71
0001
1000
0000
0100
0000
0000
0000
0000
;

//---------------dance-single - ----------------
#NOTES:
     dance-single:
     :
     Medium:
     6:
     0.300345,0.339254,0.040956,0.000000,0.000000,308.000000,302.000000,6.000000,0.000000,0.000000,0.000000,0.300345,0.339254,0.040956,0.000000,0.000000,308.000000,302.000000,6.000000,0.000000,0.000000,0.000000:
0000
0000
0000
0000
,
0000
0000
0000
0000
,
0000
0000
0000
0000
,
0000
0000
0000
0000
,
1001
0000
0000
1000
0001
0100
0000
0000
,
0000
0000
0000
0010
0100
0000
0010
0000
,
1000
0000
0000
0100
1000
0100
1000
0000
,
0001
0000
0000
0010
0001
0010
0001
0000
,
0100
0000
0000
0010
0100
0010
0000
0000
,
0000
0000
0000
1000
0001
0000
0100
0000
,
0010
0000
0000
0100
0001
0100
0001
0000
,
1000
0000
0000
0010
1000
0010
1000
0000
,
1001
0000
0010
0000
1000
0001
1000
0000
,
0100
0000
0010
0000
0001
1000
0001
0000
,
0100
0000
0000
0000
0010
0100
0010
0100
,
0001
1000
0100
0010
,
0100
0000
1000
0000
0001
1000
0100
0000
,
0010
0000
0001
0000
1000
0001
0100
0000
,
0010
0000
0000
0000
0100
0010
0100
0010
,
0100
0001
1000
0010
,
1000
0000
0001
0000
0100
0001
1000
0000
,
0010
0000
1000
0000
0100
1000
0001
0000
,
0100
0000
0000
0000
0010
0100
0010
0100
,
0001
0000
1000
0000
0100
1000
0100
0000
,
0010
0000
0001
0000
1000
0001
0100
0000
,
0001
0100
0001
0000
1000
0000
0010
0000
,
1000
0010
1000
0000
0100
0000
0100
0000
,
0010
0100
1000
0000
,
1001
0000
0000
0010
0010
0000
0010
0000
,
0001
0000
0000
0001
0001
0000
0001
0000
,
0100
0000
0000
0100
0100
0000
0100
0000
,
0010
0000
0000
0010
0010
0000
0010
0000
,
1000
0000
0000
1000
1000
0000
1000
0000
,
0100
0000
0000
0100
0100
0000
0100
0000
,
0010
0000
0000
0010
0010
0000
0010
0000
,
0001
0000
0000
0001
0001
0000
0001
0000
,
1000
0000
0000
1000
1000
0000
0001
0000
,
0100
0000
0000
0010
0010
0000
1000
0000
,
0100
0000
0000
0010
0010
0000
0001
0000
,
0100
0000
0000
0010
0010
0000
1000
0000
,
1001
0000
0000
0001
1000
0010
0000
0000
,
0000
0000
0000
1000
0001
0000
0100
0000
,
0010
0000
0000
1000
0100
1000
0100
0000
,
0010
0000
0000
0001
0010
0001
0010
0000
,
0100
0000
0000
1000
0010
1000
0000
0000
,
0000
0000
0000
0010
0100
0000
0001
0000
,
1000
0000
0000
0001
0100
0001
0100
0000
,
0010
0000
0000
1000
0010
1000
0010
0000
,
1001
0000
0010
0000
1000
0001
0100
0000
,
0010
0000
0100
0000
0001
0010
0100
0000
,
1000
0000
0000
0000
0001
1000
0001
1000
,
0001
0100
0010
1000
,
0001
0000
0010
0000
0001
1000
0010
0000
,
1000
0000
0100
0000
0010
0100
1000
0000
,
0001
0000
0000
0000
1000
0001
1000
0001
,
0100
0000
0000
0000
,
0010
0000
1000
0000
0100
1000
0010
0000
,
0100
0000
0001
0000
0010
0001
0100
0000
,
0010
0000
0000
0000
1000
0001
1000
0001
,
0100
0010
1000
0001
,
0010
0000
0100
0000
1000
0001
0100
0000
,
0001
0100
0001
0000
1000
0010
1000
0000
,
0100
0000
0000
0000
0010
0100
0010
0100
,
1000
0001
0100
0000
,
0010
0000
1000
0000
0001
1000
0010
0000
,
1000
0000
0001
0000
0100
0001
1000
0000
,
0100
0000
0010
0000
0001
1000
0001
1000
,
0001
0100
0010
1000
,
0100
0010
0001
1000
,
0001
1000
0001
0000
1000
0010
0100
0000
,
0010
0100
0001
0000
1000
0001
1000
0000
,
1001
0000
0000
0000
;

//---------------dance-single - ----------------
#NOTES:
     dance-single:
     :
     Easy:
     3:
     0.174551,0.193859,0.013652,0.000000,0.000000,179.000000,177.000000,2.000000,0.000000,0.000000,0.000000,0.174551,0.193859,0.013652,0.000000,0.000000,179.000000,177.000000,2.000000,0.000000,0.000000,0.000000:
0000
0000
0000
0000
,
0000
0000
0000
0000
,
0000
0000
0000
0000
,
0000
0000
0000
0000
,
0010
0000
1000
0100
,
0010
0000
0100
1000
,
0001
0000
0100
0010
,
1000
0000
0010
1000
,
0001
0000
0010
0001
,
0100
0000
0001
0100
,
0010
0000
1000
0010
,
0100
0000
0010
1000
,
0100
0000
0010
0001
,
1000
0001
0100
0010
,
0100
0000
0010
1000
,
0100
0000
0010
0000
,
0001
0000
0100
0010
,
0100
0001
1000
0010
,
0100
0000
0010
1000
,
0100
0000
0010
0000
,
0100
0000
1000
0010
,
0100
0001
1000
0001
,
0100
0000
0010
0100
,
0010
1000
0100
0010
,
0100
0000
1000
0001
,
0100
0000
0010
0100
,
0001
0000
1000
0001
,
0010
0000
0100
0000
,
1001
0000
0000
0000
,
0100
0000
0000
0000
,
1000
0000
0000
0000
,
0010
0000
0000
0000
,
0001
0000
0000
0000
,
0010
0000
0000
0000
,
0100
0000
0000
0000
,
0001
0000
0000
0000
,
1000
0000
0000
0000
,
0100
0000
0000
0000
,
0010
0000
0000
0000
,
0001
0000
0000
0000
,
1000
0000
0010
1000
,
0100
0000
0010
0001
,
0100
0000
0001
0100
,
0010
0000
1000
0010
,
1000
0000
0100
0010
,
0001
0000
1000
0001
,
0100
0000
0010
0100
,
0001
0000
1000
0001
,
0100
0000
0010
1000
,
0100
0000
0010
0001
,
1000
0000
0001
0100
,
0010
1000
0010
0000
,
1000
0000
0100
0010
,
0001
0000
1000
0001
,
0100
0000
0010
0100
,
0001
0000
1000
0000
,
0001
0000
0010
0100
,
1000
0000
0010
1000
,
0100
0000
0010
0100
,
0010
0001
0100
0000
,
0010
0000
1000
0001
,
0100
0000
0010
0100
,
0001
0000
1000
0010
,
0100
0000
0001
0000
,
1000
0000
0100
0010
,
0001
0000
1000
0010
,
0100
0000
0010
1000
,
0100
0010
0100
0000
,
1000
0000
0001
1000
,
0010
0000
1000
0001
,
0100
0000
0010
0100
,
0110
0000
0000
0000
;

//---------------dance-single - ----------------
#NOTES:
     dance-single:
     :
     Beginner:
     1:
     0.118968,0.145394,0.034130,0.000000,0.000000,122.000000,117.000000,5.000000,0.000000,0.000000,0.000000,0.118968,0.145394,0.034130,0.000000,0.000000,122.000000,117.000000,5.000000,0.000000,0.000000,0.000000:
0000
0000
0000
0000
,
0000
0000
0000
0000
,
0000
0000
0000
0000
,
0000
0000
0000
0000
,
0010
0000
1000
0000
,
0100
0000
0010
0000
,
0001
0000
1000
0000
,
0010
0000
0100
0000
,
0001
0000
1000
0000
,
0010
0000
1000
0000
,
0100
0000
0010
0000
,
0001
0000
1000
0000
,
1001
0000
0010
0000
,
0001
0000
0010
0000
,
1000
0000
0100
0000
,
0010
0000
0000
0000
,
0001
0000
1000
0000
,
0010
0000
0100
0000
,
0001
0000
1000
0000
,
0100
0000
0000
0000
,
0010
0000
0100
0000
,
1000
0000
0100
0000
,
0010
0000
0001
0000
,
0100
0000
0000
0000
,
0010
0000
1000
0000
,
0100
0000
0010
0000
,
0001
0000
1000
0000
,
0100
0000
0000
0000
,
1001
0000
0000
0000
,
0010
0000
0000
0000
,
1000
0000
0000
0000
,
0001
0000
0000
0000
,
0100
0000
0000
0000
,
0010
0000
0000
0000
,
1000
0000
0000
0000
,
0100
0000
0000
0000
,
0010
0000
0000
0000
,
0001
0000
0000
0000
,
1000
0000
0000
0000
,
0010
0000
0000
0000
,
0100
0000
0010
0000
,
1000
0000
0001
0000
,
0010
0000
0100
0000
,
0010
0000
0100
0000
,
1000
0000
0001
0000
,
0100
0000
0010
0000
,
1000
0000
0001
0000
,
0010
0000
0100
0000
,
1000
0000
0100
0000
,
0010
0000
0001
0000
,
1000
0000
0001
0000
,
0100
0000
0010
0000
,
0100
0000
0001
0000
,
1000
0000
0010
0000
,
1000
0000
0100
0000
,
0010
0000
0001
0000
,
1001
0000
0010
0000
,
0100
0000
0100
0000
,
0010
0000
0100
0000
,
1000
0000
1000
0000
,
0001
0000
0100
0000
,
0010
0000
0100
0000
,
0010
0000
1000
0000
,
0001
0000
0000
0000
,
1001
0000
0010
0000
,
1000
0000
0010
0000
,
0001
0000
0100
0000
,
0010
0000
0000
0000
,
1000
0000
0100
0000
,
0001
0000
0100
0000
,
1000
0000
0100
0000
,
1001
0000
0000
0000
;
