#VERSION:0.81;
#TITLE:Powerful;
#SUBTITLE:;
#ARTIST:Major Lazer feat. Ellie Goulding and Tarrus Riley;
#TITLETRANSLIT:;
#SUBTITLETRANSLIT:;
#ARTISTTRANSLIT:;
#GENRE:Peace Is The Mission;
#ORIGIN:;
#CREDIT:;
#BANNER:Powerful-bn.png;
#BACKGROUND:Powerful-bg.png;
#PREVIEWVID:Powerful-preview.avi;
#JACKET:;
#CDIMAGE:;
#DISCIMAGE:;
#LYRICSPATH:;
#CDTITLE:;
#MUSIC:Powerful.mp3;
#OFFSET:-0.035000;
#SAMPLESTART:51.113125;
#SAMPLELENGTH:15.384617;
#SELECTABLE:YES;
#DISPLAYBPM:65.000000:130.000000;
#BPMS:0.000=130.000,
144.000=1040.000,
150.000=130.000,
216.000=65.000;
#STOPS:144.000=0.269,
144.667=0.269,
145.333=0.269,
146.000=0.269,
146.667=0.269,
147.333=0.269,
148.000=0.269,
148.667=0.269,
149.333=0.269;
#DELAYS:;
#WARPS:;
#TIMESIGNATURES:0.000=4=4;
#TICKCOUNTS:0.000=4;
#COMBOS:0.000=1;
#SPEEDS:0.000=1.000=0.000=0;
#SCROLLS:0.000=1.000;
#FAKES:;
#LABELS:0.000=Song Start;
#LASTSECONDHINT:115.460823;
#BGCHANGES:0.000=Powerful-video.avi=1.000=0=0=0=StretchNoLoop====,
99999=-nosongbg-=1.000=0=0=0 // don't automatically add -songbackground-
;
#KEYSOUNDS:;
#ATTACKS:
;

//---------------dance-single - ----------------
#NOTEDATA:;
#CHARTNAME:;
#STEPSTYPE:dance-single;
#DESCRIPTION:;
#CHARTSTYLE:;
#DIFFICULTY:Hard;
#METER:8;
#RADARVALUES:0.504624,0.585764,0.533668,0.296482,0.753911,319.000000,63.000000,35.000000,0.000000,0.000000,0.000000,0.000000,0.000000,0.504624,0.585764,0.533668,0.296482,0.753911,319.000000,63.000000,35.000000,0.000000,0.000000,0.000000,0.000000,0.000000;
#CREDIT:;
#NOTES:
0000
0000
0000
0000
,
0000
0000
0000
0000
,
0000
0000
0000
0000
,
0000
0000
0000
0000
,
1000
0000
0010
0000
0100
0000
0001
0000
0010
0000
0100
0000
,
1000
0000
0001
1000
0000
0000
0110
0000
0000
0000
0001
0000
,
1000
0000
0010
0000
0100
0000
0001
0000
0010
0000
0100
0000
,
1000
0000
0001
0100
0000
0000
0101
0000
0000
0000
1000
0010
,
0100
0001
0000
0100
0000
0000
1001
0000
0000
0010
0000
0000
,
1000
0000
0100
0000
0010
0000
1001
0000
0000
0000
0001
1000
,
0010
0100
0000
0001
0000
0000
0101
0000
0000
0010
0000
0000
,
1001
0000
0000
0010
0000
0000
1100
0000
0100
0000
0010
0000
,
0001
0000
1000
0000
0010
0000
1010
0000
0001
0000
0100
0000
,
0010
0000
0100
0001
0000
0000
1001
0000
0000
0000
0000
0000
,
0010
0000
0001
0000
1000
0000
0110
0000
0001
0000
1000
0000
,
0010
0000
1000
0001
0000
0000
1001
0000
0000
0000
1000
0100
,
0010
0001
0000
0100
0000
0000
1010
0000
0000
0101
0000
0000
,
1001
0000
0000
0010
0000
0000
0001
0000
1000
0000
0010
0100
,
0001
1000
0000
0100
0000
0000
0110
0000
0000
0011
0000
0000
,
1001
1010
0110
0000
,
0002
0000
0010
0000
0100
0000
2003
0000
0100
0000
0010
0000
,
3002
0000
1000
0000
0010
0000
2003
0000
0000
0000
0000
0000
,
3020
0000
1000
0000
0100
0000
2030
0000
0000
3100
0010
0000
,
0002
0000
0203
0000
,
0320
0000
1000
0000
0100
0000
2030
0000
0100
0000
0010
0000
,
3002
0000
1000
0000
0100
0000
2003
0000
0000
0000
0000
0000
,
3002
0000
0010
0000
1000
0000
2003
0000
0100
0000
0001
0000
,
0002
0000
0000
0000
0000
0000
3003
0000
1000
0000
0010
0000
,
1000
0001
0000
0100
0000
0000
0101
0000
1000
0000
0010
0000
,
2000
0000
0100
0000
3010
0000
1010
0000
0001
0000
1000
0000
,
0002
0000
0100
0000
0013
0000
0011
0000
1000
0000
0001
0000
,
0100
0010
0000
1000
0000
0000
1001
0000
0010
0000
0100
0000
,
0002
0000
0010
0000
1003
0000
1010
0000
1000
0000
0001
0000
,
2000
0000
0100
0000
3001
0000
0101
0000
1000
0000
0001
0000
,
0200
0000
1000
0000
0310
0000
0110
0000
1000
0000
0001
0000
,
0010
0100
0000
1000
0000
1000
0010
0100
0000
0001
0000
0001
,
0010
0000
0011
0000
0011
0000
0100
0000
1100
0000
1100
0000
,
0010
0000
1010
0000
1010
0000
0101
0000
0001
0000
1000
0000
,
1001
0000
0010
0000
0100
0000
1010
0000
0001
0000
0100
0000
,
0002
0000
0010
0000
0103
0000
0101
0000
1000
0000
0001
0000
,
2000
0000
0010
0000
3100
0000
1100
0000
0001
0000
1000
0000
,
0010
0100
0000
0001
0000
0000
1001
0000
0100
0000
0010
0000
,
1000
0001
0000
0100
0000
0000
0110
0000
0001
0000
1000
0000
,
0002
0000
0010
0000
1003
0000
1010
0000
0001
0000
1000
0000
,
0020
0000
0001
0000
0130
0000
0110
0000
0001
0000
1000
0000
,
0100
0010
0000
0001
0000
0000
1001
0000
0010
0000
1000
0000
,
1010
0000
0101
0000
1010
0000
1001
0000
1000
0000
0001
0000
,
1100
0000
0011
0000
1100
0000
1001
0000
0010
0000
0100
0000
,
0101
0000
1010
0000
0110
0000
1001
0000
0010
0000
1000
0000
,
0001
0100
0000
0010
0000
0000
1010
0000
0001
0000
1000
0000
,
0200
0000
0001
0000
1000
0000
0310
0000
0110
0000
1001
0000
,
0021
0000
0100
0000
0001
0000
0130
0000
0110
0000
1100
0000
,
0210
0000
1000
0000
0010
0000
1300
0000
1010
0000
1001
0000
,
0001
0100
0000
0010
0000
0010
1000
0100
0000
0010
0000
0010
,
0002
0000
0000
0000
1003
0000
0020
0000
0000
0000
0130
0000
0001
1000
0200
0000
0000
0000
0300
0000
0010
0000
0001
0000
,
2000
0000
0000
0000
3010
0000
0100
0000
0001
0000
1000
0000
0010
0100
0000
0001
0000
0000
0010
0000
0100
0000
0010
0000
,
0002
0000
0000
0000
1003
0000
0020
0000
0000
0000
0130
0000
0001
0000
1000
0200
0000
0000
0310
0000
0001
0000
1000
0000
,
0200
0000
0000
0000
0310
0000
0000
0000
0001
0000
1000
0000
0010
1000
0000
0001
0000
0000
0000
0000
0000
0000
0000
0000
;

//---------------dance-single - ----------------
#NOTEDATA:;
#CHARTNAME:;
#STEPSTYPE:dance-single;
#DESCRIPTION:;
#CHARTSTYLE:;
#DIFFICULTY:Medium;
#METER:6;
#RADARVALUES:0.307373,0.440276,0.025413,0.237186,0.398133,223.000000,3.000000,28.000000,0.000000,0.000000,0.000000,0.000000,0.000000,0.307373,0.440276,0.025413,0.237186,0.398133,223.000000,3.000000,28.000000,0.000000,0.000000,0.000000,0.000000,0.000000;
#CREDIT:;
#DISPLAYBPM:65.000000:130.000000;
#NOTES:
0000
0000
0000
0000
,
0000
0000
0000
0000
,
0000
0000
0000
0000
,
0000
0000
0000
0000
,
1000
0000
0100
0000
1000
0000
0100
0000
1000
0000
0100
0000
,
0020
0000
0031
0000
,
0100
0000
0001
0000
0100
0000
0001
0000
0100
0000
0001
0000
,
0020
0000
0130
0000
,
0010
0001
0100
0010
,
2000
0000
3001
0000
,
0010
0100
1000
0001
,
0200
0000
0310
0000
,
1000
0000
0010
0000
1000
0000
0010
0000
1000
0000
0010
0000
,
2000
0000
3100
0000
,
0010
0000
0001
0000
0010
0000
0001
0000
0010
0000
0001
0000
,
0200
0000
0310
0000
,
1000
0001
0100
0010
,
0200
0000
0310
0000
,
1000
0100
0010
0001
,
1000
0010
0100
0000
,
0010
0000
1000
0000
0010
0000
2000
0000
0000
0000
0000
0000
,
3001
0000
0100
0000
0001
0000
0200
0000
0000
0000
0000
0000
,
0310
0000
1000
0000
0100
0000
0020
0000
0000
0000
0000
0000
,
0032
0000
2003
0000
,
3010
0000
0100
0000
0001
0000
0020
0000
0000
0000
0000
0000
,
0130
0000
1000
0000
0001
0000
0200
0000
0000
0000
0000
0000
,
0310
0000
1000
0000
0001
0000
0020
0000
0000
0000
0000
0000
,
0230
0000
0000
0000
0000
0000
0310
0000
0001
0000
1000
0000
,
0020
0000
0000
0000
0000
0000
0130
0000
0001
0000
1000
0000
,
0010
0000
0000
0000
1000
0000
0001
0000
0010
0000
0100
0000
,
0010
0000
0000
0000
0010
0000
0001
0000
1000
0000
0010
0000
,
1000
0000
0000
0100
0000
0000
0010
0000
0000
0000
0100
0000
,
0010
0000
0000
0000
0010
0000
0001
0000
1000
0000
0010
0000
,
0100
0000
0000
0000
0100
0000
0010
0000
1000
0000
0001
0000
,
0010
0000
0000
0000
0010
0000
0100
0000
1000
0000
0001
0000
,
0100
0000
0000
0000
0010
0000
1000
0000
0100
0000
0010
0000
,
0002
0000
0000
0000
,
0000
0000
0003
0000
,
1001
0000
0000
0000
0000
0000
0010
0000
1000
0000
0001
0000
,
0010
0000
0000
0000
0100
0000
1000
0000
0010
0000
0100
0000
,
0001
0000
0000
0000
0010
0000
0100
0000
0010
0000
0001
0000
,
1000
0000
0000
0010
0000
0000
0100
0000
0001
0000
1000
0000
,
0010
0000
0000
0000
0000
0000
1000
0000
0100
0000
0010
0000
,
0001
0000
0000
0000
0010
0000
0100
0000
0010
0000
0001
0000
,
1000
0000
0000
0000
0010
0000
0100
0000
0010
0000
1000
0000
,
0001
0100
0010
1000
,
0001
0000
0000
0000
0010
0000
0100
0000
1000
0000
0010
0000
,
0100
0000
0000
0000
0010
0000
1000
0000
0100
0000
0010
0000
,
0001
0000
0000
0000
1000
0000
0010
0000
0100
0000
0001
0000
,
1000
0010
0100
0001
,
1001
0000
0000
0000
0000
0000
0010
0000
0100
0000
0001
0000
,
0010
0000
0000
0000
0001
0000
1000
0000
0010
0000
0100
0000
,
0010
0000
0000
0000
1000
0000
0100
0000
0010
0000
0001
0000
,
1000
0100
0010
0001
,
1001
0000
0000
0020
0000
0000
2030
0000
0000
3100
0010
0100
,
0020
0000
0000
0032
0000
0000
0203
0000
0000
0310
1000
0010
,
2000
0000
0000
3002
0000
0000
0023
0000
0000
0130
1000
0001
,
2000
0000
0000
3010
0100
0001
0020
0000
0000
0030
0000
0000
;

//---------------dance-single - ----------------
#NOTEDATA:;
#CHARTNAME:;
#STEPSTYPE:dance-single;
#DESCRIPTION:;
#CHARTSTYLE:;
#DIFFICULTY:Easy;
#METER:3;
#RADARVALUES:0.206932,0.244598,0.000000,0.127064,0.000000,156.000000,0.000000,15.000000,0.000000,0.000000,0.000000,0.000000,0.000000,0.206932,0.244598,0.000000,0.127064,0.000000,156.000000,0.000000,15.000000,0.000000,0.000000,0.000000,0.000000,0.000000;
#CREDIT:;
#DISPLAYBPM:65.000000:130.000000;
#NOTES:
// measure 0
0000
0000
0000
0000
,  // measure 1
0000
0000
0000
0000
,  // measure 2
0000
0000
0000
0000
,  // measure 3
0000
0000
0000
0000
,  // measure 4
1000
0100
0010
0100
,  // measure 5
0010
0000
0010
0000
,  // measure 6
0001
1000
0010
0100
,  // measure 7
0001
0000
0010
0000
,  // measure 8
0100
1000
0010
0100
,  // measure 9
0001
0000
0010
0000
,  // measure 10
0100
1000
0001
0100
,  // measure 11
0010
0000
1000
0000
,  // measure 12
0010
0100
0001
0010
,  // measure 13
0100
0000
0010
0000
,  // measure 14
0100
1000
0001
0100
,  // measure 15
0010
0000
1000
0000
,  // measure 16
0010
1000
0100
0010
,  // measure 17
0100
0000
0010
0000
,  // measure 18
0001
1000
0010
0100
,  // measure 19
0001
0010
0100
0000
,  // measure 20
0020
0000
0031
0000
,  // measure 21
2000
0000
3010
0000
,  // measure 22
0200
0000
1300
0000
,  // measure 23
0020
0000
0130
0000
,  // measure 24
0002
0000
0013
0000
,  // measure 25
2000
0000
3001
0000
,  // measure 26
0200
0000
1300
0000
,  // measure 27
0002
0000
0103
0000
,  // measure 28
0010
1000
0100
0010
,  // measure 29
0100
0000
0010
0000
,  // measure 30
0001
1000
0010
0100
,  // measure 31
0001
0000
1000
0000
,  // measure 32
0010
1000
0100
0010
,  // measure 33
0001
0000
1000
0000
,  // measure 34
0010
1000
0001
0100
,  // measure 35
0010
0000
0100
0000
,  // measure 36
0020
0000
0000
0000
,  // measure 37
0000
0000
0030
0000
,  // measure 38
1000
0100
0010
0001
,  // measure 39
0100
0000
0010
0000
,  // measure 40
1000
0001
0010
0100
,  // measure 41
1000
0000
0010
0000
,  // measure 42
1000
0100
0010
0000
,  // measure 43
0001
0000
1000
0000
,  // measure 44
0010
0100
0001
1000
,  // measure 45
0100
0000
0010
0000
,  // measure 46
0001
0010
0100
1000
,  // measure 47
0010
0100
0001
0000
,  // measure 48
1000
0010
0001
0010
,  // measure 49
1000
0100
0001
0000
,  // measure 50
1000
0100
0010
0001
,  // measure 51
1000
0010
0001
0100
,  // measure 52
0010
1000
0100
0001
,  // measure 53
1000
0010
0100
0001
,  // measure 54
0020
0130
2000
3000
,  // measure 55
0010
0100
0001
1000
,  // measure 56
0200
0310
0002
0003
,  // measure 57
2000
3010
0200
0300
;

//---------------dance-single - ----------------
#NOTEDATA:;
#CHARTNAME:;
#STEPSTYPE:dance-single;
#DESCRIPTION:;
#CHARTSTYLE:;
#DIFFICULTY:Beginner;
#METER:1;
#RADARVALUES:0.119803,0.121769,0.059296,0.000000,0.000000,92.000000,7.000000,0.000000,0.000000,0.000000,0.000000,0.000000,0.000000,0.119803,0.121769,0.059296,0.000000,0.000000,92.000000,7.000000,0.000000,0.000000,0.000000,0.000000,0.000000,0.000000;
#CREDIT:;
#DISPLAYBPM:65.000000:130.000000;
#NOTES:
// measure 0
0000
0000
0000
0000
,  // measure 1
0000
0000
0000
0000
,  // measure 2
0000
0000
0000
0000
,  // measure 3
0000
0000
0000
0000
,  // measure 4
0010
0000
0100
0000
,  // measure 5
0001
0000
0000
0000
,  // measure 6
1000
0000
0010
0000
,  // measure 7
0100
0000
0000
0000
,  // measure 8
0010
0000
1000
0000
,  // measure 9
0100
0000
0000
0000
,  // measure 10
0010
0000
0001
0000
,  // measure 11
1000
0000
0000
0000
,  // measure 12
0010
0000
0100
0000
,  // measure 13
0001
0000
0000
0000
,  // measure 14
1000
0000
0100
0000
,  // measure 15
0010
0000
0000
0000
,  // measure 16
0001
0000
1000
0000
,  // measure 17
0010
0000
0000
0000
,  // measure 18
0100
0000
0010
0000
,  // measure 19
1000
0000
0001
0000
,  // measure 20
0010
0000
0000
0000
,  // measure 21
0100
0000
0000
0000
,  // measure 22
1000
0000
0000
0000
,  // measure 23
0010
0000
0000
0000
,  // measure 24
0100
0000
0000
0000
,  // measure 25
0001
0000
0000
0000
,  // measure 26
1000
0000
0000
0000
,  // measure 27
0010
0000
0000
0000
,  // measure 28
1000
0000
0100
0000
,  // measure 29
0010
0000
0001
0000
,  // measure 30
1000
0000
0010
0000
,  // measure 31
0110
0000
0100
0000
,  // measure 32
0001
0000
1000
0000
,  // measure 33
0100
0000
0010
0000
,  // measure 34
0001
0000
1000
0000
,  // measure 35
1001
0000
0010
0000
,  // measure 36
0100
0000
0000
0000
,  // measure 37
0000
0000
0000
0000
,  // measure 38
1001
0000
0010
0000
,  // measure 39
0100
0000
0001
0000
,  // measure 40
0010
0000
0100
0000
,  // measure 41
0110
0000
1000
0000
,  // measure 42
0010
0000
0100
0000
,  // measure 43
0001
0000
0010
0000
,  // measure 44
0100
0000
1000
0000
,  // measure 45
1001
0000
0010
0000
,  // measure 46
0100
0000
0001
0000
,  // measure 47
0010
0000
0100
0000
,  // measure 48
1000
0000
0010
0000
,  // measure 49
0110
0000
0001
0000
,  // measure 50
0010
0000
0100
0000
,  // measure 51
1000
0000
0010
0000
,  // measure 52
0100
0000
0001
0000
,  // measure 53
1001
0000
0010
0000
,  // measure 54
0100
0100
0100
0000
,  // measure 55
0010
0000
1000
0000
,  // measure 56
0100
0100
0100
0000
,  // measure 57
0010
0000
0001
0000
;
