#TITLE:Pork & Beans;
#SUBTITLE:;
#ARTIST:Weezer;
#TITLETRANSLIT:;
#SUBTITLETRANSLIT:;
#ARTISTTRANSLIT:;
#GENRE:Weezer;
#CREDIT:;
#BANNER:Pork & Beans-bn.png;
#BACKGROUND:Pork And Beans-bg.png;
#LYRICSPATH:;
#CDTITLE:;
#MUSIC:Pork And Beans.mp3;
#OFFSET:1.912000;
#SAMPLESTART:31.532114;
#SAMPLELENGTH:16.156572;
#LASTBEATHINT:234.000000;
#SELECTABLE:YES;
#DISPLAYBPM:119.000000;
#BPMS:0.000000=119.860001
,64.000000=121.000000
,67.000000=114.000000
,68.000000=119.000000
,163.000000=113.000000
,164.000000=119.400002
,196.000000=118.400002
,212.000000=119.000000
,223.000000=119.300003
;
#STOPS:
;
#BGCHANGES:3.500=Pork And Beans-video.avi=1.000=1=0=0=StretchNoLoop==CrossFade==,
99999=-nosongbg-=1.000=0=0=0 // don't automatically add -songbackground-
;
#KEYSOUNDS:;
#ATTACKS:;

//---------------dance-single - ----------------
#NOTES:
     dance-single:
     :
     Hard:
     7:
     0.373545,0.415370,0.188610,0.060012,0.000000,305.000000,283.000000,22.000000,7.000000,0.000000,0.000000,0.373545,0.415370,0.188610,0.060012,0.000000,305.000000,283.000000,22.000000,7.000000,0.000000,0.000000:
0000
0000
0000
0000
,
0000
0000
0000
0000
,
0000
0000
0000
0000
,
0000
0000
0000
0000
,
0000
0000
0000
0000
,
0010
1000
0010
0000
0100
0000
0001
1000
,
0000
0100
0010
0001
1000
0000
0010
0100
,
0001
0000
1000
0010
1000
0000
0100
0000
,
0010
0000
0001
1000
0001
0000
1001
0000
,
0010
0000
1000
0000
0100
0000
0010
0100
,
0000
1000
0100
0000
0010
0000
0001
1000
,
0000
0000
0010
1000
0010
0000
0100
0000
,
0001
0000
0010
0001
0010
0000
0100
1000
,
0010
0100
0000
0001
1000
0000
0010
1000
,
0000
1000
0100
0000
0010
0000
0001
1000
,
0001
0000
0100
0010
1000
0000
0001
0000
,
1000
0100
0000
0001
0100
0000
0010
0100
,
1001
0000
2000
0100
3000
0002
0100
0003
,
0010
0000
1000
0010
0100
0100
0001
0000
,
0010
0000
0100
0010
0100
0000
1000
0000
,
0001
0000
1000
0001
0100
0000
0010
1000
,
0010
0200
0000
0301
0000
0010
0100
0010
,
0001
0000
0101
0000
1100
0000
0000
0010
,
0100
0010
0000
1000
0000
0001
0100
0010
,
1000
0001
0110
1001
,
0010
0000
1000
0001
0100
0000
0010
0100
,
0000
0100
0001
0000
0010
0000
0110
0000
,
0100
1000
0010
0100
0000
0010
1000
0010
,
0100
0001
1000
1001
,
1000
0100
0010
0001
0000
0001
0010
0100
,
1000
0000
0010
0000
0100
0000
0110
0100
,
0010
0000
1000
0001
0100
0010
1000
0000
,
0001
0110
1001
0100
,
0010
1000
0100
0010
0100
0000
0010
0000
,
0001
1000
0010
0100
,
0001
1000
0010
0100
0001
0000
0010
0000
,
0100
1000
0010
0100
,
0001
0010
0100
1000
0010
0100
0001
0010
,
0100
1000
0010
0100
0001
0010
0100
1000
,
0020
0100
0100
0130
,
0001
1000
0000
1000
0001
0000
0100
0010
,
1001
0000
0002
0100
0003
2000
0100
3000
,
0010
0000
0001
0010
0100
0100
1000
0000
,
0010
0000
0100
0010
0100
0000
0001
0000
,
1000
0000
0001
1000
0100
0000
0010
0001
,
0010
0200
0000
1300
0000
0010
0100
0010
,
1000
0000
1100
0000
0101
0000
0000
0010
,
0100
0010
0000
0001
0000
1000
0100
0010
,
0001
1000
0110
1001
,
0100
0000
0001
1000
0100
0000
0010
0100
,
0000
0100
1000
0000
0010
0000
0110
0000
,
0100
0001
0010
0100
0000
0010
0001
0010
,
0100
1000
0001
1001
,
0001
0100
0010
1000
0000
1000
0010
0100
,
0001
0000
0100
0000
0010
0000
0110
0100
,
0010
0000
1000
0001
0100
0010
1000
0000
,
0001
0000
0110
0000
1001
0100
0100
0100
,
1001
0000
0000
0000
;

//---------------dance-single - ----------------
#NOTES:
     dance-single:
     :
     Medium:
     5:
     0.285364,0.293202,0.060012,0.000000,0.000000,233.000000,226.000000,7.000000,0.000000,0.000000,0.000000,0.285364,0.293202,0.060012,0.000000,0.000000,233.000000,226.000000,7.000000,0.000000,0.000000,0.000000:
0000
0000
0000
0000
,
0000
0000
0000
0000
,
0000
0000
0000
0000
,
0000
0000
0000
0000
,
0000
0000
0000
0000
,
1000
0100
0010
0001
,
0010
0000
0100
0000
1000
0000
0001
1000
,
0001
0100
0010
1000
,
0100
0010
0100
0010
,
0001
1000
0001
0100
,
0010
0000
1000
0000
0001
0000
1000
0001
,
1000
0010
0100
0001
,
0010
0100
1000
0001
,
0100
0010
0100
0010
,
1000
0010
1000
0100
,
1000
1000
0001
0001
,
0100
0010
0000
0100
0010
0000
0000
0000
,
1000
0000
0100
1000
0100
0000
0010
0000
,
0001
0000
0010
0001
0010
0000
0100
0000
,
1000
0000
0010
1000
0010
0000
0100
0000
,
0001
0000
0100
0001
0100
0000
0010
0000
,
1000
0000
0010
1000
0010
0000
0100
0000
,
0001
0001
0101
0000
,
0001
0000
0010
0001
0010
0000
0100
0000
,
1000
1000
1100
0000
,
1000
0000
0001
1000
0001
0000
1000
0000
,
0010
0100
0110
0000
,
1000
0001
1000
0000
0010
0000
0010
0000
,
0100
0100
0010
0010
,
1000
0001
1000
0000
0010
0000
0010
0000
,
1000
1000
0100
0100
,
1000
0100
0001
0100
,
1000
0100
0001
0100
,
0001
0001
0010
0010
,
1000
1000
0100
0100
,
0010
0010
0001
0001
,
0100
0100
1000
1000
,
0010
0010
0100
0100
,
0001
0001
1000
1000
,
0010
0100
0010
0000
0100
0000
0100
0000
,
0001
0001
0000
1000
1000
0000
0010
0100
,
0001
0000
0010
0001
0010
0000
0100
0000
,
1000
0000
0100
1000
0100
0000
0010
0000
,
0001
0000
0100
0001
0100
0000
0010
0000
,
1000
0000
0010
1000
0010
0000
0100
0000
,
0001
0000
0100
0001
0100
0000
0010
0000
,
1000
1000
1010
0000
,
1000
0000
0100
1000
0100
0000
0010
0000
,
0001
0001
0011
0000
,
0001
0000
1000
0001
1000
0000
0001
0000
,
0100
0010
0110
0000
,
0001
1000
0001
0000
0100
0000
0100
0000
,
0010
0010
0100
0100
,
0001
1000
0001
0000
0100
0000
0100
0000
,
0001
0001
0010
0010
,
0001
0010
1000
0010
,
0001
0010
1000
0010
,
1001
0000
0000
0000
;

//---------------dance-single - ----------------
#NOTES:
     dance-single:
     :
     Easy:
     3:
     0.211880,0.244335,0.008573,0.000000,0.000000,173.000000,172.000000,1.000000,0.000000,0.000000,0.000000,0.211880,0.244335,0.008573,0.000000,0.000000,173.000000,172.000000,1.000000,0.000000,0.000000,0.000000:
// measure 0
0000
0000
0000
0000
,  // measure 1
0000
0000
0000
0000
,  // measure 2
0000
0000
0000
0000
,  // measure 3
0000
0000
0000
0000
,  // measure 4
0000
0000
0000
0000
,  // measure 5
0001
1000
0001
1000
,  // measure 6
0100
0010
0100
0010
,  // measure 7
0100
0000
1000
0000
,  // measure 8
0010
0000
0100
0000
,  // measure 9
0001
1000
0001
1000
,  // measure 10
0010
0100
0010
0100
,  // measure 11
0001
1000
0001
1000
,  // measure 12
0100
0010
0100
0010
,  // measure 13
0001
0010
0001
0010
,  // measure 14
0100
1000
0100
1000
,  // measure 15
0010
1000
0010
1000
,  // measure 16
0001
0000
0000
0001
0000
0000
0000
0000
,  // measure 17
0010
0010
0100
0100
,  // measure 18
0010
0010
0100
0000
,  // measure 19
1000
1000
0100
0100
,  // measure 20
1000
1000
0100
0000
,  // measure 21
0001
0001
0100
0100
,  // measure 22
0001
0001
0100
0000
,  // measure 23
1000
1000
0001
0001
,  // measure 24
1000
1000
0001
0000
,  // measure 25
0010
0010
0100
0100
,  // measure 26
0010
0010
0100
0000
,  // measure 27
1000
1000
0010
0010
,  // measure 28
0001
0001
0010
0000
,  // measure 29
0001
0001
0100
0100
,  // measure 30
1000
1000
0100
0000
,  // measure 31
0001
0100
1000
0100
,  // measure 32
0001
0001
0001
0000
,  // measure 33
1000
0000
0100
0000
,  // measure 34
0010
0000
0001
0000
,  // measure 35
1000
0000
0001
0000
,  // measure 36
0100
0000
0010
0000
,  // measure 37
1000
0000
0010
0000
,  // measure 38
0001
0000
0010
0000
,  // measure 39
1000
0000
0100
0000
,  // measure 40
0010
0000
0000
0010
0000
0000
0000
0000
,  // measure 41
0001
0001
0100
0100
,  // measure 42
0001
0001
0100
0000
,  // measure 43
1000
1000
0010
0010
,  // measure 44
1000
1000
0010
0000
,  // measure 45
1000
1000
0100
0100
,  // measure 46
1000
1000
0100
0000
,  // measure 47
0010
0010
0100
0100
,  // measure 48
0010
0010
0100
0000
,  // measure 49
0010
0010
0001
0001
,  // measure 50
0010
0010
0001
0000
,  // measure 51
1000
1000
0010
0010
,  // measure 52
1000
1000
0100
0000
,  // measure 53
0010
0010
0100
0100
,  // measure 54
0010
0010
0100
0000
,  // measure 55
1000
0001
1000
0001
,  // measure 56
0100
0010
0100
0010
,  // measure 57
0110
0000
0000
0000
;

//---------------dance-single - ----------------
#NOTES:
     dance-single:
     :
     Beginner:
     1:
     0.139620,0.171035,0.017146,0.017146,0.000000,114.000000,112.000000,2.000000,2.000000,0.000000,0.000000,0.139620,0.171035,0.017146,0.017146,0.000000,114.000000,112.000000,2.000000,2.000000,0.000000,0.000000:
// measure 0
0000
0000
0000
0000
,  // measure 1
0000
0000
0000
0000
,  // measure 2
0000
0000
0000
0000
,  // measure 3
0000
0000
0000
0000
,  // measure 4
0000
0000
0000
0000
,  // measure 5
0001
0000
0001
0000
,  // measure 6
0100
0000
0100
0000
,  // measure 7
0100
0000
0000
0000
,  // measure 8
0000
0000
0000
0000
,  // measure 9
1000
0000
1000
0000
,  // measure 10
1000
0000
1000
0000
,  // measure 11
0010
0000
0000
0000
,  // measure 12
0000
0000
0000
0000
,  // measure 13
0001
0000
0001
0000
,  // measure 14
0001
0000
0010
0000
,  // measure 15
0010
0000
0000
0000
,  // measure 16
0100
0000
0000
0000
,  // measure 17
1000
1000
1000
0000
,  // measure 18
0010
0010
0010
0000
,  // measure 19
0100
0100
0100
0000
,  // measure 20
0001
0001
0001
0000
,  // measure 21
1000
0000
0001
0000
,  // measure 22
1000
1000
1000
0000
,  // measure 23
0001
0000
1000
0000
,  // measure 24
0001
0001
0001
0000
,  // measure 25
0010
0000
0100
0000
,  // measure 26
1000
1000
1000
0000
,  // measure 27
0100
0000
0010
0000
,  // measure 28
0001
0001
0001
0000
,  // measure 29
1000
0000
0010
0000
,  // measure 30
0001
0001
0001
0000
,  // measure 31
0001
0000
0010
0000
,  // measure 32
1000
1000
1000
0000
,  // measure 33
0010
0000
0020
0000
,  // measure 34
0000
0000
0030
0000
,  // measure 35
0100
0000
0200
0000
,  // measure 36
0000
0000
0300
0000
,  // measure 37
1000
0000
0001
0000
,  // measure 38
1000
0000
0001
0000
,  // measure 39
0100
0000
0100
0000
,  // measure 40
0100
0000
0100
0000
,  // measure 41
1001
0000
0010
0000
,  // measure 42
0100
0100
0100
0000
,  // measure 43
1000
1000
1000
0000
,  // measure 44
0001
0001
0001
0000
,  // measure 45
0100
0000
0010
0000
,  // measure 46
0100
0100
0100
0000
,  // measure 47
0010
0000
1000
0000
,  // measure 48
0010
0010
0010
0000
,  // measure 49
0001
0000
0010
0000
,  // measure 50
0100
0100
0100
0000
,  // measure 51
1000
0000
0010
0000
,  // measure 52
0100
0100
0100
0000
,  // measure 53
0001
0000
0010
0000
,  // measure 54
0100
0100
0100
0000
,  // measure 55
1000
0000
0010
0000
,  // measure 56
0100
0100
0100
0000
,  // measure 57
1001
0000
0000
0000
;
