#TITLE:Poker Face;
#SUBTITLE:;
#ARTIST:Lady Gaga;
#TITLETRANSLIT:;
#SUBTITLETRANSLIT:;
#ARTISTTRANSLIT:;
#GENRE:The Fame;
#CREDIT:;
#BANNER:Poker Face-bn.png;
#BACKGROUND:Black.png;
#LYRICSPATH:;
#CDTITLE:;
#MUSIC:Poker Face.mp3;
#OFFSET:-0.004000;
#SAMPLESTART:56.459995;
#SAMPLELENGTH:16.120001;
#SELECTABLE:YES;
#DISPLAYBPM:119.000000;
#BPMS:0.000000=119.000000
,108.000000=59.500000
,110.000000=119.000000
;
#STOPS:
;
#BGCHANGES:0.000=Poker Face-video.avi=1.000=0=0=1=====,
99999=-nosongbg-=1.000=0=0=0 // don't automatically add -songbackground-
;
#KEYSOUNDS:;
#ATTACKS:;

//---------------dance-single - ----------------
#NOTES:
     dance-single:
     [Ness]:
     Hard:
     7:
     0.463068,0.435040,0.146232,0.227472,0.000000,399.000000,381.000000,18.000000,28.000000,0.000000,0.000000,0.463068,0.435040,0.146232,0.227472,0.000000,399.000000,381.000000,18.000000,28.000000,0.000000,0.000000:
// measure 0
0000
0000
0000
0000
,  // measure 1
0000
0000
0000
0000
,  // measure 2
0010
0010
0100
0100
0001
0001
0100
0100
,  // measure 3
0010
0010
1000
0100
0010
0010
0100
0100
,  // measure 4
0010
0010
0010
0010
0010
0010
0010
0010
,  // measure 5
0010
0010
0010
0010
0001
1000
0001
1000
,  // measure 6
0010
0010
0010
0010
0010
0010
0010
0010
,  // measure 7
0010
0010
0010
0010
1000
0001
1000
0001
,  // measure 8
0101
0100
0010
1000
0001
0100
0010
1000
,  // measure 9
0001
0100
0010
1000
0002
1003
0002
1003
,  // measure 10
0001
0010
0100
1000
0001
0010
0100
1000
,  // measure 11
0001
0010
0100
1000
2000
3001
2000
3001
,  // measure 12
0100
0010
1000
0001
0100
0010
1000
0001
,  // measure 13
0100
0010
1000
0001
0100
0000
1001
0000
,  // measure 14
0001
1000
0001
1000
0010
0100
0010
0100
,  // measure 15
0002
0000
0023
0000
0130
1000
1000
1000
,  // measure 16
0010
0100
0001
0000
0010
0100
1000
0000
,  // measure 17
0001
1000
0010
0100
0001
0000
1001
0000
,  // measure 18
1000
0001
0100
0000
0001
1000
0010
0000
,  // measure 19
1000
0010
0100
0001
0010
0000
0110
0000
,  // measure 20
0200
0000
1300
0010
0001
0000
0010
0000
,  // measure 21
0200
0000
0301
0010
1000
0010
0001
0000
,  // measure 22
2000
0000
3001
0100
0002
0000
1003
0100
,  // measure 23
0020
0000
0031
0100
0020
1030
0020
1030
,  // measure 24
0002
0000
0103
0010
1000
0000
0100
0000
,  // measure 25
0002
0000
0103
0010
0001
0000
0100
0000
,  // measure 26
1000
0100
0010
1000
0002
0000
1000
0000
,  // measure 27
0013
0000
0000
0000
1002
0000
1003
0010
,  // measure 28
0000
1000
0000
0001
0020
0000
0031
0000
,  // measure 29
1000
0001
0100
0000
0120
0000
1030
0010
,  // measure 30
0000
0010
1000
0100
0001
0000
1000
0001
,  // measure 31
0100
0010
0001
1000
2001
0000
3010
0100
,  // measure 32
0000
0001
0000
1000
0200
0000
0310
0000
,  // measure 33
0001
1000
0010
0000
1020
0000
1030
0001
,  // measure 34
0000
0010
0001
0100
1000
0000
0001
1000
,  // measure 35
0010
0100
1000
0001
1002
0000
1003
0100
,  // measure 36
0000
0010
0000
0001
0200
0000
0310
0000
,  // measure 37
1000
0010
0001
0000
0120
0000
0130
0001
,  // measure 38
0000
0010
0001
0100
1000
0000
0001
1000
,  // measure 39
0010
0100
1000
0001
1001
0001
0100
1000
,  // measure 40
0000
1000
0100
0002
0000
1003
0001
0010
,  // measure 41
0100
1000
0001
0000
1001
0000
1000
0010
,  // measure 42
0000
0010
1000
0100
0001
0000
0001
0100
,  // measure 43
0010
0001
1000
0001
1001
1000
0100
0001
,  // measure 44
0000
0001
0100
2000
0000
3001
1000
0010
,  // measure 45
0100
0001
1000
0000
1001
0000
0001
0010
,  // measure 46
0000
0010
0001
0100
1000
0000
1000
0100
,  // measure 47
0010
1000
0001
1000
1001
0000
0001
0010
,  // measure 48
0001
0010
0001
0010
1000
0000
0010
0000
,  // measure 49
0001
1000
0100
0000
1001
0000
1000
0010
,  // measure 50
1000
0010
1000
0010
0001
0000
0010
0100
,  // measure 51
0001
1000
0100
0010
1001
0001
1000
1000
,  // measure 52
0010
0010
1000
1000
0100
0010
0100
2000
,  // measure 53
0000
3001
0010
0100
1000
0001
0001
0100
,  // measure 54
0100
0010
0010
1000
1000
0100
0010
0001
,  // measure 55
0000
1000
0010
0100
0101
0100
0001
0001
,  // measure 56
0010
0010
0100
0100
1000
0010
0100
0001
,  // measure 57
0000
1000
0100
0010
0001
1000
1000
0010
,  // measure 58
0010
0100
0100
0001
0001
0010
0100
1000
,  // measure 59
0000
0001
1000
0100
0001
0000
0000
0000
;

//---------------dance-single - ----------------
#NOTES:
     dance-single:
     [Ness]:
     Medium:
     6:
     0.314515,0.338365,0.121860,0.089364,0.000000,271.000000,256.000000,15.000000,11.000000,0.000000,0.000000,0.314515,0.338365,0.121860,0.089364,0.000000,271.000000,256.000000,15.000000,11.000000,0.000000,0.000000:
0000
0000
0000
0000
,
0000
0000
0000
0000
,
0010
1000
0001
1000
,
0010
0000
1000
0100
0010
0000
0100
0000
,
0010
0001
1000
0001
,
0010
0000
0001
0100
0010
0000
0100
0000
,
0001
1000
0100
1000
,
0001
0000
1000
0001
0010
0000
0001
0000
,
0110
0100
1000
1000
,
0010
0000
0010
0000
1000
0010
1000
0000
,
0001
0100
0001
0001
,
0010
0000
0010
0000
0100
1000
0100
0000
,
1001
1000
0001
1000
,
0010
0000
1000
0010
0200
0000
0301
0000
,
0001
0000
0010
0000
0100
1000
0100
0000
,
1000
0000
0010
0000
0100
0001
0100
0000
,
0001
0010
1000
0010
,
0001
0010
0001
0010
0001
0000
0000
0000
,
1000
0010
0100
0001
,
1000
0010
1000
0010
1000
0000
0000
0000
,
2002
0000
3003
0010
0001
0000
0100
0000
,
0002
0000
0003
0010
0100
0000
1000
0000
,
0001
0101
1000
1100
,
0001
0101
1000
1100
,
2002
0000
3003
0010
1000
0000
0100
0000
,
2000
0000
3000
0010
0100
0000
0001
0000
,
1000
1100
0001
0101
,
1001
0000
0000
0000
1001
0000
0000
0010
,
0000
0010
0000
0010
0001
0000
0100
0000
,
0010
0100
0001
0000
1000
0000
0000
0100
,
0000
0100
0000
0100
0010
0000
0001
0000
,
1000
0001
1000
0000
0010
0000
0000
0100
,
0000
0100
0000
0100
0001
0000
1000
0000
,
0001
1000
0010
0000
0100
0000
0000
0010
,
0000
0010
0000
0010
1000
0000
0100
0000
,
0010
0001
1000
0000
0001
0000
0000
0100
,
0000
0100
0000
0100
0010
0000
1000
0000
,
0001
1000
0010
0000
1000
0000
0000
0100
,
0000
0100
0000
0100
0010
0000
0001
0000
,
1000
0000
0001
0000
1001
1000
0000
0001
,
0000
0010
0000
0100
0000
1000
0000
0010
,
0100
0000
0100
0000
0001
0000
0001
0010
,
0000
0000
0100
0010
,
0001
0000
1000
0000
0010
1000
0000
1000
,
0000
0001
0000
0100
0000
0010
0000
1000
,
0100
0000
0010
0000
0100
0000
1000
0001
,
0000
0000
0101
0000
0100
0000
0010
0100
,
0010
1000
1001
0010
,
0001
0010
1000
0010
,
0001
0100
0010
1000
,
0100
0010
0002
0203
,
0320
0000
2030
0000
3001
0010
0001
0000
,
1000
0010
1000
0000
0001
0000
1000
0001
,
0000
0000
0100
0000
0010
1000
0010
0000
,
1000
0001
1000
0000
0100
0000
1000
0100
,
0000
0000
0010
0000
0001
0000
0100
0001
,
0100
0000
0001
1000
0001
0000
1000
0010
,
0000
0000
0000
0000
1000
0000
0100
1000
,
0100
0000
0010
0100
0010
0000
0001
0010
,
0000
0100
0100
0100
0100
0000
0000
0000
;

//---------------dance-single - ----------------
#NOTES:
     dance-single:
     [Ness]:
     Easy:
     4:
     0.247202,0.265858,0.040620,0.146232,0.000000,213.000000,208.000000,5.000000,18.000000,0.000000,0.000000,0.247202,0.265858,0.040620,0.146232,0.000000,213.000000,208.000000,5.000000,18.000000,0.000000,0.000000:
0000
0000
0000
0000
,
0000
0000
0000
0000
,
0010
0000
0100
0000
,
0010
0000
1000
0000
,
0100
0100
0100
0100
,
0100
0100
1000
0001
,
0100
0100
0100
0100
,
0100
0100
0001
1000
,
1001
1000
0001
0001
,
1000
1000
0010
1000
,
0010
0010
0100
0100
,
0010
0010
1000
0001
,
0010
0010
0100
0100
,
0010
0100
0010
0000
,
0001
0001
1000
1000
,
0001
1000
0001
0000
,
0100
0100
0010
0010
,
1000
0001
0100
0000
,
0010
0010
0100
0100
,
0001
1000
0010
0000
,
2000
0000
3100
0010
,
0002
0000
0013
0100
,
1000
0001
1000
0001
,
0100
0010
0100
0010
,
2000
0000
3010
0100
,
0002
0000
0103
0010
,
1000
0100
0010
0001
,
1000
0000
0010
1000
,
0100
1000
0020
0000
,
0100
0130
0001
0010
,
0001
0100
0020
0000
,
0100
0130
0010
1000
,
0001
1000
0020
0000
,
0100
0130
0001
0010
,
0100
0010
0200
0000
,
0010
0310
0001
1000
,
0010
0001
0020
0000
,
0100
0130
0001
1000
,
0100
0001
0200
0000
,
0010
0310
0001
1000
,
0010
0100
0002
0000
,
1000
1003
0010
0100
,
1000
0001
2000
0000
,
0001
3001
0100
0010
,
1000
0001
0020
0000
,
0100
0130
1000
0010
,
0100
0001
0020
0000
,
0001
0031
0100
0100
,
0010
0010
0100
0010
,
1000
0100
0010
0010
,
0100
0100
0020
0230
,
0320
0230
0310
0001
,
1000
0001
0100
0010
,
0100
1001
0100
0010
,
1000
0100
0010
0001
,
1000
1001
0001
1000
,
0010
0100
0001
0010
,
0100
1001
0001
1000
,
0010
0100
0001
0010
,
0100
1001
1000
0000
;

//---------------dance-single - ----------------
#NOTES:
     dance-single:
     [Ness]:
     Beginner:
     1:
     0.110254,0.145013,0.016248,0.008124,0.000000,95.000000,93.000000,2.000000,1.000000,0.000000,0.000000,0.110254,0.145013,0.016248,0.008124,0.000000,95.000000,93.000000,2.000000,1.000000,0.000000,0.000000:
0000
0000
0000
0000
,
0000
0000
0000
0000
,
0010
0000
0000
0000
,
0100
0000
0000
0000
,
0001
0000
0000
0000
,
1000
0000
0000
0000
,
0001
0000
0000
0000
,
0010
0000
0000
0000
,
0100
0000
0000
0000
,
0000
0000
1000
1000
,
1000
0000
0000
0000
,
0000
0000
0001
0001
,
0001
0000
0000
0000
,
0010
0000
0000
0000
,
0100
0000
0000
0000
,
1000
0000
0000
0000
,
0001
0000
0000
0000
,
0100
0000
0000
0000
,
0010
0000
0000
0000
,
1000
0000
0000
0000
,
1001
0000
0010
0000
,
0010
0000
0010
0000
,
0100
0000
0000
0000
,
0000
0000
0000
0000
,
1001
0000
0010
0000
,
0010
0000
0010
0000
,
0100
0000
0000
0000
,
0000
0000
0000
0010
,
0000
0010
0000
0010
,
0000
0010
0000
1000
,
0000
0001
0000
1000
,
0000
0001
0000
0010
,
0000
0010
0000
0010
,
0000
0010
0000
0001
,
0000
1000
0000
0001
,
0000
1000
0000
0010
,
0000
0010
0000
0100
,
0000
0100
0000
0001
,
0000
0010
0000
0100
,
0000
1000
0000
0010
,
0000
0010
0000
1000
,
0000
0010
0000
0100
,
0000
0001
0000
0010
,
0000
0100
0000
1000
,
0000
0001
0000
1000
,
0000
0001
0000
0100
,
0000
0010
0000
1000
,
0000
0000
0100
0000
,
0010
0000
0100
0000
,
0010
0000
0001
0000
,
0010
0000
0002
0000
,
0003
0000
0100
0000
,
0010
0000
0100
0000
,
0010
0000
1000
0000
,
0100
0000
1000
0000
,
0100
0000
0010
0000
,
0001
0000
0010
0000
,
0001
0000
1000
0000
,
0001
0000
1000
0000
,
0001
0000
0100
0000
;
