#VERSION:0.83;
#TITLE:Play;
#SUBTITLE:;
#ARTIST:Alan Walker, K-391, Tungevaag, Mangoo;
#TITLETRANSLIT:;
#SUBTITLETRANSLIT:;
#ARTISTTRANSLIT:;
#GENRE:Play Vol. 1;
#ORIGIN:;
#CREDIT:[Ness];
#BANNER:Play.png;
#BACKGROUND:Black.png;
#PREVIEWVID:;
#JACKET:Play-jacket.png;
#CDIMAGE:;
#DISCIMAGE:Play-bg.png;
#LYRICSPATH:Play.lrc;
#CDTITLE:;
#MUSIC:Play.mp3;
#OFFSET:-0.023000;
#SAMPLESTART:45.595169;
#SAMPLELENGTH:18.823532;
#SELECTABLE:YES;
#BPMS:0.000=102.000;
#STOPS:;
#DELAYS:;
#WARPS:;
#TIMESIGNATURES:0.000=4=4;
#TICKCOUNTS:0.000=2;
#COMBOS:0.000=1;
#SPEEDS:0.000=1.000=0.000=0;
#SCROLLS:0.000=1.000;
#FAKES:;
#LABELS:0.000=Song Start;
#LASTSECONDHINT:105.341049;
#BGCHANGES:0.000=Play.avi=1.000=1=0=0=StretchNoLoop==CrossFade==,
99999=-nosongbg-=1.000=0=0=0 // don't automatically add -songbackground-
;
#KEYSOUNDS:;
#ATTACKS:
;

//---------------dance-single - ----------------
#NOTEDATA:;
#CHARTNAME:;
#STEPSTYPE:dance-single;
#DESCRIPTION:;
#CHARTSTYLE:;
#DIFFICULTY:Challenge;
#METER:10;
#RADARVALUES:0.537518,0.677833,0.242750,0.177394,0.653558,403.000000,374.000000,26.000000,19.000000,161.000000,16.000000,0.000000,0.000000,0.000000,0.537518,0.677833,0.242750,0.177394,0.653558,403.000000,374.000000,26.000000,19.000000,161.000000,16.000000,0.000000,0.000000,0.000000;
#CREDIT:;
#NOTES:
// measure 0
0000
0000
0000
0000
,  // measure 1
0000
0000
0000
0000
,  // measure 2
0000
0000
0000
0000
,  // measure 3
0000
0000
0000
0000
,  // measure 4
2100
010M
3100
0010
M001
0010
010M
1000
,  // measure 5
0M20
0001
0100
100M
0130
0001
1M00
0010
,  // measure 6
0200
100M
0010
M001
0310
1000
0M01
10M0
,  // measure 7
0200
00M1
1000
0001
M310
0100
00M1
0100
,  // measure 8
M002
10M0
0103
0001
10M0
001M
0100
M001
,  // measure 9
0020
0M01
1000
0001
M130
0010
0M01
1000
,  // measure 10
020M
1000
00M1
1000
031M
0100
10M0
0001
,  // measure 11
0200
100M
0301
0010
2000
0M00
3001
0010
,  // measure 12
M100
0000
MMMM
0000
M11M
0MM0
MM11
1M1M
,  // measure 13
MMM0
0000
MMMM
0000
1MM1
0000
11MM
M1M1
,  // measure 14
0M0M
0000
MMMM
M11M
1MM1
0000
MM11
11MM
,  // measure 15
MM00
00MM
MM00
0010
1000
0100
0001
0010
,  // measure 16
0110
0000
0M01
0000
1M00
0000
0M10
0000
1M00
0001
0M00
0010
M000
0100
M000
0010
,  // measure 17
M000
0000
0M01
0000
1M00
0000
0M10
0000
010M
1000
000M
0100
00M0
0001
00M0
0100
,  // measure 18
00M0
0000
00M1
0000
1M00
0000
0M10
0000
M100
0000
M001
0010
M000
0100
000M
0000
,  // measure 19
M11M
M11M
M11M
1000
1010
0000
0101
0000
,  // measure 20
1001
0000
0001
01M0
0000
0001
0000
0000
0001
M100
0000
0001
0000
0000
0001
01M0
0000
0001
0000
0000
0001
M100
0000
0001
,  // measure 21
0000
0000
1000
0M10
0000
1000
0000
0000
1000
001M
0000
1000
0001
0000
1000
0M10
0000
1000
0001
0000
1000
0M10
0000
1000
,  // measure 22
0001
0000
0100
M010
0000
0100
0000
0000
0100
001M
0000
0100
0000
0000
0100
M010
0000
0100
0001
0000
0000
10M0
0000
0000
,  // measure 23
0100
0000
1000
00M1
0000
1000
0000
0000
0001
1M00
0000
0001
0000
0000
1000
00M1
0000
1000
0000
0000
0001
1M00
0000
0001
,  // measure 24
0010
0000
0001
M100
0000
0010
0000
0000
1000
0100
0000
0010
0000
0000
0001
0100
0000
1000
00M0
0000
1000
0100
0000
0001
,  // measure 25
0000
0000
1000
0100
0000
0010
0000
0000
1000
001M
0000
0100
0000
0000
1000
0001
0000
0100
0000
0000
0010
100M
0000
0100
,  // measure 26
0000
0000
0010
0001
0000
1000
0000
0000
0001
0100
0000
0010
0000
0000
1000
0100
0000
0010
0000
0000
0001
1000
0000
0100
,  // measure 27
00M0
0000
1000
0001
0000
0100
0000
0000
0010
1000
0000
0000
1100
0000
0000
0000
0000
0000
0011
0000
0000
0000
0000
0000
,  // measure 28
2001
0000
0M00
0010
0000
0000
00M2
0000
0000
0000
0010
0000
0010
0000
3003
0000
,  // measure 29
0200
0001
0000
0020
0000
0000
100M
0000
1000
0000
0000
0000
1000
0000
0330
0000
,  // measure 30
0001
2000
0000
0200
000M
0000
0010
0000
0000
0000
00M1
0000
0001
0000
3300
0000
,  // measure 31
1000
0002
0000
0200
0000
0000
M010
0000
0010
0000
1000
0000
1000
0000
0313
0000
,  // measure 32
0010
0000
0000
0100
0000
0000
1M11
0000
0000
0000
0010
0000
1000
0000
0001
0000
,  // measure 33
0010
0001
0000
1000
0000
0000
11M1
0000
0000
0000
1000
0000
0001
0000
0100
0000
,  // measure 34
0010
1000
0000
0100
0000
0000
111M
0000
0000
0000
1000
0000
0001
0000
0100
0000
,  // measure 35
0010
0001
0000
0010
0000
0000
0100
0000
M110
0000
0000
0000
01M1
0000
0000
0000
,  // measure 36
0MM0
0000
1000
0MM1
0000
1000
0MM0
0000
1000
0MM1
0000
1000
0MM0
0000
1000
0MM1
0000
1000
0MM0
0000
1000
0100
0000
1000
,  // measure 37
0001
0000
0100
0010
0000
1000
010M
0000
0010
0100
0000
1000
0010
0000
0100
0001
0000
0010
0M01
0000
1000
0010
0000
1000
,  // measure 38
0100
0000
1000
0001
0000
0100
001M
0000
1000
0100
0000
0010
0001
0000
0100
0001
0000
0010
M100
0000
1000
0010
0000
0100
,  // measure 39
0001
0000
1000
0100
0000
0010
010M
0000
1000
0010
0000
0100
0001
0000
0010
0100
0000
1000
001M
0000
0100
0001
0000
0010
,  // measure 40
0100
0000
1000
0010
0000
0100
M001
0000
0001
0010
0000
0100
1000
0000
1000
0010
0000
0100
00M1
0000
0001
0010
0000
0100
,  // measure 41
1000
0000
1000
0010
0000
0010
0M01
0000
0001
0010
0000
0010
1000
0000
1000
0100
0000
0100
00M1
0000
0001
1000
0000
1000
,  // measure 42
0100
0000
0010
0001
0000
0100
001M
0000
1000
0100
0000
0001
0100
0000
1000
0100
0000
0010
0M01
0000
0010
1000
0000
0010
,  // measure 43
0100
0000
1000
0010
0000
0100
M001
0000
0010
0100
0000
0000
2000
0000
0000
0000
0000
0000
3002
0000
0000
0000
0000
0000
,  // measure 44
0103
0000
0000
0000
;

//---------------dance-single - ----------------
#NOTEDATA:;
#CHARTNAME:;
#STEPSTYPE:dance-single;
#DESCRIPTION:;
#CHARTSTYLE:;
#DIFFICULTY:Hard;
#METER:8;
#RADARVALUES:0.368127,0.451889,0.224077,0.270760,0.056019,276.000000,252.000000,24.000000,29.000000,0.000000,0.000000,0.000000,0.000000,0.000000,0.368127,0.451889,0.224077,0.270760,0.056019,276.000000,252.000000,24.000000,29.000000,0.000000,0.000000,0.000000,0.000000,0.000000;
#CREDIT:;
#NOTES:
// measure 0
0000
0000
0000
0000
,  // measure 1
0000
0000
0000
0000
,  // measure 2
0000
0000
0000
0000
,  // measure 3
0000
0000
0000
0000
,  // measure 4
0000
0001
1000
0010
0100
1000
0100
0001
,  // measure 5
2000
0000
3100
0000
0001
0100
0001
0010
,  // measure 6
0200
0000
0310
0001
1000
0001
0010
0001
,  // measure 7
0200
0000
0320
0000
2030
0000
3001
1000
,  // measure 8
0002
0000
0013
0001
1000
0010
0001
1000
,  // measure 9
0002
0000
0103
0000
1000
0001
1000
0010
,  // measure 10
0200
0000
0310
1000
0100
1000
0001
0010
,  // measure 11
0200
0000
0310
0001
2000
0000
3001
1000
,  // measure 12
2002
0000
0003
0000
0010
0000
0001
0001
,  // measure 13
0000
0000
0000
0000
3002
0000
0013
0200
,  // measure 14
0000
0000
0000
0010
0010
0000
1000
1300
,  // measure 15
0000
0000
0000
0001
1000
0000
0001
0100
,  // measure 16
0101
0001
0100
0001
0100
0001
0100
0001
,  // measure 17
0110
0010
0100
0010
0100
0010
0100
0010
,  // measure 18
1010
1000
0010
1000
0011
0001
0010
0001
,  // measure 19
0100
0100
0010
0010
2000
0000
3002
0000
,  // measure 20
0103
0010
1001
0010
1000
0010
0001
0010
,  // measure 21
0100
0010
1001
0010
1000
0100
0001
0100
,  // measure 22
1000
0010
1001
0010
0001
0010
1000
0100
,  // measure 23
0010
0100
1001
0100
0001
0010
0100
0010
,  // measure 24
0001
0100
1001
0001
0010
0100
1001
1000
,  // measure 25
0010
1000
1001
0100
0010
1000
1001
0010
,  // measure 26
0100
0001
1001
0100
0001
0010
1001
0010
,  // measure 27
0100
1000
1001
0010
0200
0000
0320
0000
,  // measure 28
0032
0000
1000
0100
,  // measure 29
2003
0000
0100
0010
,  // measure 30
0200
0000
3300
0110
,  // measure 31
0020
0001
0100
0130
,  // measure 32
0002
0000
1000
0000
0010
1000
0013
0000
,  // measure 33
2000
0000
0001
0000
0100
0010
3001
0000
,  // measure 34
1000
0001
0000
0200
0000
0000
0010
0000
0300
0000
0110
0000
0110
0000
0000
0000
,  // measure 35
0001
1000
0100
0010
0002
0000
2003
0000
,  // measure 36
3100
0100
0000
0100
0000
0100
0000
0100
,  // measure 37
1100
0100
0010
0001
0100
1000
0100
0001
,  // measure 38
1000
0010
0100
0001
1000
0100
0001
0100
,  // measure 39
1000
0010
0100
0001
0010
0100
1000
0001
,  // measure 40
0100
0000
0010
0000
1010
0000
0010
0000
1000
0001
0000
0010
0000
0100
0000
0010
,  // measure 41
0000
0000
0001
0000
0101
0000
0100
0000
0010
1000
0000
0100
0000
1000
0000
0010
,  // measure 42
0000
0000
0100
0000
1001
0000
0100
0000
0001
0000
1000
0100
0000
0010
0000
0000
,  // measure 43
0001
1000
1001
0010
0200
0000
0302
0000
,  // measure 44
1003
0000
0000
0000
;

//---------------dance-single - ----------------
#NOTEDATA:;
#CHARTNAME:;
#STEPSTYPE:dance-single;
#DESCRIPTION:;
#CHARTSTYLE:;
#DIFFICULTY:Medium;
#METER:6;
#RADARVALUES:0.272094,0.349187,0.130712,0.196067,0.000000,204.000000,190.000000,14.000000,21.000000,0.000000,0.000000,0.000000,0.000000,0.000000,0.272094,0.349187,0.130712,0.196067,0.000000,204.000000,190.000000,14.000000,21.000000,0.000000,0.000000,0.000000,0.000000,0.000000;
#CREDIT:;
#NOTES:
// measure 0
0000
0000
0000
0000
,  // measure 1
0000
0000
0000
0000
,  // measure 2
0000
0000
0000
0000
,  // measure 3
0000
0000
0000
0000
,  // measure 4
0002
0000
1003
0000
0001
0010
0001
0000
,  // measure 5
2000
0000
3100
0000
0010
0100
1000
0000
,  // measure 6
0020
0000
0130
0000
0001
1000
0010
0100
,  // measure 7
0010
0000
0000
0000
,  // measure 8
2000
0000
3100
0000
0001
1000
0100
0000
,  // measure 9
0002
0000
1003
0000
0010
0001
1000
0000
,  // measure 10
0020
0000
0130
0000
1000
0001
0100
0000
,  // measure 11
0020
1030
0200
0301
,  // measure 12
2002
0000
3003
0000
0010
0000
1000
0001
,  // measure 13
0000
0000
0000
0000
0010
0000
0001
1000
,  // measure 14
0000
0000
0000
0001
1000
0000
0010
0100
,  // measure 15
0001
0000
1000
0000
0100
0000
0010
0100
,  // measure 16
0010
0010
0011
1010
,  // measure 17
0100
0010
1100
0101
,  // measure 18
0010
0100
0010
0100
0010
0100
0010
0100
,  // measure 19
0001
1000
0001
1000
0001
0000
1000
0000
,  // measure 20
1001
0000
0010
0000
1000
0010
1000
0000
,  // measure 21
0001
0010
0001
0000
0110
0000
1001
0000
,  // measure 22
0001
0000
1000
0000
0001
0100
0001
0000
,  // measure 23
1000
0100
1000
0000
0101
0000
1100
0000
,  // measure 24
0001
1000
0010
0000
1000
0100
0001
0000
,  // measure 25
0001
0010
0100
0000
0001
0100
1000
0000
,  // measure 26
0001
0100
0001
0000
1000
0100
1000
0000
,  // measure 27
0110
1001
0010
1000
,  // measure 28
0200
0000
0310
0001
,  // measure 29
2000
0000
3010
1000
,  // measure 30
0002
0000
0103
0010
,  // measure 31
2000
0000
0000
0000
3001
1000
0001
1000
,  // measure 32
0200
0000
0310
0000
0001
0010
0001
0000
,  // measure 33
2000
0000
3010
0000
0100
0001
0100
0000
,  // measure 34
0002
0000
1003
0000
0001
0010
0100
0000
,  // measure 35
0020
0031
0200
1300
,  // measure 36
0000
0000
0000
0000
,  // measure 37
2002
0000
3003
0000
0010
1000
0100
0000
,  // measure 38
1000
0100
0001
0001
1000
0001
0100
0000
,  // measure 39
0001
0000
0110
0000
1000
0010
0100
0000
,  // measure 40
0010
1000
0001
0000
0010
0100
1000
0000
,  // measure 41
0001
0100
0010
0000
1000
0100
0001
0000
,  // measure 42
0010
0100
1000
0000
0001
0010
1000
0000
,  // measure 43
0010
0100
0010
0100
0001
0000
1000
0000
,  // measure 44
0100
0000
0000
0000
;

//---------------dance-single - ----------------
#NOTEDATA:;
#CHARTNAME:;
#STEPSTYPE:dance-single;
#DESCRIPTION:;
#CHARTSTYLE:;
#DIFFICULTY:Easy;
#METER:4;
#RADARVALUES:0.190732,0.246485,0.046683,0.308106,0.000000,143.000000,138.000000,5.000000,33.000000,0.000000,0.000000,0.000000,0.000000,0.000000,0.190732,0.246485,0.046683,0.308106,0.000000,143.000000,138.000000,5.000000,33.000000,0.000000,0.000000,0.000000,0.000000,0.000000;
#CREDIT:;
#NOTES:
// measure 0
0000
0000
0000
0000
,  // measure 1
0000
0000
0000
0000
,  // measure 2
0000
0000
0000
0000
,  // measure 3
0000
0000
0000
0000
,  // measure 4
0200
1300
0010
0100
,  // measure 5
0002
1003
0010
0100
,  // measure 6
2000
3100
0001
1000
,  // measure 7
0100
0010
0100
1000
,  // measure 8
0020
0130
0001
0100
,  // measure 9
2000
3100
0001
1000
,  // measure 10
0002
0013
1000
0100
,  // measure 11
0010
0000
0001
1000
,  // measure 12
2002
3003
0010
0000
,  // measure 13
0001
0000
0010
1000
,  // measure 14
0010
0000
0100
0000
,  // measure 15
0001
0000
1000
0001
,  // measure 16
0200
0300
0020
0030
,  // measure 17
2000
3000
0002
0003
,  // measure 18
0100
0100
0010
0010
,  // measure 19
1000
0001
0100
0010
,  // measure 20
2000
0100
0001
3100
,  // measure 21
0002
0100
1000
0103
,  // measure 22
2000
0010
0001
3010
,  // measure 23
0002
0010
1000
0013
,  // measure 24
2000
0100
0010
3100
,  // measure 25
0002
0010
0100
0013
,  // measure 26
2000
0010
0001
3100
,  // measure 27
0002
0010
1000
0103
,  // measure 28
0020
1000
0100
0031
,  // measure 29
0200
0001
0010
1300
,  // measure 30
0001
1000
0010
0100
,  // measure 31
0002
0003
2000
3000
,  // measure 32
0200
0000
0310
0100
,  // measure 33
2000
0000
3001
1000
,  // measure 34
0020
0000
0130
0001
,  // measure 35
2000
0000
3001
1000
,  // measure 36
0000
0000
0000
0000
,  // measure 37
2002
3003
0020
2030
,  // measure 38
3200
0000
0010
0310
,  // measure 39
0001
1000
0010
0100
,  // measure 40
0001
1000
0001
1001
,  // measure 41
0010
0100
0010
0110
,  // measure 42
1000
0100
0001
1001
,  // measure 43
0010
0100
0001
1000
,  // measure 44
0100
0000
0000
0000
;

//---------------dance-single - ----------------
#NOTEDATA:;
#CHARTNAME:;
#STEPSTYPE:dance-single;
#DESCRIPTION:;
#CHARTSTYLE:;
#DIFFICULTY:Beginner;
#METER:1;
#RADARVALUES:0.117374,0.143783,0.028010,0.056019,0.000000,88.000000,85.000000,3.000000,6.000000,0.000000,0.000000,0.000000,0.000000,0.000000,0.117374,0.143783,0.028010,0.056019,0.000000,88.000000,85.000000,3.000000,6.000000,0.000000,0.000000,0.000000,0.000000,0.000000;
#CREDIT:;
#NOTES:
// measure 0
0000
0000
0000
0000
,  // measure 1
0000
0000
0000
0000
,  // measure 2
0000
0000
0000
0000
,  // measure 3
0000
0000
0000
0000
,  // measure 4
0001
0000
0010
0000
,  // measure 5
0100
0000
1000
1000
,  // measure 6
1000
0000
0001
0001
,  // measure 7
0001
0000
0000
0000
,  // measure 8
1000
0000
0010
0000
,  // measure 9
0100
0000
0001
0001
,  // measure 10
0001
0000
1000
1000
,  // measure 11
1000
0000
0010
0000
,  // measure 12
0100
0000
0010
0010
,  // measure 13
0000
0000
0010
0010
,  // measure 14
0000
0000
1000
0000
,  // measure 15
0001
0000
0010
0010
,  // measure 16
0000
0000
0200
0300
,  // measure 17
0020
0030
0200
0300
,  // measure 18
0010
0010
0010
0010
,  // measure 19
0010
0000
0001
0000
,  // measure 20
0200
0300
0000
1001
,  // measure 21
0000
0010
0000
1000
,  // measure 22
0000
0010
0000
0001
,  // measure 23
0000
0010
0000
1001
,  // measure 24
0000
0100
0000
1000
,  // measure 25
0000
0100
0000
0001
,  // measure 26
0000
0010
0000
0100
,  // measure 27
0000
0000
0010
0010
,  // measure 28
0010
0000
0000
0000
,  // measure 29
1000
0000
0001
0000
,  // measure 30
1000
0000
0000
0100
,  // measure 31
0100
0000
0010
0000
,  // measure 32
0010
0000
0000
0001
,  // measure 33
0001
0000
1000
0000
,  // measure 34
0100
0000
0000
0000
,  // measure 35
0010
0000
0001
0000
,  // measure 36
1000
0000
0000
0000
,  // measure 37
2002
3003
0010
0000
,  // measure 38
0001
0000
0010
0000
,  // measure 39
1000
0000
0100
0000
,  // measure 40
0001
0001
0001
0000
,  // measure 41
1000
1000
1000
0000
,  // measure 42
0010
0000
0100
0000
,  // measure 43
0001
0000
1000
0000
,  // measure 44
0100
0000
0000
0000
;
