#TITLE:Pink Pony Club;
#SUBTITLE:;
#ARTIST:Chappell Roan;
#TITLETRANSLIT:;
#SUBTITLETRANSLIT:;
#ARTISTTRANSLIT:;
#GENRE:The Rise and Fall of a Midwest Princess;
#CREDIT:[Ness];
#BANNER:Pink Pony Club.png;
#BACKGROUND:Black.png;
#LYRICSPATH:Pink Pony Club.lrc;
#CDTITLE:;
#MUSIC:Pink Pony Club.mp3;
#OFFSET:-0.206999;
#SAMPLESTART:99.913231;
#SAMPLELENGTH:19.626167;
#LASTBEATHINT:248.000000;
#SELECTABLE:YES;
#BPMS:0.000000=105.000000
,95.750000=107.000000
;
#STOPS:
;
#BGCHANGES:-0.356=Pink Pony Club.avi=1.000=1=0=0=StretchNoLoop==CrossFade==,
99999=-nosongbg-=1.000=0=0=0 // don't automatically add -songbackground-
;
#KEYSOUNDS:;
#ATTACKS:;

//---------------dance-single - ----------------
#NOTES:
     dance-single:
     :
     Hard:
     7:
     0.377916,0.367230,0.102008,0.115609,0.091807,389.000000,374.000000,15.000000,17.000000,0.000000,0.000000,0.377916,0.367230,0.102008,0.115609,0.091807,389.000000,374.000000,15.000000,17.000000,0.000000,0.000000:
0000
0000
0000
0000
,
0000
0000
0000
0000
,
0000
0000
0000
0000
,
0000
0000
0000
0000
,
0002
0000
0000
0003
,
0020
0000
0000
0030
,
0200
0000
0000
0300
,
2000
0000
0000
3000
,
0001
0100
0001
0100
0001
0100
0010
0000
,
1000
0001
1000
0001
1000
0001
0010
0000
,
0100
1000
0100
1000
0100
1000
0010
0000
,
0100
0001
0100
0001
0100
0001
1000
0000
,
0001
0010
0001
0010
0001
1000
0010
0000
,
1000
0100
1000
0100
1000
0001
0100
0000
,
0001
1000
0001
1000
0010
0100
0001
0000
,
1000
0001
1000
0001
0100
0010
1000
0000
,
2002
0000
3003
0000
0010
1000
0010
0200
,
0000
0000
0000
0000
0300
0000
0001
1000
0001
0000
0010
0000
0100
0000
1000
0000
,
0020
0000
0000
0000
0000
0000
1030
0001
1000
0000
0001
0000
0100
0000
0010
0000
,
1000
0001
0000
0100
0000
0010
0000
2000
,
0000
0000
0000
0000
3001
1000
0100
0010
,
0002
0000
0000
0000
0000
0000
1003
0001
1000
0000
0010
0000
0100
0000
0010
0000
,
2000
0000
0000
3100
0010
0001
1000
0001
,
0000
0100
0000
0010
0000
1000
0000
0000
,
1001
0000
0101
1000
0100
0000
1100
0000
,
0010
0000
0100
0001
0100
0000
0010
0000
1000
0000
0100
0000
1000
0000
0100
0000
,
0010
0000
0001
1000
1001
0000
0010
0100
,
0000
0100
0010
1000
0100
0010
0001
0000
,
1000
0000
0100
0000
1000
0000
0001
0100
0001
0000
1000
0000
0010
0000
0000
0000
,
0100
0000
0001
0000
0010
0000
0100
0010
0100
0000
1000
0000
0001
0000
0000
0000
,
1000
0000
0010
0000
1000
0000
0001
0100
0010
0000
1000
0000
0100
0000
1000
0000
,
0001
0000
0010
0000
0100
0000
1000
0001
0010
0000
0100
0000
0010
0000
0000
0000
,
0001
0000
1000
0000
0010
0000
0100
0001
1000
0000
0100
0000
1000
0000
0000
0000
,
0010
0000
1000
0000
0100
0000
1000
0010
0100
0000
0001
0000
0010
0000
0000
0000
,
0001
0000
1000
0000
0010
0000
0100
0001
1000
0000
0001
0000
0010
0000
0100
0000
,
1000
0000
0010
0000
1000
0000
0100
0010
0001
0000
1000
0000
0100
0000
0000
0000
,
1000
0000
0001
0000
1000
0000
0001
0000
0100
0000
0010
1000
0100
0000
0000
0000
,
1000
0000
0001
0000
1000
0000
0001
0000
0100
0000
0001
0010
0100
0000
0000
0000
,
0010
0000
0001
0000
1000
0000
0001
0000
1000
0000
0100
0010
0001
0000
0000
0000
,
0010
0000
0100
0000
1000
0000
0001
0000
1000
0000
0010
0100
0001
0000
0000
0000
,
1000
0000
0100
0000
1000
0000
0001
0000
0100
0000
0010
1000
0100
0000
0000
0000
,
1000
0000
0001
0000
1000
0000
0001
0000
0100
0000
0010
1000
0001
0000
0000
0000
,
0010
0000
0100
0000
0010
0000
0100
0000
0010
0000
0001
1000
0100
0000
0000
0000
,
1000
0001
1000
0001
0100
0010
1001
0000
,
1020
0000
0130
0000
0001
1000
0100
0010
,
0001
0000
0000
0000
1000
0000
0010
1000
0100
0000
1000
0000
0001
0000
0100
0000
,
0010
0000
0000
0000
1000
0000
0001
0010
0100
0000
1000
0000
0100
0000
0010
0000
,
0001
1000
0001
0100
0001
0010
0001
2000
,
0010
0000
0001
0000
3100
0010
0001
1000
,
0100
0000
0000
0000
1001
0000
0010
1000
0010
0000
0100
0000
0001
0000
0010
0000
,
0100
0000
1000
0001
0100
0010
0100
0001
,
1000
0100
1000
0010
1000
0001
1000
0000
,
1010
0000
1001
0100
0001
0000
1000
0200
,
0000
0000
0310
0100
1000
0000
0001
0000
0100
0000
0010
0000
1000
0000
0001
0000
,
0100
0000
0110
0001
0020
0000
0130
2000
,
0000
0000
3001
1000
0010
0000
0100
0000
0001
0000
1000
0000
0100
0000
0010
0000
,
0002
0000
0013
0100
0110
0000
1000
0001
,
1000
0000
0010
0100
0001
0000
1000
0000
0100
0000
1000
0000
0010
0000
0100
0000
,
0110
0000
0001
1000
0100
0000
0010
1001
,
0000
0000
0010
0000
0100
0000
0010
0000
0001
1000
0001
1000
0001
0000
0000
0000
,
1001
0000
0000
0000
;

//---------------dance-single - ----------------
#NOTES:
     dance-single:
     :
     Medium:
     5:
     0.249677,0.265221,0.054404,0.142811,0.000000,257.000000,249.000000,8.000000,21.000000,0.000000,0.000000,0.249677,0.265221,0.054404,0.142811,0.000000,257.000000,249.000000,8.000000,21.000000,0.000000,0.000000:
0000
0000
0000
0000
,
0000
0000
0000
0000
,
0000
0000
0000
0000
,
0000
0000
0000
0000
,
0002
0000
0000
0003
,
0020
0000
0000
0030
,
0200
0000
0000
0300
,
2000
0000
0000
3000
,
0001
1000
0002
0103
,
1000
0001
2000
3010
,
0100
0010
0200
0301
,
0010
0100
2000
3010
,
1000
0100
2000
3001
,
0100
0001
0020
0031
,
0100
0010
2000
3001
,
0010
0100
0002
1003
,
2002
0000
3003
0000
1000
0001
0100
0001
,
2000
0000
0000
0000
3001
0010
0001
0010
,
0200
0000
0000
0000
1300
0001
1000
0001
,
0010
0100
1000
0001
,
0200
0000
0000
0000
0310
0100
0010
0100
,
0002
0000
0000
0000
0013
0100
0010
0100
,
2000
0000
0000
0000
3001
1000
0001
1000
,
0010
0100
0001
1000
,
0100
0000
0010
0100
1000
0000
0001
0000
,
1000
0000
0010
1000
0010
0000
0100
0000
,
1001
0000
0001
0010
0001
0000
1000
0000
,
0100
0000
1000
0010
1000
0000
1001
0000
,
0010
0010
0000
0000
1000
0000
0001
0000
,
1000
1000
0000
0000
0100
0000
0010
0000
,
0001
0001
0010
0000
0100
0000
1000
0000
,
0010
0010
0100
0000
0001
0000
1000
0000
,
0100
0100
0000
0000
1000
0000
0001
0000
,
1000
1000
0000
0000
0010
0000
1000
0000
,
0001
0001
0000
0000
0010
0000
0001
0000
,
0010
0010
0000
0000
0100
0000
1000
0000
,
0001
0000
0100
0000
0001
1000
0001
0000
,
0010
0000
0100
0000
1000
0001
1000
0000
,
0010
0000
1000
0000
0100
0010
0100
0000
,
0010
0000
0001
0000
0100
0010
0100
0000
,
0001
0000
1000
0000
0010
1000
0010
0000
,
1000
0000
0001
0000
0010
0001
0010
0000
,
0001
0000
1000
0000
0100
0010
0100
0000
,
1000
0000
0001
0000
0100
0001
1000
0000
,
2002
0000
3003
0000
0001
0010
0001
0010
,
0100
0000
1000
0000
0001
1000
0001
1000
,
0010
0000
0100
0000
0010
0100
0010
0100
,
0001
0010
0100
1000
,
0010
0000
0100
0000
0010
1000
0010
1000
,
0010
0000
0100
0000
0001
1000
0001
1000
,
0100
0000
0010
0000
0001
0010
0001
0010
,
0100
1000
0001
0100
,
0101
0000
0001
1000
0100
0000
0000
0000
,
0010
0001
1000
0100
,
1100
0000
1000
0001
0100
0000
0000
0000
,
0010
0000
1000
0000
0001
1000
0010
0100
,
0001
0010
0100
0000
,
1000
0001
0100
0010
1000
0000
0001
0000
,
1001
0000
0010
1000
0001
0000
0000
0000
,
1001
0000
0100
0001
1000
0100
1000
0000
,
0100
0000
0000
0000
;

//---------------dance-single - ----------------
#NOTES:
     dance-single:
     :
     Easy:
     3:
     0.172928,0.202316,0.047604,0.231219,0.000000,178.000000,171.000000,7.000000,34.000000,0.000000,0.000000,0.172928,0.202316,0.047604,0.231219,0.000000,178.000000,171.000000,7.000000,34.000000,0.000000,0.000000:
// measure 0
0000
0000
0000
0000
,  // measure 1
0000
0000
0000
0000
,  // measure 2
0000
0000
0000
0000
,  // measure 3
0000
0000
0000
0000
,  // measure 4
0002
0000
0000
0003
,  // measure 5
0020
0000
0000
0030
,  // measure 6
0200
0000
0000
0300
,  // measure 7
2000
0000
0000
3000
,  // measure 8
0010
1000
0100
0100
,  // measure 9
1000
0001
1000
1000
,  // measure 10
0001
0100
0001
0001
,  // measure 11
0010
0001
0010
0010
,  // measure 12
0100
0010
0100
0100
,  // measure 13
0010
1000
0010
0010
,  // measure 14
1000
0001
1000
1000
,  // measure 15
0100
0001
0100
0100
,  // measure 16
0020
0000
1030
0100
,  // measure 17
0002
0000
1003
0001
,  // measure 18
0020
0000
0130
0010
,  // measure 19
0002
0000
1003
1000
,  // measure 20
0020
0000
1030
0100
,  // measure 21
0020
0000
0130
1000
,  // measure 22
0002
0000
0103
0010
,  // measure 23
2000
0000
3010
0000
,  // measure 24
1001
0010
0200
0300
,  // measure 25
0001
1000
0001
1000
,  // measure 26
0010
0100
0020
0030
,  // measure 27
1000
0100
0001
0000
,  // measure 28
2002
3003
0000
0000
,  // measure 29
1000
0001
0200
0300
,  // measure 30
0001
0001
1000
1000
,  // measure 31
0001
0010
0200
0300
,  // measure 32
0010
0010
0100
0000
,  // measure 33
1000
0010
0100
0000
,  // measure 34
0001
1000
0100
0010
,  // measure 35
0001
0010
0001
0000
,  // measure 36
2000
3000
0002
0003
,  // measure 37
1000
0010
2000
3000
,  // measure 38
0002
0003
0020
0030
,  // measure 39
0001
1000
0002
0003
,  // measure 40
0200
0300
0020
0030
,  // measure 41
2000
3000
0200
0300
,  // measure 42
0010
0100
0010
0100
,  // measure 43
1000
0001
1000
0001
,  // measure 44
0200
0300
0020
0030
,  // measure 45
2000
3000
0001
1000
,  // measure 46
0100
0100
0010
0100
,  // measure 47
1000
0010
0100
0001
,  // measure 48
0020
0030
0001
0001
,  // measure 49
2000
3000
0001
0100
,  // measure 50
0020
0030
1000
0001
,  // measure 51
0100
0010
1000
0001
,  // measure 52
1000
0100
1100
0000
,  // measure 53
1000
0010
0100
0001
,  // measure 54
0010
0001
0011
0000
,  // measure 55
0001
1000
0010
0100
,  // measure 56
0001
0100
0101
0000
,  // measure 57
1000
0001
0100
0010
,  // measure 58
1000
0010
1010
0000
,  // measure 59
0010
0100
1001
0000
;

//---------------dance-single - ----------------
#NOTES:
     dance-single:
     :
     Beginner:
     1:
     0.113666,0.141621,0.000000,0.068005,0.000000,117.000000,117.000000,0.000000,10.000000,0.000000,0.000000,0.113666,0.141621,0.000000,0.068005,0.000000,117.000000,117.000000,0.000000,10.000000,0.000000,0.000000:
// measure 0
0000
0000
0000
0000
,  // measure 1
0000
0000
0000
0000
,  // measure 2
0000
0000
0000
0000
,  // measure 3
0000
0000
0000
0000
,  // measure 4
0001
0000
0000
0000
,  // measure 5
0010
0000
0000
0000
,  // measure 6
0100
0000
0000
0000
,  // measure 7
1000
0000
0000
0000
,  // measure 8
0001
0001
0001
0000
,  // measure 9
1000
1000
1000
0000
,  // measure 10
0010
0010
0010
0000
,  // measure 11
0100
0100
0100
0000
,  // measure 12
0001
0000
0010
0000
,  // measure 13
0100
0000
1000
0000
,  // measure 14
0010
0010
0010
0000
,  // measure 15
0100
0100
0100
0000
,  // measure 16
0002
0000
0003
0000
,  // measure 17
2000
0000
3000
0000
,  // measure 18
0020
0000
0030
0000
,  // measure 19
0200
0000
0300
0000
,  // measure 20
0020
0000
0030
0000
,  // measure 21
2000
0000
3000
0000
,  // measure 22
0020
0000
0030
0000
,  // measure 23
0002
0003
0000
0000
,  // measure 24
0010
0010
0010
0000
,  // measure 25
0001
0000
1000
0000
,  // measure 26
0010
0010
0010
0000
,  // measure 27
1000
1000
1000
0000
,  // measure 28
0001
0000
0000
0000
,  // measure 29
0010
0000
0000
0000
,  // measure 30
0100
0000
0100
0000
,  // measure 31
1000
0000
1000
0000
,  // measure 32
0010
0000
0000
0000
,  // measure 33
0100
0000
0001
0000
,  // measure 34
0010
0000
0100
0000
,  // measure 35
1000
0000
0001
0000
,  // measure 36
0100
0100
0100
0000
,  // measure 37
0010
0010
0010
0000
,  // measure 38
1000
1000
1000
0000
,  // measure 39
0001
0001
0001
0000
,  // measure 40
0010
0010
0010
0000
,  // measure 41
0100
0100
0100
0000
,  // measure 42
1000
1000
1000
0000
,  // measure 43
0001
0001
0001
0000
,  // measure 44
0200
0000
0300
0000
,  // measure 45
0020
0000
0030
0000
,  // measure 46
1000
0000
0001
0000
,  // measure 47
1000
0000
0100
0000
,  // measure 48
0010
0000
0001
0000
,  // measure 49
0100
0000
0010
0000
,  // measure 50
1000
0000
0001
0000
,  // measure 51
0100
0000
0010
0000
,  // measure 52
0100
0100
0100
0000
,  // measure 53
0001
0000
0010
0000
,  // measure 54
1000
1000
1000
0000
,  // measure 55
0100
0000
0001
0000
,  // measure 56
0010
0010
0010
0000
,  // measure 57
1000
0000
0100
0000
,  // measure 58
0001
0001
0001
0000
,  // measure 59
1000
1000
1000
0000
;
