#TITLE:Pineapple Crush;
#SUBTITLE:;
#ARTIST:Guard;
#TITLETRANSLIT:;
#SUBTITLETRANSLIT:;
#ARTISTTRANSLIT:;
#GENRE:Pineapple Crush;
#CREDIT:;
#BANNER:Pineapple Crush-bn.png;
#BACKGROUND:Pineapple Crush-bg.png;
#LYRICSPATH:;
#CDTITLE:;
#MUSIC:Pineapple Crush.mp3;
#OFFSET:-1.555000;
#SAMPLESTART:64.176567;
#SAMPLELENGTH:22.666672;
#LASTBEATHINT:195.000000;
#SELECTABLE:YES;
#BPMS:0.000000=90.000000
;
#STOPS:
;
#BGCHANGES:;
#KEYSOUNDS:;
#ATTACKS:;

//---------------dance-single - ----------------
#NOTES:
     dance-single:
     :
     Hard:
     6:
     0.268827,0.283750,0.007409,0.059269,0.022226,254.000000,253.000000,1.000000,8.000000,0.000000,0.000000,0.268827,0.283750,0.007409,0.059269,0.022226,254.000000,253.000000,1.000000,8.000000,0.000000,0.000000:
0000
0000
0000
0000
,
0000
0000
0000
0000
,
0000
0000
0000
0000
,
0000
0000
0000
0000
,
0001
0000
1000
0000
0001
0010
0100
1000
,
0001
0000
1000
0000
0010
0100
0001
1000
,
0100
0000
0010
0000
0001
1000
0010
0100
,
0001
0000
1000
0000
0100
1000
0001
0000
,
0100
0000
0000
0100
0000
0000
0001
0000
1000
0000
0001
0000
0100
0000
0000
0000
,
0010
0000
0000
0010
0000
0000
1000
0000
0001
0000
1000
0000
0100
0000
0000
0000
,
1000
0010
0100
0000
0001
0000
0010
0001
,
1000
0000
0010
1000
0001
0000
0100
0000
,
0001
0000
0010
0100
1000
0000
0001
0000
,
0100
0000
0001
1000
0100
0000
0010
0001
,
0100
0010
0100
0000
0010
0000
1000
0001
,
1000
0000
0100
1000
0001
1000
0100
0000
,
1000
0010
0001
0010
2000
0000
0001
0000
,
3100
0000
0000
0010
,
0001
0100
1000
0100
0002
0000
1000
0000
,
0100
1003
0000
1001
,
0001
0010
0100
1000
0002
0000
1000
0010
,
1003
0000
0010
1000
0001
1000
0100
0000
,
0010
0000
0001
1000
0001
0100
0010
0000
,
1000
0000
0001
0000
0010
0100
1000
0001
,
0100
0000
0000
0000
0001
0000
0010
0000
0100
0000
0000
0100
1000
0000
0001
0000
,
1000
0000
0010
0010
1000
0100
0010
0001
,
1000
0000
0000
0000
0010
0000
1000
0000
0001
0100
0000
0000
0001
0000
0010
0000
,
0100
0000
0010
0001
1000
0100
0010
0001
,
0100
0000
0000
0000
0010
0000
1000
0000
0001
0100
0000
0001
0100
0000
0010
0000
,
0100
0000
0001
0010
0100
1000
0010
0000
,
0100
0000
1000
0001
1000
0000
0001
1000
,
0001
0000
0100
0010
1000
0001
0100
0000
,
0010
0000
1000
0000
0001
0010
0100
1000
,
0001
0000
1000
0000
0010
0100
0001
0000
,
0010
0000
0100
0000
0010
0001
1000
0100
,
0010
0000
0100
0000
1000
0001
0100
0000
,
0010
0000
1000
0000
0001
0010
0100
1000
,
0010
0000
0100
0000
0001
1000
0100
0100
,
0001
0000
1000
0000
0001
1000
0010
0100
,
0001
0000
1000
0001
0100
0010
1000
0000
,
0100
0010
0100
0010
0200
0000
0000
0000
,
2300
0000
3002
0010
,
0013
0100
0010
0001
0200
0000
0320
0000
,
1000
0000
0030
0100
,
0001
0100
1000
0100
0001
1000
0001
1000
,
0100
0000
0010
0000
0001
1000
0100
0100
,
0001
0000
0010
0000
0001
0100
0010
1000
,
0100
0000
0010
0000
0100
1000
0100
0100
;

//---------------dance-single - ----------------
#NOTES:
     dance-single:
     :
     Medium:
     5:
     0.209558,0.212257,0.000000,0.140764,0.000000,198.000000,198.000000,0.000000,19.000000,0.000000,0.000000,0.209558,0.212257,0.000000,0.140764,0.000000,198.000000,198.000000,0.000000,19.000000,0.000000,0.000000:
0000
0000
0000
0000
,
0000
0000
0000
0000
,
0000
0000
0000
0000
,
0000
0000
0000
0000
,
0001
0000
1000
0000
0100
1000
0100
1000
,
0100
0000
0010
0000
0001
0010
0001
0000
,
0100
0000
0010
0000
0100
0010
0100
0010
,
1000
0000
0001
0000
1000
0010
1000
0000
,
0000
0000
0000
0000
0001
0010
0001
0000
,
0200
0000
0300
0000
0010
1000
0010
0000
,
0100
0001
0010
0100
,
1000
0001
0010
0001
,
2000
0000
3000
0000
0010
0100
0001
0000
,
0010
0000
0100
1000
0100
0000
0010
0000
,
0001
1000
0010
0100
,
0002
0000
0003
0000
1000
0001
1000
0000
,
0001
0010
0001
0010
0002
0000
0003
0000
,
0200
0300
0010
1000
,
0100
1000
0100
1000
0100
0000
0010
0000
,
0002
0003
0000
1000
,
0001
1000
0001
1000
0002
0000
0003
0000
,
0000
0000
0100
0000
0010
0000
1000
0001
,
2000
3000
0010
0100
,
0002
0000
0003
0000
0010
0100
0010
0100
,
0020
0000
0030
0000
0001
1000
0001
0000
,
0200
0000
0300
0000
0010
1000
0010
0000
,
0200
0000
0300
0000
0001
1000
0001
0000
,
0020
0000
0030
0000
0100
1000
0100
0000
,
0010
0000
0001
1000
0001
0000
0100
0000
,
0010
1000
0100
0010
,
0002
0003
2000
3000
,
0100
0000
0010
0000
0001
1000
0001
0000
,
0100
0000
0010
0000
1000
0010
1000
0010
,
1000
0000
0100
0000
0010
0001
0010
0000
,
0001
0000
0100
0000
0001
0010
0001
0010
,
0001
0000
1000
0000
0100
1000
0100
0000
,
0010
0000
0001
0000
1000
0001
1000
0001
,
0100
0000
0010
0000
0100
0010
0100
0000
,
0001
0000
1000
0000
0001
1000
0100
1000
,
0001
0000
1000
0000
0001
0100
0001
0000
,
0010
0100
2000
3000
,
0002
0003
0200
0300
,
0010
1000
0001
0100
0010
0000
0100
0000
,
0002
0000
0003
1000
,
0010
1000
0010
1000
0010
0000
0100
0000
,
0001
0000
0010
0000
0100
1000
0001
0000
,
0010
0000
0100
0000
0010
0100
0010
0001
,
0010
0000
0100
0000
1000
0100
1000
0000
;

//---------------dance-single - ----------------
#NOTES:
     dance-single:
     :
     Easy:
     2:
     0.139705,0.159193,0.000000,0.000000,0.000000,132.000000,132.000000,0.000000,0.000000,0.000000,0.000000,0.139705,0.159193,0.000000,0.000000,0.000000,132.000000,132.000000,0.000000,0.000000,0.000000,0.000000:
// measure 0
0000
0000
0000
0000
,  // measure 1
0000
0000
0000
0000
,  // measure 2
0000
0000
0000
0000
,  // measure 3
0000
0000
0000
0000
,  // measure 4
0001
0001
1000
1000
,  // measure 5
0001
0001
1000
0000
,  // measure 6
0010
0010
0100
0100
,  // measure 7
0010
0010
0100
0000
,  // measure 8
0001
0000
0010
0000
,  // measure 9
0100
0000
1000
0000
,  // measure 10
0010
0000
0100
0000
,  // measure 11
0001
0000
1000
1000
,  // measure 12
1000
0000
0100
0000
,  // measure 13
0010
0000
0001
0000
,  // measure 14
0100
0000
0010
0010
,  // measure 15
1000
0000
0001
0001
,  // measure 16
0001
0010
0100
0000
,  // measure 17
1000
0000
1000
0000
,  // measure 18
1000
0010
0100
0001
,  // measure 19
0000
0000
0000
0010
,  // measure 20
0010
0100
1000
0001
,  // measure 21
0100
0010
1000
0000
,  // measure 22
0001
0010
0001
0000
,  // measure 23
1000
0001
1000
0000
,  // measure 24
0001
0100
1000
0100
,  // measure 25
0001
0000
1000
0010
,  // measure 26
0001
0010
1000
0010
,  // measure 27
0001
0000
1000
0100
,  // measure 28
0001
0100
1000
0100
,  // measure 29
0001
0000
0001
1000
,  // measure 30
0100
0001
0100
1000
,  // measure 31
0100
0001
1000
0000
,  // measure 32
0001
0010
0100
0100
,  // measure 33
1000
0100
0010
0000
,  // measure 34
0001
0100
0010
0010
,  // measure 35
1000
0010
0100
0000
,  // measure 36
0001
1000
0001
0001
,  // measure 37
1000
0001
1000
1000
,  // measure 38
0001
0010
0100
0100
,  // measure 39
0010
0100
0010
0000
,  // measure 40
0001
0001
0100
0000
,  // measure 41
1000
0000
0000
0000
,  // measure 42
0100
0100
0010
0001
,  // measure 43
0000
0000
0000
1000
,  // measure 44
1000
0010
1000
0000
,  // measure 45
0100
0000
0010
0000
,  // measure 46
0100
0000
1000
0000
,  // measure 47
0001
0000
0100
0100
;

//---------------dance-single - ----------------
#NOTES:
     dance-single:
     :
     Beginner:
     1:
     0.107954,0.141505,0.000000,0.000000,0.000000,102.000000,102.000000,0.000000,0.000000,0.000000,0.000000,0.107954,0.141505,0.000000,0.000000,0.000000,102.000000,102.000000,0.000000,0.000000,0.000000,0.000000:
// measure 0
0000
0000
0000
0000
,  // measure 1
0000
0000
0000
0000
,  // measure 2
0000
0000
0000
0000
,  // measure 3
0000
0000
0000
0000
,  // measure 4
0001
0000
1000
0000
,  // measure 5
0001
0000
1000
0000
,  // measure 6
0010
0000
0100
0000
,  // measure 7
0010
0000
0100
0000
,  // measure 8
0001
0000
0010
0000
,  // measure 9
0100
0000
1000
0000
,  // measure 10
0010
0000
0100
0000
,  // measure 11
0001
0000
1000
1000
,  // measure 12
1000
0000
0100
0000
,  // measure 13
0010
0000
0001
0000
,  // measure 14
0100
0000
0010
0010
,  // measure 15
0010
0000
1000
1000
,  // measure 16
1000
0000
0001
0000
,  // measure 17
0100
0000
0100
0000
,  // measure 18
1000
1000
1000
1000
,  // measure 19
0000
0000
0000
0010
,  // measure 20
0010
0000
0100
0000
,  // measure 21
1000
0000
0001
0000
,  // measure 22
0010
0000
0100
0000
,  // measure 23
1000
0000
0010
0010
,  // measure 24
0010
0000
0001
0000
,  // measure 25
0100
0000
1000
1000
,  // measure 26
1000
0000
0010
0000
,  // measure 27
0100
0000
0001
0001
,  // measure 28
0001
0001
0001
0001
,  // measure 29
0001
0000
0010
0010
,  // measure 30
0010
0000
0100
0000
,  // measure 31
1000
0000
0010
0010
,  // measure 32
0010
0000
0100
0000
,  // measure 33
1000
0000
0010
0000
,  // measure 34
0001
0000
0010
0000
,  // measure 35
1000
0000
0100
0000
,  // measure 36
0001
0000
1000
0000
,  // measure 37
1000
0000
0001
0000
,  // measure 38
0001
0000
0010
0000
,  // measure 39
0100
0000
0010
0000
,  // measure 40
0001
0001
0001
0000
,  // measure 41
1000
0000
0000
0000
,  // measure 42
0100
0100
0100
0100
,  // measure 43
0000
0000
0000
1000
,  // measure 44
1000
1000
1000
0000
,  // measure 45
0100
0000
0010
0000
,  // measure 46
0100
0000
1000
0000
,  // measure 47
0001
0000
0100
0100
;
