#TITLE:Phantom;
#SUBTITLE:;
#ARTIST:Allen Mock x Chow-Chow;
#TITLETRANSLIT:;
#SUBTITLETRANSLIT:;
#ARTISTTRANSLIT:;
#GENRE:Phantom;
#CREDIT:;
#BANNER:Phantom-bn.png;
#BACKGROUND:Black.png;
#LYRICSPATH:;
#CDTITLE:;
#MUSIC:Phantom.mp3;
#OFFSET:-0.817000;
#SAMPLESTART:25.617382;
#SAMPLELENGTH:23.993401;
#LASTBEATHINT:235.021103;
#SELECTABLE:YES;
#DISPLAYBPM:75.000000:300.000000;
#BPMS:0.000000=75.000000
,13.000000=112.500000
,16.000000=150.000000
,47.000000=860.000000
,47.750000=555.000000
,48.000000=570.000000
,48.250000=620.000000
,48.500000=570.000000
,49.000000=480.000000
,49.750000=450.000000
,50.000000=430.000000
,50.500000=380.000000
,51.000000=360.000000
,51.250000=340.000000
,51.500000=320.000000
,51.750000=300.000000
,52.000000=280.000000
,52.250000=260.000000
,52.500000=240.000000
,52.750000=225.000000
,53.000000=208.000000
,53.250000=270.000000
,53.500000=150.000000
,53.750000=180.000000
,54.000000=75.000000
,59.000000=600.000000
,61.000000=150.000000
,69.000000=600.000000
,71.000000=300.000000
,73.000000=150.000000
,75.000000=75.000000
,75.500000=150.000000
,76.500000=300.000000
,78.500000=150.000000
,80.500000=75.000000
,81.000000=150.000000
,82.000000=100.000000
,84.000000=75.000000
,87.000000=112.500000
,90.000000=150.000000
,96.000000=37.500000
,97.000000=150.000000
,125.000000=75.000000
,127.000000=150.000000
,141.000000=75.000000
,142.000000=300.000000
,166.000000=75.000000
,168.000000=150.000000
,212.000000=225.000000
,218.000000=150.000000
,230.000000=75.000000
,232.000000=150.000000
;
#STOPS:44.000000=1.200000,
47.000000=0.052000,
47.250000=0.009000,
47.500000=0.003000,
47.750000=0.027000,
48.000000=0.026000,
48.250000=0.024000,
48.500000=0.026000,
48.750000=0.026000,
49.000000=0.031000,
49.250000=0.031000,
49.500000=0.031000,
49.750000=0.033000,
50.000000=0.035000,
50.250000=0.035000,
50.500000=0.039000,
50.750000=0.039000,
51.000000=0.042000,
51.250000=0.044000,
51.500000=0.047000,
51.750000=0.050000,
52.000000=0.054000,
52.250000=0.058000,
52.500000=0.063000,
52.750000=0.067000,
53.000000=0.072000,
53.250000=0.056000,
53.500000=0.100000,
53.750000=0.083000,
59.000000=0.037000,
59.125000=0.037000,
59.250000=0.037000,
59.375000=0.037000,
59.500000=0.050000,
59.666668=0.050000,
59.833332=0.050000,
60.000000=0.075000,
60.250000=0.075000,
60.500000=0.075000,
60.750000=0.075000,
69.000000=0.300000,
70.000000=0.300000,
71.000000=0.200000,
72.000000=0.200000
;
#BGCHANGES:-1.021=Phantom-video.avi=1.000=1=0=0=StretchNoLoop==CrossFade==,
99999=-nosongbg-=1.000=0=0=0 // don't automatically add -songbackground-
;
#KEYSOUNDS:;
#ATTACKS:;

//---------------dance-single - ----------------
#NOTES:
     dance-single:
     :
     Challenge:
     10:
     0.648549,0.895257,0.408586,0.190673,0.640118,500.000000,455.000000,45.000000,21.000000,0.000000,0.000000,0.648549,0.895257,0.408586,0.190673,0.640118,500.000000,455.000000,45.000000,21.000000,0.000000,0.000000:
// measure 0
0000
0000
0000
0000
,  // measure 1
0000
0000
0000
0000
,  // measure 2
0000
0000
0000
0000
,  // measure 3
0000
0000
0000
0000
,  // measure 4
1000
0000
0100
0000
0001
0000
0100
1000
0000
0000
0001
0000
0101
0000
0000
0000
,  // measure 5
1000
0000
0010
0000
0100
0000
0001
0010
0000
0000
0100
0000
1001
0000
0000
0000
,  // measure 6
0100
0000
1000
0000
0010
0000
1000
0100
0000
0000
0001
0000
1100
0000
0000
0000
,  // measure 7
1000
0000
0100
0000
0010
0000
0001
0100
0000
0000
0010
0000
0101
0000
0000
0000
,  // measure 8
0010
0000
1000
0100
0000
0100
0001
0000
0001
0100
0000
0100
1000
0000
0001
0000
,  // measure 9
1000
0000
1000
0010
0000
0010
0001
0000
0001
0010
0000
0010
1000
0000
0001
0000
,  // measure 10
1000
0000
0010
0000
0100
0000
0001
0000
1000
0010
0100
0001
1000
0010
0100
0001
,  // measure 11
1000
1010
0101
4004
,  // measure 12
0000
0000
0000
0000
,  // measure 13
0000
0000
0000
0000
0000
0000
0000
0000
3003
1000
0100
0001
0000
0001
0100
1000
,  // measure 14
1000
0000
1000
0010
0001
0001
0010
1000
0100
0000
0000
0000
0440
0000
0000
0000
,  // measure 15
0000
0000
0000
0000
0330
0010
0001
1000
0000
1000
0010
0001
0000
0001
0010
1000
,  // measure 16
0001
1000
0100
1000
0001
0000
0100
0001
1000
0010
0100
0001
0000
1000
0100
1000
,  // measure 17
0000
0001
0010
0100
1000
0000
0000
0000
0000
0000
0000
0000
0000
0000
0000
0000
,  // measure 18
0000
0000
1100
0000
0101
0000
4000
0400
,  // measure 19
3300
0004
0000
0000
0000
0040
0003
0430
,  // measure 20
0000
0000
0000
4300
0000
0000
0001
0000
0000
3100
0000
0000
1010
0000
0010
0000
0011
0000
0001
0000
0101
0000
0100
0000
,  // measure 21
1100
0000
0110
0000
0101
1000
1000
1000
0101
0000
0000
0000
0400
0000
0000
4000
,  // measure 22
0300
0000
0040
3000
0000
0001
0030
0000
0100
0001
0100
0001
1000
0010
1000
0010
,  // measure 23
0000
0000
1000
0100
0001
0100
1000
0100
0000
0010
0001
1000
0000
0001
0100
0001
,  // measure 24
1000
0000
0000
0000
0010
1000
0100
1000
0010
1000
0100
1000
0010
1000
0100
1000
,  // measure 25
0010
1000
0100
1000
0010
1000
0100
1000
0010
1000
0100
1000
0010
0000
0000
0000
,  // measure 26
0010
0000
0000
0000
0010
0001
0100
0001
0010
0001
0100
0001
0010
0001
0100
0001
,  // measure 27
0010
0001
0100
0001
0010
0001
0100
0001
0010
0001
0100
0001
0010
0000
0000
0000
,  // measure 28
0010
0001
1000
0000
0100
0001
0010
0001
0100
0001
0010
0001
0100
0001
0010
0001
,  // measure 29
0100
0001
0010
0001
0100
0001
0010
0001
0100
0001
0010
0001
0100
0000
0000
0000
,  // measure 30
0100
0000
0000
0000
0100
1000
0001
1000
0100
1000
0001
1000
0100
1000
0001
1000
,  // measure 31
0100
0000
1000
0000
0001
0000
1000
0000
0100
0000
0010
0001
0100
0000
0010
0000
1000
0000
0001
0100
0020
0000
0030
0000
0101
0000
0000
0000
1000
0000
0100
0000
,  // measure 32
0010
0001
0100
0000
0101
0000
1000
0100
0010
0001
0100
0000
1010
0000
0100
0001
,  // measure 33
0010
0100
1000
0000
1010
0000
0100
0001
0010
0100
1000
0000
0110
0000
0001
1000
,  // measure 34
0010
0100
0001
0000
0110
0000
0001
1000
0010
0100
0001
0000
1001
0000
0100
0010
,  // measure 35
1000
0001
0100
0000
0220
0000
0330
0000
0001
0000
0000
0000
0101
0000
0000
0000
,  // measure 36
0100
1100
1000
1010
,  // measure 37
0010
0011
0100
0110
,  // measure 38
0010
1001
0100
1001
,  // measure 39
0001
0000
0110
0000
1000
0010
1000
0010
,  // measure 40
0100
0001
1000
0001
0010
0001
0010
0100
,  // measure 41
1000
0100
1000
0100
0020
0000
0000
0000
,  // measure 42
0031
0000
0100
0000
0001
0000
0100
0000
0000
0010
0000
0000
0101
0000
0000
0000
0000
0000
1010
0000
0000
0100
0000
0000
,  // measure 43
1010
0000
0000
0000
0100
1000
0001
1000
0200
0000
0000
0000
0310
0000
0001
0000
,  // measure 44
0020
0000
0000
0000
0031
0000
1000
0000
0001
0100
0001
0100
0001
0000
1000
0000
,  // measure 45
1000
0010
1000
0000
0010
0001
0010
0000
2000
0000
0000
0000
3002
0000
0000
0000
,  // measure 46
0103
0000
0000
0010
0000
0000
1000
0100
1000
0100
0000
0000
1000
0000
0000
0000
0000
0000
0001
0000
0000
1000
0000
0000
,  // measure 47
0020
0000
0000
0000
0000
0000
0031
0000
0000
0010
1000
0010
2000
0000
0000
0000
0000
0000
3001
0000
0000
1000
0000
0000
,  // measure 48
0200
0000
0301
0100
1000
0010
0100
0010
,  // measure 49
0100
0001
0100
0001
0000
0000
1000
0000
0000
0010
0000
0000
1000
0010
1000
0010
0000
0000
1000
0000
0000
0100
0000
0000
,  // measure 50
2000
0000
0000
0000
0000
0000
3001
0100
0001
1000
0000
0000
0020
0000
0000
0000
0000
0000
0031
0000
0000
0010
0000
0000
,  // measure 51
2000
0001
3001
0010
0200
1000
1300
0100
,  // measure 52
0010
0000
0000
0002
0000
0000
0100
0000
0000
0100
0000
0000
0100
0000
0000
0100
0000
0000
0103
0000
0010
0000
1000
0000
,  // measure 53
0100
0101
0011
0010
,  // measure 54
1010
1100
1002
0103
,  // measure 55
2100
0010
3000
0210
0000
0000
0301
1000
,  // measure 56
0102
0000
1003
0010
2000
0100
3100
0010
,  // measure 57
0001
1000
0100
0010
0100
0000
0000
0000
,  // measure 58
1001
0000
0000
0000
;

//---------------dance-single - ----------------
#NOTES:
     dance-single:
     :
     Hard:
     8:
     0.442310,0.500291,0.272390,0.245151,0.254231,341.000000,311.000000,30.000000,27.000000,0.000000,0.000000,0.442310,0.500291,0.272390,0.245151,0.254231,341.000000,311.000000,30.000000,27.000000,0.000000,0.000000:
0000
0000
0000
0000
,
0000
0000
0000
0000
,
0000
0000
0000
0000
,
0000
0000
0000
0000
,
1000
0000
0010
0000
1000
0000
0000
1100
0000
0000
0100
0000
1000
0000
0000
0000
,
0001
0000
0100
0000
0010
0000
0000
0110
0000
0000
0100
0000
0001
0000
0000
0000
,
1000
0000
0010
0000
1000
0000
0000
1001
0000
0000
0001
0000
1000
0000
0000
0000
,
0100
0000
0010
0000
0100
0000
0000
1001
0000
0000
0010
0000
0100
0000
0000
0000
,
0001
0000
0000
0011
0000
0000
0110
0000
0000
1100
0000
0000
1001
0000
0000
0000
,
1000
0000
0000
0101
0000
0000
0110
0000
0000
1010
0000
0000
1001
0000
0000
0000
,
0001
1000
0001
1000
0010
0100
0010
0100
,
0010
0100
0110
2002
,
0000
0000
0000
0000
,
0000
0000
3003
0000
0010
1000
0100
0100
,
0001
1000
0010
0010
0001
0000
2200
0000
,
0000
0000
3300
0000
0001
0010
0100
1000
,
0001
0010
0100
1000
1000
0100
0010
0001
,
1000
0100
1000
0000
0000
0000
0000
0000
,
0000
0000
1100
0000
0101
0000
2000
0001
,
3000
1002
0000
0000
0000
1003
0000
0210
,
0000
0000
0000
0310
0000
0000
1001
0000
0000
0000
0000
0000
1010
0000
0000
0000
0011
0000
0000
0000
0101
0000
0000
0000
,
1100
0000
0001
0000
0100
0000
0000
0000
1001
0000
0000
0000
0001
0000
0000
1000
,
0000
0000
0010
0000
0000
0100
0000
0000
0001
0000
0100
0000
1000
0000
0010
0000
,
0100
0001
0100
0001
1000
0010
1000
0010
,
1000
0000
0000
0000
0010
0000
0000
0000
0100
0001
0000
0000
1000
0001
0000
0000
,
0100
0001
0000
0000
1000
0010
0000
0000
1000
0001
0000
0000
1000
0000
0000
0000
,
1000
0000
0000
0000
0010
1000
0000
0000
0001
1000
0000
0000
0100
1000
0000
0000
,
0001
1000
0000
0000
0010
0100
0000
0000
0001
0100
0000
0000
0010
0000
0000
0000
,
0010
0000
0000
0000
1000
0010
0000
0000
1000
0100
0000
0000
0001
0100
0000
0000
,
0001
0010
0000
0000
0100
1000
0000
0000
0001
0100
0000
0000
0010
0000
0000
0000
,
0010
0000
0000
0000
1000
0010
0000
0000
0100
0001
0000
0000
0001
0010
0000
0000
,
0100
1000
0000
0000
0010
0100
0001
0000
1000
0000
0000
0000
0001
0100
0000
0000
,
0100
0010
0000
0000
0010
1000
0000
0000
1000
0001
0000
0000
0001
0010
0000
0000
,
0100
1000
0000
0000
1000
0010
0000
0000
0100
0001
0000
0000
1000
0010
0000
0000
,
0001
1000
0000
0000
0001
0010
0000
0000
1000
0001
0000
0000
1000
0100
0000
0000
,
0001
0010
0000
0000
0100
0000
0000
0000
1000
0000
0000
0000
0100
0000
0000
0000
,
0001
0100
1000
0010
,
0001
0010
1000
1000
,
0001
0001
0100
0010
,
1000
0000
0001
0000
0010
0100
0010
0000
,
0001
0000
1000
0000
0100
0010
0100
0000
,
1000
0001
0100
0000
,
0202
0000
0303
0000
1010
0000
0100
0001
,
2000
0000
3010
0100
0001
0000
1000
0010
,
0202
0000
0000
0000
0000
0000
0303
0000
1000
0001
1000
0000
0100
0000
0000
0000
,
0010
0001
0100
0001
0020
0000
0230
0000
,
1300
0000
0001
0000
1000
0100
1000
0000
0001
0000
0000
0000
1000
0000
0010
0000
,
2000
0000
3001
1000
0002
0000
0013
0001
,
0200
0000
0310
1000
0100
1000
0010
1000
,
0010
0100
0010
0000
1000
0000
0010
0000
1000
0010
1000
0000
0200
0000
0000
0000
,
0320
0000
0000
0000
0031
0100
0001
0000
0200
0000
0000
0000
0310
1000
0010
0000
,
2000
0000
3100
0001
0200
0000
1300
0001
,
2000
0000
0000
0000
0000
0000
3010
0000
0000
0100
0000
0000
0001
0000
0000
0100
0000
0000
0010
0000
0100
0000
0010
0000
,
0100
0001
1000
0100
,
1000
0001
0200
0310
,
2000
0100
3000
0021
0000
0030
0001
0100
,
0002
0000
1003
0010
1000
0000
0100
0010
,
0100
1000
0001
1000
0100
0000
0000
0000
,
0101
0000
0000
0000
;

//---------------dance-single - ----------------
#NOTES:
     dance-single:
     :
     Medium:
     6:
     0.298332,0.368635,0.245151,0.036319,0.018159,230.000000,203.000000,27.000000,4.000000,0.000000,0.000000,0.298332,0.368635,0.245151,0.036319,0.018159,230.000000,203.000000,27.000000,4.000000,0.000000,0.000000:
0000
0000
0000
0000
,
0000
0000
0000
0000
,
0000
0000
0000
0000
,
0000
0000
0000
0000
,
1000
0100
0001
0101
,
0001
0010
1000
1010
,
0010
0100
0001
1001
,
0010
0001
1000
1100
,
0110
0001
0101
0100
,
0110
1000
1010
0010
,
1000
0100
1000
0000
0001
0100
0001
0000
,
1001
0010
0100
2002
,
0000
0000
0000
0000
,
0000
0000
3003
0010
,
1000
0100
0001
0000
0100
0000
0220
0000
,
0000
0330
0001
0010
,
1000
0100
0010
0001
,
1000
0010
0000
0000
,
0000
0000
0100
0000
0001
0000
1000
0010
,
0000
1000
0000
0000
0000
0100
0000
0001
,
0000
0000
0000
0100
0000
0000
1000
0000
0000
0000
0000
0000
1000
0000
0000
0000
0001
0000
0000
0000
0001
0000
0000
0000
,
0100
0000
0000
0000
0010
0000
0000
0000
1000
0000
0000
0000
0100
0000
0000
0010
,
0000
0000
0001
0000
0000
0100
0000
0000
0010
0000
0000
0000
1000
0000
0000
0000
,
0001
0010
1000
0010
,
1001
0001
0001
0001
,
0001
0001
0001
1100
,
0000
1000
1000
1000
,
1000
1000
1000
0101
,
0000
0010
0010
0100
,
0100
0010
0010
1001
,
0000
0100
0100
0010
,
0010
0110
0000
1000
,
0010
0001
0010
1000
,
0100
0001
0100
1000
,
0010
0100
0001
0010
,
0100
0010
0110
0000
,
0100
0000
0110
0000
,
0010
0000
0110
0000
,
0100
0000
1001
0000
,
0010
0000
1001
0000
,
1100
0000
1001
0000
,
0101
0000
1001
0000
,
1000
0000
0100
0000
0001
0000
0010
0100
,
0010
0000
0001
0100
0001
0000
0010
0000
,
0110
0000
0100
1000
,
0001
0000
0010
0100
0010
0000
0001
0000
,
1000
0000
0010
0000
0001
0000
0010
1000
,
0100
0000
0010
0001
0010
0000
0100
1000
,
0001
0000
0100
0000
0010
0000
1000
0010
,
0001
0000
0001
0010
1000
0000
0100
0000
,
0010
0000
0001
1000
0010
0000
0100
0010
,
1000
0010
0010
0100
,
0001
0100
0001
0000
1000
0010
1000
0000
,
0100
0100
0100
0010
,
0010
0010
0001
1000
,
0010
0100
0000
0010
0000
0000
0000
0000
,
1000
0100
0010
0001
,
0100
0000
0010
0100
0001
0000
0000
0000
,
1001
0000
0000
0000
;

//---------------dance-single - ----------------
#NOTES:
     dance-single:
     :
     Easy:
     3:
     0.206239,0.263311,0.045398,0.163434,0.004540,159.000000,154.000000,5.000000,18.000000,0.000000,0.000000,0.206239,0.263311,0.045398,0.163434,0.004540,159.000000,154.000000,5.000000,18.000000,0.000000,0.000000:
0000
0000
0000
0000
,
0000
0000
0000
0000
,
0000
0000
0000
0000
,
0000
0000
0000
0000
,
1000
0010
0001
0000
,
0001
0010
1000
0000
,
0100
0010
0001
0000
,
1000
0010
0100
0000
,
0010
0010
1000
1000
,
0100
0100
0001
0001
,
0100
0010
0100
0010
,
0100
0010
0100
2002
,
0000
0000
0000
0000
,
0000
0000
3003
1000
,
1000
0001
0001
2002
,
0000
3003
0000
0010
,
0010
1000
1000
0010
,
0010
0100
0000
0000
,
0000
0001
0000
0010
,
0000
0100
0000
0000
0000
0000
0000
1000
,
0000
0000
0000
0001
0000
0000
0000
0000
0010
0000
0000
0000
,
0100
1000
0010
0100
,
0000
0001
0000
0000
1000
0000
0000
0000
,
0010
0000
0100
0000
,
0001
1000
1000
1000
,
1000
1000
1000
1000
,
0000
0001
0001
0001
,
0001
0001
0001
0001
,
1001
0010
0010
0010
,
0010
0010
0010
0010
,
0000
0100
0100
0100
,
0100
0002
0003
1000
,
0010
1000
0010
0100
,
0001
0100
0001
1000
,
0010
1000
0010
1000
,
0100
0010
0001
0000
,
0100
0000
0010
0000
,
1000
0000
0001
0000
,
0010
0000
0100
0000
,
1000
0000
0001
0000
,
1000
0000
0001
0000
,
1000
0000
1001
0000
,
0010
0000
0200
0300
,
0002
0003
0010
0100
,
2000
3000
0100
0100
,
0001
0000
0100
1000
,
0020
0030
0200
0300
,
0002
0003
1000
0010
,
2000
3000
0100
0010
,
0002
0003
2000
3000
,
0010
0001
0020
0030
,
0200
0300
0002
0003
,
2000
3000
0010
0100
,
0001
0000
0000
0010
,
0000
0000
0100
0000
,
1000
0010
0001
0010
,
1000
0100
0010
0001
,
0100
0010
0100
0000
,
1001
0000
0000
0000
;

//---------------dance-single - ----------------
#NOTES:
     dance-single:
     :
     Beginner:
     2:
     0.123224,0.184318,0.045398,0.108956,0.004540,95.000000,90.000000,5.000000,12.000000,0.000000,0.000000,0.123224,0.184318,0.045398,0.108956,0.004540,95.000000,90.000000,5.000000,12.000000,0.000000,0.000000:
0000
0000
0000
0000
,
0000
0000
0000
0000
,
0000
0000
0000
0000
,
0000
0000
0000
0000
,
1000
0000
0001
0000
,
0100
0000
0010
0000
,
1000
0000
0100
0000
,
0010
0000
0001
0000
,
1000
1000
1000
0000
,
0001
0001
0001
0000
,
1000
0000
0001
0000
,
1001
0000
0000
2002
,
0000
0000
0000
0000
,
0000
3003
0000
0010
,
0000
0100
0000
2002
,
0000
3003
0000
0010
,
0000
0001
0000
0100
,
0000
0010
0000
0000
,
0000
1000
0000
1001
,
0000
0000
0000
0000
0000
0000
0000
0100
,
0000
0000
0000
0000
0000
0000
0000
0000
0010
0000
0000
0000
,
0000
0001
0000
1000
,
0000
0000
0010
0000
,
0000
0000
0100
0000
,
0001
0002
0000
0000
,
0000
0000
0000
0003
,
0000
2000
0000
0000
,
0000
0000
0000
3000
,
0000
0020
0000
0000
,
0000
0000
0000
0030
,
0000
0200
0000
0000
,
0000
0300
0000
0020
,
0000
0030
0000
2000
,
0000
3000
0000
0002
,
0000
0003
0000
0020
,
0000
0030
0100
0000
,
0100
0000
0100
0000
,
0100
0000
0100
0000
,
0100
0000
0100
0000
,
0100
0000
0100
0000
,
0100
0000
0100
0000
,
0100
0000
0100
0000
,
1000
0000
0001
0000
,
0100
0000
0010
0000
,
1000
0000
0100
0100
,
0100
0000
0010
0000
,
0001
0000
1000
0000
,
0010
0000
0100
0100
,
0100
0000
0001
0000
,
0010
0000
0100
0000
,
1000
0000
0010
0010
,
0010
0000
0100
0000
,
0001
0000
0010
0010
,
0010
0000
0000
0000
,
0000
0000
0100
0000
,
0100
0000
1000
0000
,
0001
0000
0100
0000
,
0010
0000
0100
0000
,
1001
0000
0000
0000
;
