#VERSION:0.83;
#TITLE:Padam Padam;
#SUBTITLE:;
#ARTIST:Kylie Minogue;
#TITLETRANSLIT:;
#SUBTITLETRANSLIT:;
#ARTISTTRANSLIT:;
#GENRE:Tension;
#ORIGIN:;
#CREDIT:[Ness];
#BANNER:Padam Padam.png;
#BACKGROUND:Black.png;
#PREVIEWVID:Padam Padam-previewvid.avi;
#JACKET:Padam Padam-jacket.png;
#CDIMAGE:;
#DISCIMAGE:Padam Padam-bg.png;
#LYRICSPATH:Padam Padam.lrc;
#CDTITLE:;
#MUSIC:Padam Padam.mp3;
#OFFSET:-0.400000;
#SAMPLESTART:114.525253;
#SAMPLELENGTH:15.465729;
#SELECTABLE:YES;
#BPMS:0.000=128.025,
96.000=49.000,
98.500=128.025,
164.000=64.012,
165.000=128.025,
231.000=64.012,
233.000=128.025;
#STOPS:;
#DELAYS:;
#WARPS:;
#TIMESIGNATURES:0.000=4=4,
164.000=3=4,
167.000=4=4,
231.000=2=4,
233.000=4=4;
#TICKCOUNTS:0.000=2;
#COMBOS:0.000=1;
#SPEEDS:0.000=1.000=0.000=0;
#SCROLLS:0.000=1.000;
#FAKES:;
#LABELS:0.000=Song Start;
#LASTSECONDHINT:146.668320;
#BGCHANGES:-1.500=Padam Padam.avi=1.000=1=0=0=StretchNoLoop==CrossFade==,
99999=-nosongbg-=1.000=0=0=0 // don't automatically add -songbackground-
;
#KEYSOUNDS:;
#ATTACKS:
;

//---------------dance-single - ----------------
#NOTEDATA:;
#CHARTNAME:;
#STEPSTYPE:dance-single;
#DESCRIPTION:;
#CHARTSTYLE:;
#DIFFICULTY:Hard;
#METER:8;
#RADARVALUES:0.454826,0.485518,0.312936,0.156468,0.020409,468.000000,422.000000,46.000000,23.000000,0.000000,0.000000,0.000000,0.000000,0.000000,0.454826,0.485518,0.312936,0.156468,0.020409,468.000000,422.000000,46.000000,23.000000,0.000000,0.000000,0.000000,0.000000,0.000000;
#CREDIT:;
#NOTES:
0000
0000
0000
0000
,
0000
0000
0000
0000
,
0000
0000
0000
0000
,
0000
0000
0000
0000
,
0000
0000
0020
0000
0000
0230
0000
0000
,
0302
0000
0000
0203
0000
0000
0320
0000
,
0000
1030
0200
0000
0000
0320
0000
0000
,
0031
0000
1000
0000
0010
0000
0000
0000
0010
0000
0100
0010
0100
0000
0000
0000
,
0010
0000
0200
0000
0310
0200
0001
0300
,
0200
0000
0301
1000
0100
0100
0010
0001
,
0100
0010
0200
0000
1300
0200
0010
0300
,
0200
0000
0301
1000
0001
0001
0010
0100
,
1000
0001
2000
0000
3001
0200
1000
0300
,
0200
0000
0310
2000
0000
3001
0010
0000
,
0001
1000
0200
0000
0310
0200
1000
0300
,
0001
1000
0010
0000
0010
0100
1001
0000
,
0001
0010
0001
0010
0001
0100
0001
0100
,
0001
1000
0001
1000
0001
1000
0101
0000
,
1000
0010
1000
0010
1000
0100
1000
0100
,
1000
0010
1100
0000
1000
0001
1100
0000
,
0100
1000
0001
0100
0001
1000
0100
0000
,
0010
0110
0001
1001
,
0001
0100
0001
1000
0010
1000
0100
0000
,
1000
0000
1100
0000
0011
0000
0100
0010
,
0100
0000
0000
0000
0000
0000
0000
0001
,
0010
1000
0000
1000
0010
0001
0000
0001
,
0010
1000
0100
0010
0001
0000
0000
0001
,
0100
1000
0000
1000
0100
0001
0000
0001
,
0010
1000
0001
0100
1000
0000
1100
0000
,
0101
0000
1000
0010
0100
0000
1000
0010
,
0001
0010
0100
0010
1000
0000
0001
0010
,
1000
0000
1000
0010
0001
0000
1000
0001
,
0100
1100
0101
0020
,
0130
0010
1001
0010
0100
0010
1001
0010
,
0100
0001
1000
0100
0010
0000
0001
1000
,
0100
0010
1001
0100
0010
0100
1001
0010
,
0001
0100
0010
0100
0001
0000
1100
0000
,
0101
0000
1000
0010
0100
0000
0001
1000
,
0100
1000
0001
0100
0001
0000
1000
0010
,
0100
0000
0001
0010
0100
0000
1000
0001
,
0100
0110
1001
0020
,
0130
0000
0000
0001
,
0011
1000
1100
0010
,
0001
1000
0100
0000
1001
0000
0100
0001
,
0010
0001
1000
0010
0100
0001
1000
0100
,
0000
1100
0000
0011
0000
0101
0000
0000
,
0000
0001
1000
0010
0100
0001
1000
0000
,
0020
1030
0001
0100
,
0001
0100
0010
0001
0010
1000
0100
0000
,
0010
0000
0101
0000
1100
0000
0010
1000
,
0100
1000
0100
0001
0100
0001
0100
0010
,
0100
0010
0100
0010
0110
0000
0010
0001
,
1000
0001
1000
0001
0100
1000
0100
0010
,
0000
1010
0000
1001
0000
1100
0000
0000
,
0000
0001
0010
0100
1000
0010
0100
0000
,
1010
0011
0100
0010
,
1000
0001
0100
0010
1000
0100
1000
0000
,
0101
0000
0000
0000
1001
0000
1000
0000
0001
0000
1000
0000
0100
0000
0000
0010
,
0010
0000
0000
0100
0100
0000
0000
0000
0010
0000
0000
0000
0100
0000
0010
0000
,
0100
1000
0010
0001
0000
0001
0010
1000
,
0000
1000
0100
0010
0001
0100
0010
1000
,
0100
0010
0001
0100
0000
0010
1000
0100
,
0000
0010
0001
0100
0010
1000
0100
0010
,
0001
1000
0010
0001
0000
0001
0010
1000
,
0000
1000
0100
0001
0100
1000
0010
1000
,
0000
0001
0010
1000
0000
1000
0010
0001
,
0000
1000
0100
0000
0011
0000
1100
0000
,
0020
0000
0130
0010
1001
0010
0100
0010
,
1001
0000
0000
0000
0001
0000
1000
0000
0000
0000
0100
0000
0000
0000
0000
0010
,
0000
0001
0100
1000
0101
1000
0100
0001
,
1100
0000
0000
0000
0010
0000
0100
0000
0000
0000
0001
0000
0000
0000
0000
1000
,
0000
0100
0010
0100
1001
0010
0100
0010
,
1001
0000
0000
0000
0010
0000
0001
0000
1000
0000
0010
0000
0000
0000
0000
0100
,
0000
0001
1000
0100
1001
0100
0001
0100
,
1001
0000
0010
1000
0100
1000
0100
0001
,
0100
1000
0000
0000
0000
0000
0000
0000
;

//---------------dance-single - ----------------
#NOTEDATA:;
#CHARTNAME:;
#STEPSTYPE:dance-single;
#DESCRIPTION:;
#CHARTSTYLE:;
#DIFFICULTY:Challenge;
#METER:9;
#RADARVALUES:0.549095,0.587733,0.272118,0.108847,0.224497,565.000000,525.000000,40.000000,16.000000,155.000000,0.000000,0.000000,0.000000,0.000000,0.549095,0.587733,0.272118,0.108847,0.224497,565.000000,525.000000,40.000000,16.000000,155.000000,0.000000,0.000000,0.000000,0.000000;
#CREDIT:;
#NOTES:
0000
0000
0000
0000
,
0000
0000
0000
0000
,
0000
0000
0000
0000
,
0000
0000
0000
0000
,
0000
1000
0020
0000
0000
0230
0000
0001
,
0302
0000
0000
0023
0000
0000
0230
0000
,
0000
0301
0200
0000
0000
0320
0000
0000
,
0031
0000
1000
0000
0010
0000
0000
0000
0100
0000
0001
1000
0100
0000
0000
0000
,
0010
0001
0200
0000
1300
0200
0001
0301
,
0020
0000
0031
1000
0100
1000
0001
1001
,
0000
1000
0020
0001
0030
0011
0000
0001
,
0020
1000
0030
1010
0000
1000
0001
0100
,
1000
0100
0001
0010
0100
1100
0000
0100
,
1000
0010
0100
0101
0000
0001
0020
0000
,
0130
0001
0100
1000
0001
2000
0000
3010
,
1000
0100
1100
0000
0100
0001
0101
0000
,
0001
M010
0100
0010
100M
0010
0100
M010
,
0001
0100
001M
1000
0001
10M0
0100
10M0
,
0001
0100
00M1
1000
0010
1M00
0001
1000
,
010M
0010
1000
0M10
0001
0100
M010
0100
,
0001
0000
100M
0010
0100
M001
0010
0100
,
10M0
0001
1000
0M01
1000
0100
01M1
0000
,
0001
1000
00M1
1000
0100
M010
0001
1000
,
001M
0100
00M1
1000
0100
M010
0001
1000
,
0100
0000
0000
0000
00M0
0000
0000
0000
000M
0000
0000
0000
0M00
0000
0000
0000
M000
0000
0000
0000
0000
0000
0000
0010
0000
0100
0000
0000
0000
0000
0000
0000
0000
0000
0000
0000
0000
0000
0000
0000
1000
0000
0000
0000
0100
0000
0000
0000
0010
0000
0000
0000
0000
0000
0000
0000
0001
0000
0000
0000
0000
0000
0000
0000
,
0010
1000
MMMM
1000
0010
0001
MMMM
0001
,
0010
1000
0100
0010
0001
0000
MMMM
0001
,
0100
1000
MMMM
1000
0100
0001
MMMM
0001
,
0010
1000
0001
0100
1000
0000
1100
0000
,
0101
0000
1MMM
0010
0100
0000
1MMM
0010
,
0001
0010
0100
0010
1000
0000
0001
0010
,
1000
0000
1MMM
0010
0001
0000
1MMM
0001
,
0100
1100
0101
0020
,
0130
0001
1MM1
0100
0010
0100
1MM1
0100
,
0010
0000
0001
0000
1000
0000
0010
0000
0100
0000
0000
0010
0100
0000
1001
0000
,
1000
0100
1MM1
1000
0001
0100
1MM1
0100
,
0001
0000
0010
0000
0100
0000
1000
0000
0010
0000
0000
0100
0001
0000
1000
0000
,
0100
0010
1MM1
0001
0100
0010
1MM1
1000
,
0001
0000
1000
0000
0100
0000
0010
0000
0001
0000
0000
0100
0010
0000
1000
0000
,
0100
0010
1MM1
0001
0100
0010
1MM1
0010
,
0100
0000
1000
0000
0100
0000
0001
0000
0010
0000
0000
0100
1000
0000
0001
0000
,
0100
0000
0000
0000
0010
0000
1000
0100
0010
0000
0000
0000
0001
0000
0010
0000
,
0001
0100
0001
1000
0100
1000
0010
0100
,
0001
1000
0100
0010
0100
0000
1000
0010
,
1000
0100
0001
0100
0010
0100
1000
0001
,
0100
0010
0100
0001
1000
0001
1000
0000
,
0001
0010
0100
1000
0010
0100
0001
1000
,
0100
1000
0001
0100
0010
1000
0100
0000
,
0001
0100
1000
0100
0001
0100
0010
0001
,
0010
0000
1000
0000
0010
0000
0100
0000
1001
0000
0000
0000
1000
0000
0010
1000
,
0M01
0000
0010
0000
0100
0000
1000
0001
01M0
0000
0010
0000
1000
0000
0100
0010
,
M001
0000
1000
0000
0010
0000
0100
0010
100M
0000
0001
0000
0010
0000
0100
0010
,
M001
0000
1000
0100
0010
0000
0100
1000
00M1
0000
0010
0100
1000
0000
0001
0000
,
00M0
0000
0101
0000
0000
0000
1010
0000
0M00
0000
1001
0000
0000
0000
1000
0010
,
010M
0000
0001
0000
0010
0000
0001
1000
01M0
0000
0010
0000
0001
0000
1000
0010
,
010M
0000
0001
0000
1000
0000
0100
0010
M001
0000
1000
0000
0010
0000
0100
0010
,
100M
0000
0001
0000
0100
0000
0010
0100
M001
0000
1000
0000
0100
0000
0010
0000
,
0M01
0000
0000
0000
1000
0000
0000
0000
1M10
0000
0000
0000
1M01
0000
0000
0000
0M11
0000
0000
0000
1M01
0000
0000
0000
0M10
0000
M000
000M
0M00
000M
M010
0M00
,
M010
000M
0M00
000M
M000
0M00
M010
000M
0M10
000M
M000
0M00
M000
000M
0M00
000M
M010
0M00
M000
000M
0M00
000M
M000
0M00
0010
0000
1000
0000
0001
0000
0100
0000
,
0010
1000
0001
0100
0010
0000
0001
0000
MMMM
0000
0001
0000
0010
0000
1000
0000
,
MMMM
0000
1000
0000
0100
0000
0010
0001
0100
0000
0001
0000
1000
0000
0010
1000
,
0100
0001
0100
1000
MMMM
1000
0100
0001
,
MMMM
0000
0001
0000
0100
0000
0010
0001
0100
0000
0010
0000
1000
0000
0010
0100
,
1000
0100
0010
1000
MMMM
1000
0100
0001
,
MMMM
0000
0001
0000
0100
0000
1000
0100
0010
0000
0001
0000
0100
0000
1000
0100
,
0001
0100
0010
1000
MMMM
1000
0010
0001
,
MMMM
0001
0010
0000
1010
0000
1100
0000
,
1002
0000
0103
0010
1001
0010
0100
0010
,
1001
0000
0000
0000
0001
0000
1000
0000
0001
0000
0100
0000
0010
0000
1000
0100
,
0000
0100
0010
0000
0001
0000
1000
0000
0101
0000
0010
0000
1000
0000
0001
0000
,
1100
0000
0000
0000
0010
0000
0100
0000
0001
0000
0010
0000
0100
0000
1000
0001
,
0000
1000
0001
0000
0100
0000
0010
0000
1001
0000
0010
0000
0100
0000
0010
0000
,
1001
0000
0000
0000
0010
0000
0001
0000
1000
0000
0010
0000
1000
0000
0001
0100
,
0000
0001
0100
0000
0010
0000
1000
0000
1001
0000
0010
0000
0001
0000
1000
0000
,
1001
0000
0001
0000
0010
0000
0100
0000
1000
0000
0001
0000
0100
0000
1000
0100
,
0001
0100
1000
0000
0000
0000
0000
0000
0000
0000
0000
0000
0000
0000
0000
0000
;

//---------------dance-single - ----------------
#NOTEDATA:;
#CHARTNAME:;
#STEPSTYPE:dance-single;
#DESCRIPTION:;
#CHARTSTYLE:;
#DIFFICULTY:Medium;
#METER:6;
#RADARVALUES:0.344035,0.357155,0.183680,0.224497,0.000000,354.000000,327.000000,27.000000,33.000000,0.000000,0.000000,0.000000,0.000000,0.000000,0.344035,0.357155,0.183680,0.224497,0.000000,354.000000,327.000000,27.000000,33.000000,0.000000,0.000000,0.000000,0.000000,0.000000;
#CREDIT:;
#NOTES:
0000
0000
0000
0000
,
0000
0000
0000
0000
,
0000
0000
0000
0000
,
0000
0000
0000
0000
,
0000
0000
0010
0000
0000
0100
0000
0000
,
0001
0000
0000
0100
0000
0000
0010
0000
,
0000
1000
0100
0000
0000
0010
0000
0000
,
0001
1000
0001
0000
1000
0001
0100
0000
,
0001
0010
1000
0010
,
0001
0000
1000
0001
0100
0000
0110
0000
,
0001
0100
0001
0000
1000
0000
0100
0000
,
0010
0000
0001
0000
1000
0000
0010
1000
,
0100
1000
0100
1001
,
0100
0001
0100
1001
,
0010
0000
0100
0000
0001
1000
0001
0000
,
2000
3200
0320
0032
,
1003
1010
0001
0011
,
1000
0000
0001
1000
0100
0000
0110
0000
,
1000
0100
1000
0000
0001
0000
0101
0000
,
0010
0000
1000
0000
0001
0000
0010
0001
,
0100
0101
0100
1001
,
0100
1100
0100
1001
,
0010
0000
0100
0000
1000
0001
1000
0000
,
0002
0000
0203
0000
0320
0000
1030
0001
,
1000
0000
0000
0000
0000
0000
0000
0002
,
0010
0003
0000
2000
0010
3000
0000
0100
,
0001
0000
1000
0001
1000
0000
0100
0020
,
0001
0030
0000
2000
0010
3000
0000
0100
,
0010
0000
1000
0001
0010
0000
0110
0000
,
1001
0000
0000
0002
0100
0003
0000
1000
,
0100
0000
0010
0001
1000
0000
0010
2000
,
0010
3000
0000
0002
0010
0003
0000
0100
,
0010
0000
0001
0000
1000
0001
0100
0000
,
0101
0000
1000
0010
0100
0000
0001
0010
,
0100
0000
1000
0001
1000
0000
0010
0100
,
0001
0000
0010
0100
1000
0000
0001
0100
,
0010
0000
1000
0001
1000
0000
1010
0000
,
1001
0000
1000
0010
1000
0000
0001
0010
,
0100
0000
1000
0000
0001
0000
1000
0010
,
0100
0000
0001
0010
0100
0000
1000
0001
,
1000
0020
1030
0002
,
0103
0000
0000
0002
,
0013
2000
3100
0010
,
0001
1000
0001
0000
0100
0000
0020
0000
,
1030
0000
0200
0000
0301
0000
1000
0010
,
1000
0000
0001
0010
0001
0000
0110
0000
,
0001
0000
1000
0001
1000
0000
0200
0000
,
0310
0002
1003
0010
,
0100
0000
0010
1000
0010
0000
0100
0000
,
0001
1000
1001
2000
,
3100
0002
0013
0100
,
1000
0001
0100
0000
0110
0000
0001
1000
,
0001
0000
0010
0100
0010
0000
0200
0000
,
1300
0020
0031
1000
,
0001
0000
1000
0010
0100
0000
0001
0000
,
1000
0000
0001
0100
0010
0000
1000
0000
,
0001
0000
0010
0001
0010
0000
0100
0000
,
1000
0000
0001
1000
0100
0000
0010
0000
,
0000
0000
0000
0000
,
0000
0002
0010
0003
0000
2000
0010
3000
,
0000
0001
0100
0010
0100
0001
0100
0000
,
0000
2000
0010
3000
0000
0002
0010
0003
,
0000
0100
1000
0100
0010
0100
1000
0000
,
0001
0000
1000
0000
0000
0020
0100
0030
,
0000
0001
1000
0001
1000
0001
1000
0000
,
0000
0002
0010
0003
0000
2000
0010
3000
,
0000
0100
0001
0000
1000
0000
0100
0000
,
0110
0000
1001
0000
1000
0000
0001
1000
,
0001
0010
0001
0100
,
1000
0100
0001
0000
0110
0000
1000
0000
,
0110
0000
0001
0100
0001
0000
1000
0000
,
0001
0010
0100
0000
1001
0000
0100
0000
,
1001
0001
1000
0010
,
1000
0001
0100
0000
1001
0000
0010
0000
,
1001
0000
1000
0010
1000
0000
0001
0010
,
0100
0000
0000
0000
;

//---------------dance-single - ----------------
#NOTEDATA:;
#CHARTNAME:;
#STEPSTYPE:dance-single;
#DESCRIPTION:;
#CHARTSTYLE:;
#DIFFICULTY:Easy;
#METER:4;
#RADARVALUES:0.241991,0.255961,0.061227,0.102044,0.000000,249.000000,240.000000,9.000000,15.000000,0.000000,0.000000,0.000000,0.000000,0.000000,0.241991,0.255961,0.061227,0.102044,0.000000,249.000000,240.000000,9.000000,15.000000,0.000000,0.000000,0.000000,0.000000,0.000000;
#CREDIT:;
#NOTES:
// measure 0
0000
0000
0000
0000
,  // measure 1
0000
0000
0000
0000
,  // measure 2
0000
0000
0000
0000
,  // measure 3
0000
0000
0000
0000
,  // measure 4
2000
0000
0000
0000
,  // measure 5
3002
0000
0000
0000
,  // measure 6
0203
0000
0000
0000
,  // measure 7
0320
0000
0230
0000
,  // measure 8
0301
0001
1000
1000
,  // measure 9
0200
0000
0320
0000
,  // measure 10
0130
1000
0100
1000
,  // measure 11
0200
0000
0320
0000
,  // measure 12
0031
0010
0001
0010
,  // measure 13
0001
1000
0001
0000
,  // measure 14
1000
0010
1000
0010
,  // measure 15
1000
0001
1000
0001
,  // measure 16
0000
0100
0010
1000
,  // measure 17
0100
1000
0010
0001
,  // measure 18
0000
0001
0100
0001
,  // measure 19
0010
1000
0010
0001
,  // measure 20
0100
0000
0010
0010
,  // measure 21
1000
1000
0001
0001
,  // measure 22
0010
0100
0010
0100
,  // measure 23
1000
0001
0100
0010
,  // measure 24
1000
0000
0000
0000
,  // measure 25
0100
0010
0100
0010
,  // measure 26
0001
0100
1000
0100
,  // measure 27
0001
1000
0001
1000
,  // measure 28
0001
0010
0100
1000
,  // measure 29
0010
0001
0010
1000
,  // measure 30
0001
1000
0001
1000
,  // measure 31
0100
0001
0100
1000
,  // measure 32
0010
0100
0001
0010
,  // measure 33
0100
1000
0010
0100
,  // measure 34
0001
1000
0001
1000
,  // measure 35
0001
0010
0100
1000
,  // measure 36
0010
0100
0010
0100
,  // measure 37
0010
1000
0001
0100
,  // measure 38
0001
0010
1000
0010
,  // measure 39
0001
0100
1000
0100
,  // measure 40
0001
0001
1000
0001
,  // measure 41
1000
0000
0000
0002
,  // measure 42
0000
0013
0000
2000
,  // measure 43
0100
3100
0000
0020
,  // measure 44
0000
0130
0000
0001
,  // measure 45
1000
0100
0010
0100
,  // measure 46
0000
1000
1000
0010
,  // measure 47
0100
0002
0000
0013
,  // measure 48
0100
0010
0100
1000
,  // measure 49
0001
1001
1001
0000
,  // measure 50
0001
0010
1000
0010
,  // measure 51
0001
0100
0100
0010
,  // measure 52
1000
0100
1000
0010
,  // measure 53
0100
0001
1000
0100
,  // measure 54
0000
1000
0100
0010
,  // measure 55
0001
0100
0010
0100
,  // measure 56
0100
0010
0010
1000
,  // measure 57
0001
0100
0010
1000
,  // measure 58
0000
0000
0000
0000
,  // measure 59
0000
0001
0010
1000
,  // measure 60
0010
0001
0001
1000
,  // measure 61
0001
1000
0010
0001
,  // measure 62
0010
1000
1000
0001
,  // measure 63
1000
0100
0100
0001
,  // measure 64
0001
0100
0100
1000
,  // measure 65
0001
1000
1000
0010
,  // measure 66
0010
0100
0001
0010
,  // measure 67
0100
0220
0000
0330
,  // measure 68
1000
0010
0001
0010
,  // measure 69
1000
0010
0110
0000
,  // measure 70
1001
0000
1000
0001
,  // measure 71
0100
0010
0110
0000
,  // measure 72
1001
0000
0001
1000
,  // measure 73
0100
0010
0110
0000
,  // measure 74
1001
0000
0010
1000
,  // measure 75
0001
0100
0000
0000
;

//---------------dance-single - ----------------
#NOTEDATA:;
#CHARTNAME:;
#STEPSTYPE:dance-single;
#DESCRIPTION:;
#CHARTSTYLE:;
#DIFFICULTY:Beginner;
#METER:1;
#RADARVALUES:0.121481,0.126280,0.000000,0.000000,0.000000,125.000000,125.000000,0.000000,0.000000,0.000000,0.000000,0.000000,0.000000,0.000000,0.121481,0.126280,0.000000,0.000000,0.000000,125.000000,125.000000,0.000000,0.000000,0.000000,0.000000,0.000000,0.000000,0.000000;
#CREDIT:;
#NOTES:
// measure 0
0000
0000
0000
0000
,  // measure 1
0000
0000
0000
0000
,  // measure 2
0000
0000
0000
0000
,  // measure 3
0000
0000
0000
0000
,  // measure 4
1000
0000
0000
0000
,  // measure 5
1000
0000
0000
0000
,  // measure 6
0001
0000
0000
0000
,  // measure 7
0010
0000
0000
0000
,  // measure 8
0100
0000
0100
0000
,  // measure 9
0100
0000
0000
0000
,  // measure 10
0010
0000
0010
0000
,  // measure 11
0010
0000
0000
0000
,  // measure 12
0001
0000
0001
0000
,  // measure 13
0001
0000
0000
0000
,  // measure 14
1000
0000
1000
0000
,  // measure 15
1000
0000
1000
0000
,  // measure 16
0010
0000
0010
0000
,  // measure 17
0010
0000
0010
0000
,  // measure 18
0100
0000
0100
0000
,  // measure 19
0100
0000
0100
0000
,  // measure 20
0001
0000
0001
0000
,  // measure 21
0010
0000
0010
0000
,  // measure 22
0100
0000
0100
0000
,  // measure 23
1000
0000
1000
0000
,  // measure 24
1000
0000
0000
0000
,  // measure 25
1000
0000
0001
0000
,  // measure 26
1000
0000
0001
0000
,  // measure 27
0010
0000
0100
0000
,  // measure 28
0010
0000
0100
0000
,  // measure 29
1000
0000
0001
0000
,  // measure 30
1000
0000
0001
0000
,  // measure 31
0100
0000
0010
0000
,  // measure 32
0100
0000
0010
0000
,  // measure 33
0001
0000
1000
0000
,  // measure 34
0001
0000
1000
0000
,  // measure 35
0100
0000
0010
0000
,  // measure 36
0100
0000
0010
0000
,  // measure 37
1000
0000
0001
0000
,  // measure 38
1000
0000
0001
0000
,  // measure 39
0010
0000
0100
0000
,  // measure 40
0010
0000
0100
0000
,  // measure 41
0010
0000
0000
0000
,  // measure 42
0001
0000
0001
0000
,  // measure 43
0001
0000
0001
0000
,  // measure 44
1000
0000
1000
0000
,  // measure 45
1000
0000
1000
0000
,  // measure 46
0010
0000
0010
0000
,  // measure 47
0010
0000
0010
0000
,  // measure 48
0100
0000
0100
0000
,  // measure 49
0100
0000
0100
0000
,  // measure 50
0001
0000
0001
0000
,  // measure 51
0001
0000
0001
0000
,  // measure 52
0100
0000
0100
0000
,  // measure 53
0100
0000
0100
0000
,  // measure 54
1000
0000
1000
0000
,  // measure 55
1000
0000
1000
0000
,  // measure 56
0010
0000
0010
0000
,  // measure 57
0010
0000
0010
0000
,  // measure 58
0000
0000
0000
0000
,  // measure 59
0000
0100
0000
0010
,  // measure 60
0000
0100
0000
0010
,  // measure 61
0000
1000
0000
0010
,  // measure 62
0000
1000
0000
0010
,  // measure 63
0000
1000
0000
0001
,  // measure 64
0000
1000
0000
0001
,  // measure 65
0000
0010
0000
0001
,  // measure 66
0000
0010
0000
0001
,  // measure 67
0000
0010
0000
0000
,  // measure 68
0000
0100
0000
0000
,  // measure 69
0000
1000
0000
0000
,  // measure 70
0000
0001
0000
0000
,  // measure 71
0000
0100
0000
0100
,  // measure 72
0000
0100
0000
0000
,  // measure 73
0000
0010
0000
0010
,  // measure 74
0000
0010
0000
0000
;
