#TITLE:Now Or Never;
#SUBTITLE:;
#ARTIST:Halsey;
#TITLETRANSLIT:;
#SUBTITLETRANSLIT:;
#ARTISTTRANSLIT:;
#GENRE:Hopeless Fountain Kingdom;
#CREDIT:;
#BANNER:Now Or Never-bn.png;
#BACKGROUND:Now Or Never-bg.png;
#LYRICSPATH:;
#CDTITLE:;
#MUSIC:Now Or Never.mp3;
#OFFSET:-0.017530;
#SAMPLESTART:103.776482;
#SAMPLELENGTH:24.954529;
#LASTBEATHINT:257.000000;
#SELECTABLE:YES;
#BPMS:0.000000=110.000000
;
#STOPS:
;
#BGCHANGES:0.000=Now Or Never-video.avi=1.000=1=0=0=StretchNoLoop==CrossFade==,
99999=-nosongbg-=1.000=0=0=0 // don't automatically add -songbackground-
;
#KEYSOUNDS:;
#ATTACKS:;

//---------------dance-single - ----------------
#NOTES:
     dance-single:
     :
     Challenge:
     10:
     0.457390,0.537132,0.358088,0.189576,0.400216,456.000000,405.000000,51.000000,27.000000,0.000000,0.000000,0.457390,0.537132,0.358088,0.189576,0.400216,456.000000,405.000000,51.000000,27.000000,0.000000,0.000000:
0000
0000
0000
0000
,
0000
0000
0000
0000
,
0000
0000
0000
0000
,
0000
0000
0000
0000
0000
0000
0000
0000
0000
0000
0000
0000
0001
1000
0001
1000
,
0100
0000
0010
0000
0002
0000
0000
0000
0003
0000
0000
0000
0100
0010
0100
0010
,
0000
0000
0000
0000
1000
0000
0000
0000
0000
0000
0001
0100
0010
1000
0001
0100
,
0010
0000
1000
0001
0000
0000
0000
0000
0000
0000
1000
0100
0010
0001
1000
0100
,
0010
0000
0001
1000
0000
0000
0000
0000
0000
0000
0000
0000
0001
0000
0100
0001
,
0020
0000
0000
0000
0000
0000
0000
0000
0030
0000
0001
0100
0010
0000
1000
0010
,
0200
0000
0301
1000
0000
0000
0000
0000
0000
0000
0001
1000
0100
0000
1000
0001
,
0020
0000
0000
0000
0000
0000
0000
0000
0030
0001
1000
0001
0100
0010
1000
0100
,
0010
0000
0001
1000
0000
0000
0000
0000
0000
0000
0000
0000
1100
0000
0000
0000
,
1000
0001
1000
0000
0010
0000
1000
0001
2000
0000
0000
3100
0000
0000
0000
0000
,
0000
0010
0001
0100
0010
1000
0100
0010
0002
0000
0000
0000
0003
0000
0000
0000
,
1000
0001
0100
0000
0010
0000
0100
0001
0020
0000
0000
0130
0000
0000
1001
0000
,
0000
0000
0010
1000
0001
0100
0010
1000
0002
0000
0000
0000
0003
0000
0000
0000
,
1000
0100
0010
0001
0100
0010
1000
0000
1100
0000
0000
0101
0000
0000
1001
0000
,
0000
0000
0010
1000
0100
1000
0010
0100
0020
0000
0000
0000
0030
0000
0000
0000
,
1000
0001
0100
0010
1000
0001
1000
0000
0100
0000
0000
0010
0000
0001
1000
0100
,
0010
0000
0100
0000
0000
0000
0010
0000
0100
1000
0001
1000
0001
0000
0100
0000
,
1001
0101
1001
1100
,
0110
0000
0000
0000
2001
0000
0000
0000
3010
0000
0000
0000
0100
0000
0001
1000
,
0100
0010
0000
0000
0100
0000
0000
0000
1100
0000
0000
0000
0010
0000
0000
0000
,
0100
0000
0000
0000
0001
0000
0000
0000
1000
0010
0100
0001
0010
0000
0100
0000
,
0011
1100
1010
0101
,
0110
0000
0000
0000
1002
0000
0000
0000
0013
0000
0000
0000
0001
1000
0000
1000
,
0100
0010
0000
0000
0100
0000
0000
0000
1001
0000
0000
0000
0100
0000
0000
0000
,
0010
0000
0000
0000
1000
0000
0001
0100
0010
0000
0010
1000
0100
0000
0100
1000
,
0001
0000
0001
0010
0100
0000
0100
1000
0010
0000
0010
0100
0001
0000
0001
0010
,
0100
1000
0020
0000
0000
0000
0130
0001
0200
0000
0000
0000
0000
0310
0000
1000
,
0001
1000
0000
0000
0100
0000
0000
0000
0110
0000
0000
0000
0010
0000
0000
0000
,
0001
0000
0000
0000
0100
0000
0000
0000
0010
1000
0100
0010
0001
0000
1000
0000
,
0011
1010
0101
1100
,
0110
0000
0000
0000
1002
0000
0000
0000
0013
0000
0000
0000
0001
0000
1000
0001
,
0100
0010
0000
0000
1000
0000
0000
0000
1100
0000
0000
0000
0100
0000
0000
0000
,
0010
0001
0100
0001
0010
0100
0010
0000
,
2200
0000
0000
0000
,
0000
0000
0000
3300
,
0020
0000
0200
0030
,
0002
0300
1003
1001
,
0001
0000
0010
0000
0100
0000
1000
0001
0000
0000
2000
0000
0100
0000
3000
0000
,
0010
0000
0001
0000
0100
0010
0000
2000
0000
0000
3010
0000
0100
0000
0000
0000
,
0001
0000
1000
0000
0100
0000
0010
0002
0000
0000
1003
0000
0010
0000
0100
0000
,
0001
0100
0001
1000
0001
0000
0100
0010
0000
0000
1000
0000
0100
0000
0000
0000
,
0010
0000
0001
0000
1000
0000
0100
0010
0000
0000
0100
0000
1000
0000
0001
0000
,
1000
0000
0100
0000
0010
0001
0000
1000
0000
0000
0100
0000
0010
0000
0000
0000
,
0001
0000
0000
0100
0000
0000
0010
0000
0000
0000
0000
0000
1000
0000
0000
0001
0000
0000
0100
0000
0000
0010
0000
0000
0000
0000
0000
0000
0000
0000
1000
0000
0000
0000
0000
0000
0001
0000
0000
0000
0000
0000
0000
0000
0000
0000
1000
0000
,
0000
0000
0100
0000
0000
0000
0010
0000
0000
0000
0000
0000
0000
0000
0000
0000
0000
0000
0001
0000
0000
0000
0000
0000
0000
0000
0000
1000
0000
0000
0100
0000
0000
0010
0000
0000
0001
0000
0000
0000
0000
0000
1000
0000
0000
0000
0000
0000
,
1001
1100
1001
0101
,
0110
0000
0000
0000
1002
0000
0000
0000
0013
0000
0000
0000
0100
0000
1000
0001
,
0100
0010
0000
0000
0100
0000
0000
0000
0101
0000
0000
0000
0010
0000
0000
0000
,
0100
0000
0000
0000
1000
0000
0000
0000
0001
0010
0100
1000
0010
0000
0100
0000
,
1010
0101
0011
1100
,
0110
0000
0000
0000
2001
0000
0000
0000
3010
0000
0000
0000
1000
0001
0000
0001
,
0100
0010
0000
0000
0100
0000
0000
0000
1001
0000
0000
0000
0100
0000
0000
0000
,
0010
0000
0000
0000
0001
0000
1000
0100
0010
0000
0010
0001
0100
0000
0100
0001
,
1000
0000
1000
0010
0100
0000
0100
0001
0010
0000
0010
0100
1000
0000
1000
0010
,
0100
0001
0020
0000
0000
0000
0130
1000
0200
0000
0000
0000
0000
0310
0000
0001
,
1000
0001
0000
0000
0100
0000
0000
0000
0110
0000
0000
0000
0010
0000
0000
0000
,
1000
0000
0000
0000
0100
0000
0000
0000
0010
0001
0100
0010
1000
0000
0001
0000
,
1010
0011
1100
0101
,
0110
0000
0000
0000
2001
0000
0000
0000
3010
0000
0000
0000
1000
0000
0001
1000
,
0100
0010
0000
0000
0001
0000
0000
0000
0101
0000
0000
0000
0100
0000
0000
0000
,
0010
1000
0100
1000
0010
0100
0010
0000
;

//---------------dance-single - ----------------
#NOTES:
     dance-single:
     :
     Hard:
     7:
     0.359091,0.425230,0.308939,0.168512,0.196597,358.000000,314.000000,44.000000,24.000000,0.000000,0.000000,0.359091,0.425230,0.308939,0.168512,0.196597,358.000000,314.000000,44.000000,24.000000,0.000000,0.000000:
0000
0000
0000
0000
,
0000
0000
0000
0000
,
0000
0000
0000
0000
,
0000
0000
0000
0000
0000
0000
0001
1000
,
0100
0010
0002
0000
0003
0000
0100
0010
,
0000
0000
1000
0000
0000
0001
0100
0010
,
1000
0000
0001
1000
0000
0000
0000
0000
0000
0000
1000
0000
0100
0000
0010
0000
,
0001
0000
1000
0001
0000
0000
0000
0000
0000
0000
0000
0000
0100
0000
0001
0000
,
0020
0000
0000
0000
0030
0001
0010
1000
,
0100
0000
1000
0001
0000
0000
0000
0000
0000
0000
0001
0000
0100
0000
0001
0000
,
0020
0000
0000
0000
0030
0001
0100
0010
,
1000
0000
0001
1000
0000
0000
0000
0000
0000
0000
0000
0000
0100
0000
0000
0000
,
1000
0000
0010
0000
1000
0000
0001
0000
1000
0000
0000
0100
0000
0000
0000
0000
,
0000
0010
0001
0100
0020
0000
0030
0000
,
1000
0000
0001
0000
0100
0000
0010
0000
1000
0000
0000
0001
0000
0000
1001
0000
,
0000
0001
0010
0100
2000
0000
3000
0000
,
0100
0000
0010
0000
0001
0000
0100
0000
0010
0000
0000
1000
0000
0000
1001
0000
,
0000
0010
1000
0001
0020
0000
0030
0000
,
0001
0000
1000
0000
0100
0000
0010
0000
0001
0000
0000
0100
0000
0000
0010
0000
,
1000
0000
0100
0000
0000
0000
0001
0000
0100
0000
0001
1000
0001
0000
1000
0000
,
1001
0101
1001
1100
,
0110
0000
0000
0000
2001
0000
0000
0000
3010
0000
0000
0000
0000
0000
0001
1000
,
0001
1000
0000
0000
0000
0000
0000
0000
1100
0000
0000
0000
0000
0000
0000
0000
,
0010
0000
0000
0000
0100
0000
0000
0000
0001
1000
0001
1000
0001
0000
1000
0000
,
0010
0101
0011
1100
,
0110
0000
0000
0000
1002
0000
0000
0000
0013
0000
0000
0000
0000
0001
0000
1000
,
0001
1000
0000
0000
0000
0000
0000
0000
1001
0000
0000
0000
0000
0000
0000
0000
,
0010
0000
0000
0000
1000
0000
0001
1000
0001
0000
1000
0100
1000
0000
0100
0000
,
0010
0001
0100
0001
1000
0010
1000
0100
,
0010
0000
0002
0000
0000
0000
1003
0000
0200
0000
0000
0000
0300
0010
0000
0001
,
1000
0001
0000
0000
0000
0000
0000
0000
1001
0000
0000
0000
0000
0000
0000
0000
,
0100
0000
0000
0000
0000
0000
0000
0000
0001
1000
0001
1000
0001
0000
1000
0000
,
0010
1010
0101
1100
,
0110
0000
0000
0000
1002
0000
0000
0000
0013
0000
0000
0000
0000
0000
1000
0001
,
0100
0010
0000
0000
0000
0000
0000
0000
1001
0000
0000
0000
0000
0000
0000
0000
,
0100
0001
0100
0001
0010
0100
0010
0000
,
2200
0000
0000
0000
,
0000
0000
0000
3300
,
0020
0000
0200
0030
,
0002
0300
1003
1001
,
0001
0000
0000
0000
0010
0000
0100
1000
0000
0000
0200
0000
0000
0000
0300
0000
,
0010
0000
0001
0000
0100
0010
0000
1000
0000
0000
0002
0000
0000
0000
0003
0000
,
0000
0000
0000
0000
0100
0000
0001
2000
0000
0000
3010
0000
0000
0000
0000
0000
,
0100
0010
0100
0010
0100
0000
0001
1000
0000
0000
0001
0000
0000
0000
0000
0000
,
0010
0000
0001
0000
1000
0000
0100
0010
0000
0000
0100
0000
1000
0000
0000
0000
,
0001
0000
0100
0000
0010
1000
0000
0010
0000
0000
0100
0000
0000
0000
0000
0000
,
0001
0100
0001
0000
1000
0010
1000
0010
0000
0000
1000
0000
0001
0000
0000
0000
,
1000
0000
0100
0000
0000
0000
0010
0000
0000
0001
1000
0001
1000
0000
0001
0000
,
1001
0101
1001
1100
,
0110
0000
0000
0000
2001
0000
0000
0000
3010
0000
0000
0000
0000
0000
0001
1000
,
0001
1000
0000
0000
0000
0000
0000
0000
1100
0000
0000
0000
0000
0000
0000
0000
,
0010
0000
0000
0000
0100
0000
0000
0000
0001
1000
0001
1000
0001
0000
1000
0000
,
0010
0101
0011
1100
,
0110
0000
0000
0000
1002
0000
0000
0000
0013
0000
0000
0000
0000
0001
0000
1000
,
0001
1000
0000
0000
0000
0000
0000
0000
1001
0000
0000
0000
0000
0000
0000
0000
,
0010
0000
0000
0000
1000
0000
0001
1000
0001
0000
1000
0100
1000
0000
0100
0000
,
0010
0001
0100
0001
1000
0010
1000
0100
,
0010
0000
0002
0000
0000
0000
1003
0000
0200
0000
0000
0000
0300
0010
0000
0001
,
1000
0001
0000
0000
0000
0000
0000
0000
1001
0000
0000
0000
0000
0000
0000
0000
,
0100
0000
0000
0000
0000
0000
0000
0000
0001
1000
0001
1000
0001
0000
1000
0000
,
0010
1010
0101
1100
,
0110
0000
0000
0000
1002
0000
0000
0000
0013
0000
0000
0000
0000
0000
1000
0001
,
0100
0010
0000
0000
0000
0000
0000
0000
1001
0000
0000
0000
0000
0000
0000
0000
,
0100
0001
0100
0001
0010
0100
0010
0000
;

//---------------dance-single - ----------------
#NOTES:
     dance-single:
     :
     Medium:
     5:
     0.244744,0.290947,0.119363,0.287875,0.014043,244.000000,227.000000,17.000000,41.000000,0.000000,0.000000,0.244744,0.290947,0.119363,0.287875,0.014043,244.000000,227.000000,17.000000,41.000000,0.000000,0.000000:
0000
0000
0000
0000
,
0000
0000
0000
0000
,
0000
0000
0000
0000
,
0000
0000
0000
0000
0000
0000
0001
1000
,
0100
0010
0002
0000
0003
0000
0100
0010
,
0000
0000
1000
0000
0000
0001
0100
0000
,
0020
0000
1030
0000
0000
1000
0100
0000
,
0020
0000
0031
0000
0000
0000
0100
0001
,
0020
0000
0000
0000
0030
0100
1000
0100
,
2000
0000
3001
0000
0000
0001
0100
0001
,
0020
0000
0000
0000
0030
0001
0100
0001
,
0200
0310
0000
1000
,
0100
0000
0000
0000
0010
0000
0000
0000
0001
0000
0000
1000
0000
0000
0000
0000
,
0000
0100
0010
0000
0002
0000
0003
0000
,
1000
0000
0000
0000
0001
0000
0000
0000
0100
0000
0000
0010
0000
0000
0110
0000
,
0000
1000
0100
0000
0020
0000
0030
0000
,
0001
0000
1000
0000
0001
0000
1000
0000
0001
0000
0000
1000
0000
0000
1001
0000
,
0000
0010
0100
0000
0020
0000
0030
0000
,
0001
0000
1000
0000
0100
0000
0010
0000
0001
0000
0000
0100
0000
0000
0010
0000
,
1000
0000
0000
0000
,
1001
0001
1001
1000
,
1001
0000
0100
0000
0010
0000
0001
1000
,
0002
0000
0103
0000
,
0010
0000
1000
0000
0001
1000
0001
1000
,
0001
0010
0110
0100
,
0110
0000
0010
0000
0001
0000
1000
0001
,
1000
0000
1001
0000
,
0010
0000
0000
1000
0001
1000
0001
0000
,
0020
0230
2300
3002
,
0203
0000
0300
0000
0020
0000
0030
1000
,
0002
0000
1003
0000
,
0020
0000
0000
0000
1030
0001
1000
0001
,
0100
0010
1000
0001
,
0100
0000
0010
0000
2000
0000
3001
1000
,
0001
0000
1001
0000
,
0100
0000
0001
0000
0010
0100
0010
0000
,
2200
0000
0000
0000
,
0000
0000
0000
3300
,
0020
0000
0200
0030
,
0002
0300
1003
1000
,
0001
0010
0200
0300
,
1000
0100
1000
0000
0020
0000
0030
0000
,
1000
0001
0200
0300
,
0010
0100
0010
0000
2000
0000
3000
0000
,
0100
0010
0200
0300
,
0010
0001
0010
0000
0002
0000
0003
0000
,
1000
0001
0100
0000
0010
1000
0001
0000
,
0100
0000
0000
0000
,
1001
0001
1001
1000
,
1001
0000
0100
0000
0010
0000
0001
1000
,
0002
0000
0103
0000
,
0010
0000
1000
0000
0001
1000
0001
1000
,
0001
0010
0110
0100
,
0110
0000
0010
0000
0001
0000
1000
0001
,
1000
0000
1001
0000
,
0010
0000
0000
1000
0001
1000
0001
0000
,
0020
0230
2300
3002
,
0203
0000
0300
0000
0020
0000
0030
1000
,
0002
0000
1003
0000
,
0020
0000
0000
0000
1030
0001
1000
0001
,
0100
0010
1000
0001
,
0100
0000
0010
0000
2000
0000
3001
1000
,
0001
0000
1001
0000
,
0100
0000
0001
0000
0010
0100
0010
0000
;

//---------------dance-single - ----------------
#NOTES:
     dance-single:
     :
     Easy:
     3:
     0.167509,0.201425,0.000000,0.252768,0.000000,167.000000,167.000000,0.000000,36.000000,0.000000,0.000000,0.167509,0.201425,0.000000,0.252768,0.000000,167.000000,167.000000,0.000000,36.000000,0.000000,0.000000:
// measure 0
0000
0000
0000
0000
,  // measure 1
0000
0000
0000
0000
,  // measure 2
0000
0000
0000
0000
,  // measure 3
0000
0000
0000
0001
,  // measure 4
0100
0002
0003
1000
,  // measure 5
0000
0100
0000
0010
,  // measure 6
0002
1003
0000
0100
,  // measure 7
0020
1030
0000
0001
,  // measure 8
0020
0000
0030
0100
,  // measure 9
2000
3100
0000
0010
,  // measure 10
0002
0000
0003
0100
,  // measure 11
0020
0130
0000
0010
,  // measure 12
1000
0100
0010
0000
,  // measure 13
0000
0001
2000
3000
,  // measure 14
0010
0100
0010
0000
,  // measure 15
0000
1000
0002
0003
,  // measure 16
0100
0010
0100
0000
,  // measure 17
0000
0001
0020
0030
,  // measure 18
0100
1000
0001
0000
,  // measure 19
0100
0000
0000
0000
,  // measure 20
1000
1000
0001
0001
,  // measure 21
0100
0100
0010
0010
,  // measure 22
2000
0000
3100
0000
,  // measure 23
0020
0000
0031
0001
,  // measure 24
1000
1000
0010
0010
,  // measure 25
0100
0100
0001
0001
,  // measure 26
2000
0000
3001
0000
,  // measure 27
0200
0000
0310
0010
,  // measure 28
1000
0100
1000
0100
,  // measure 29
0010
0001
0010
0001
,  // measure 30
0200
0000
0310
0000
,  // measure 31
2000
0000
3001
0000
,  // measure 32
0100
0100
0010
0010
,  // measure 33
1000
1000
0002
0003
,  // measure 34
0200
0000
0310
0000
,  // measure 35
2000
0000
3001
0000
,  // measure 36
0200
0000
0000
0000
,  // measure 37
0000
0000
0000
0300
,  // measure 38
0020
0000
0000
0000
,  // measure 39
0000
0000
1030
1000
,  // measure 40
0001
0001
0200
0300
,  // measure 41
1000
1000
0200
0300
,  // measure 42
0010
0010
0002
0003
,  // measure 43
1000
1000
0020
0030
,  // measure 44
0100
0100
0002
0003
,  // measure 45
0010
0010
0200
0300
,  // measure 46
1000
1000
0001
0001
,  // measure 47
0100
0000
0000
0000
,  // measure 48
1000
1000
0001
0001
,  // measure 49
0100
0100
0010
0010
,  // measure 50
2000
0000
3100
0000
,  // measure 51
0020
0000
0031
0001
,  // measure 52
1000
1000
0010
0010
,  // measure 53
0100
0100
0001
0001
,  // measure 54
2000
0000
3001
0000
,  // measure 55
0200
0000
0310
0010
,  // measure 56
1000
0100
1000
0100
,  // measure 57
0010
0001
0010
0001
,  // measure 58
0200
0000
0310
0000
,  // measure 59
2000
0000
3001
0000
,  // measure 60
0100
0100
0010
0010
,  // measure 61
1000
1000
0002
0003
,  // measure 62
0200
0000
0310
0000
,  // measure 63
2000
0000
3001
0010
;

//---------------dance-single - ----------------
#NOTES:
     dance-single:
     :
     Beginner:
     1:
     0.127387,0.156049,0.000000,0.000000,0.000000,127.000000,127.000000,0.000000,0.000000,0.000000,0.000000,0.127387,0.156049,0.000000,0.000000,0.000000,127.000000,127.000000,0.000000,0.000000,0.000000,0.000000:
0000
0000
0000
0000
,
0000
0000
0000
0000
,
0000
0000
0000
0000
,
0000
0000
0000
0001
,
0001
0001
0000
1000
,
0000
0100
0000
0010
,
0010
0000
0000
0100
,
0100
0000
0000
0000
,
1000
0000
0000
0001
,
0001
0001
0000
0000
,
0100
0000
0000
0010
,
0010
0010
0000
0000
,
1000
0000
0100
0000
,
0000
0001
0001
0000
,
0010
0000
0100
0000
,
0000
1000
1000
0000
,
0010
0000
0100
0000
,
0000
0010
0010
0000
,
1000
0000
0001
0000
,
0000
0000
0000
0000
,
0010
0010
0010
0010
,
0010
0010
0000
0000
,
0100
0000
1000
0000
,
0001
0000
0100
0000
,
0010
0010
0010
0010
,
0010
0010
0000
0000
,
1000
0000
0100
0000
,
0010
0000
0001
0000
,
1000
1000
1000
1000
,
1000
0000
0100
0000
,
0001
0000
0100
0000
,
1000
0000
0100
0000
,
0001
0001
0001
0001
,
0001
0001
0000
0000
,
0100
0000
0010
0000
,
1000
0000
0001
0000
,
0010
0000
0000
0000
,
0000
0000
0000
0000
,
0000
0000
0000
0000
,
0000
0000
0000
0000
,
1000
0000
0100
0000
,
0001
0000
1000
0000
,
0001
0000
0010
0000
,
1000
0000
0001
0000
,
0100
0000
0010
0000
,
1000
0000
0001
0000
,
0010
0000
0100
0000
,
1000
0000
0000
0000
,
0010
0010
0010
0010
,
0010
0010
0000
0000
,
0100
0000
0001
0000
,
1000
0000
0100
0000
,
0010
0010
0010
0010
,
0010
0010
0000
0000
,
0001
0000
1000
0000
,
0010
0000
0100
0000
,
0010
0010
0010
0010
,
0010
0000
1000
0000
,
0100
0000
0001
0000
,
0100
0000
1000
0000
,
0010
0010
0010
0010
,
0010
0010
0000
0000
,
0100
0000
0001
0000
,
1000
0000
0100
0000
;
