#TITLE:Ninety Degrees;
#SUBTITLE:;
#ARTIST:Ladytron;
#TITLETRANSLIT:;
#SUBTITLETRANSLIT:;
#ARTISTTRANSLIT:;
#GENRE:Gravity The Seducer;
#CREDIT:;
#BANNER:Ninety Degrees-bn.png;
#BACKGROUND:Ninety Degrees-bg.png;
#LYRICSPATH:;
#CDTITLE:;
#MUSIC:Ninety Degrees.mp3;
#OFFSET:-6.285000;
#SAMPLESTART:75.154999;
#SAMPLELENGTH:16.434999;
#SELECTABLE:YES;
#BPMS:0.000000=115.000000
;
#STOPS:
;
#BGCHANGES:;
#KEYSOUNDS:;
#ATTACKS:;

//---------------dance-single - Blank----------------
#NOTES:
     dance-single:
     :
     Hard:
     8:
     0.443692,0.362598,0.164647,0.456522,0.000000,332.000000,22.000000,61.000000,0.000000,0.000000,0.000000,0.443692,0.362598,0.164647,0.456522,0.000000,332.000000,22.000000,61.000000,0.000000,0.000000,0.000000:
0000
0000
0000
0000
,
1000
0100
0010
0001
1000
0100
0010
0001
,
1000
0010
0100
0001
1000
0010
0100
0001
,
0010
0100
1000
0001
0010
0100
1000
0001
,
0100
0001
1000
0010
1000
0001
0100
0000
,
0010
0100
0001
1000
0010
0100
0001
1000
,
0100
0010
0001
1000
0100
0010
0001
1000
,
0010
0100
0001
1000
0010
0100
0001
1000
,
0001
0010
0001
1000
0100
1000
0001
0000
,
1000
0010
1000
0010
0100
0001
1000
0010
,
0100
0001
0100
0001
1000
0010
0100
0001
,
0010
0100
0010
0100
1000
0100
0010
0001
,
1000
0100
0010
0200
0000
1300
0001
0000
,
0100
0010
0100
0010
0100
0001
1000
0010
,
0100
0010
0100
0010
0100
0001
1000
0010
,
0100
0001
0100
0001
1000
0010
1000
0010
,
0100
0001
1000
0020
0000
0130
0010
0000
,
2010
0000
3010
2000
0000
3200
0000
0310
,
0100
0020
0000
0031
0010
0000
1001
0000
,
0102
1003
2100
3001
,
0102
1003
2100
3001
,
0020
0000
0031
2000
0000
3002
0000
0103
,
0001
0200
0000
0310
1000
0000
0101
0000
,
2001
3100
1002
0103
,
2001
0000
3100
0000
1002
0000
0103
0001
,
0020
0000
0130
0000
0020
0000
0130
1000
,
0002
0000
0103
0000
0002
0000
0103
0001
,
0020
0230
2300
3200
,
0320
0000
0230
0000
0302
0000
0103
1000
,
0001
0001
0100
0100
,
1000
1000
0100
0100
,
0001
0010
0100
1000
,
0001
0010
0100
1000
,
2002
0000
3003
0010
1000
0200
0000
1300
,
0100
0001
0000
0100
1000
0010
1000
0000
,
0102
0013
2100
3010
,
0102
0013
2100
3010
,
0200
0000
0310
1000
0100
0020
0000
0031
,
0100
0002
0000
1003
0010
0000
1001
0000
,
2100
3001
0102
1003
,
2100
0000
3001
0000
0102
0000
1003
0001
,
0020
0000
0230
0000
0320
0000
0031
0100
,
0002
0000
2003
0000
3002
0000
1003
0010
,
0200
2300
3200
0320
,
0230
0302
0203
0320
,
2030
0001
3100
2100
,
3002
0100
1003
0010
,
0100
0010
0100
0010
,
2000
0001
0100
3100
,
1000
0100
1000
0100
0010
0001
0010
0001
,
0100
0001
0100
0001
1000
0001
1000
0001
,
0100
0010
0100
0010
1000
0010
1000
0010
,
0100
0001
1000
0010
0100
0001
1000
0010
,
1000
0100
1000
0100
0010
0001
0010
0001
,
1000
0100
1000
0100
0010
0001
0010
0001
,
0100
0010
0100
0010
1000
0001
1000
0001
,
0100
0010
1000
0001
0100
0010
1000
0001
,
0100
0000
0000
0000
;

//---------------dance-single - Blank----------------
#NOTES:
     dance-single:
     :
     Medium:
     5:
     0.237349,0.277281,0.052388,0.127227,0.000000,198.000000,7.000000,17.000000,0.000000,0.000000,0.000000,0.237349,0.277281,0.052388,0.127227,0.000000,198.000000,7.000000,17.000000,0.000000,0.000000,0.000000:
0000
0000
0000
0000
,
1000
0000
0000
0000
0100
0010
0100
0010
,
0001
0000
0000
0000
0100
0010
0100
0010
,
1000
0000
0001
0010
,
0002
0203
0320
2030
,
3001
0000
0000
0000
1000
0001
1000
0001
,
0100
0000
0000
0000
0001
1000
0001
1000
,
0100
0000
0010
0100
,
2000
3020
0230
0302
,
0013
0000
0000
0000
0100
0100
0000
0100
,
1000
0000
0000
0000
0001
0001
0000
1000
,
0001
0000
0100
0010
,
0100
0001
1000
0010
,
1000
0000
0000
0100
0010
0100
0000
0010
,
0001
0000
0000
0000
1000
1000
0000
0001
,
0100
0000
0010
0100
,
0001
0010
0100
1000
,
2001
0000
0000
3100
0000
0010
0000
0100
,
0000
0010
0000
0001
0010
0000
1001
0000
,
0101
0100
0010
1000
,
0001
0100
0010
1000
,
0020
0000
0000
1030
0000
0100
0000
0010
,
0000
0100
0000
1000
0010
0000
1001
0000
,
1100
0010
0100
0010
,
0100
0001
0010
0001
,
2000
0000
3100
0000
,
0002
0000
0103
0000
,
0010
1000
0010
0001
,
0010
1000
0010
0001
,
0010
0000
0000
0000
,
1000
0000
0000
0000
,
0001
0000
0000
0000
,
0000
0000
0000
0000
,
0100
0000
0010
0000
1000
0010
1000
0000
,
0100
0010
0001
0100
,
0001
0000
0010
0000
,
0100
0000
1000
0000
,
0001
0000
1000
0000
0010
0100
0010
0000
,
1000
0100
0010
0001
,
0100
0000
0010
0000
,
1000
0000
0001
0000
,
0100
0100
0010
0010
,
1000
1000
0001
0001
,
0010
0000
0100
0000
,
0010
0000
0100
0000
,
1000
0010
0001
0100
,
0001
0010
1000
0100
,
0010
0001
1000
0001
,
1000
0010
0100
0001
,
2002
0000
3003
0010
,
2002
0000
3003
0100
,
0001
0100
0001
0000
1000
0100
1000
0000
,
0020
0000
1030
0100
,
0010
0010
0001
0100
,
0010
0100
0010
0000
1000
0000
0100
0000
,
0010
0100
0010
0001
,
1000
0001
0100
0000
0010
0000
0100
0000
,
0001
0000
0000
0000
;

//---------------dance-single - Blank----------------
#NOTES:
     dance-single:
     :
     Easy:
     2:
     0.119743,0.127976,0.007484,0.112259,0.000000,96.000000,1.000000,15.000000,0.000000,0.000000,0.000000,0.119743,0.127976,0.007484,0.112259,0.000000,96.000000,1.000000,15.000000,0.000000,0.000000,0.000000:
// measure 0
0000
0000
0000
0000
,  // measure 1
1000
0000
0010
0000
,  // measure 2
0100
0000
0001
0000
,  // measure 3
0010
0000
0100
0000
,  // measure 4
1000
0000
0001
0000
,  // measure 5
1000
0000
0100
0000
,  // measure 6
0001
0000
0100
0000
,  // measure 7
1000
0000
0010
0000
,  // measure 8
0100
0000
0001
0000
,  // measure 9
0020
0000
0130
0100
,  // measure 10
1000
0000
0100
0100
,  // measure 11
1000
0000
0001
0000
,  // measure 12
0100
0000
0010
0000
,  // measure 13
0200
0000
0301
0001
,  // measure 14
0100
0000
0001
0001
,  // measure 15
0100
0000
0010
0000
,  // measure 16
1000
0000
0100
0000
,  // measure 17
0020
0000
0031
1000
,  // measure 18
0001
1000
0010
0100
,  // measure 19
0020
0000
0000
0000
,  // measure 20
0130
0000
0000
0000
,  // measure 21
0002
0000
0013
0100
,  // measure 22
0010
0100
0010
0100
,  // measure 23
2000
0000
0000
0000
,  // measure 24
3001
0000
0000
0000
,  // measure 25
0100
0000
0000
0000
,  // measure 26
1000
0000
0000
0000
,  // measure 27
0001
0000
0000
0000
,  // measure 28
0000
0000
0000
0000
,  // measure 29
0100
0000
0000
0000
,  // measure 30
0001
0000
0000
0000
,  // measure 31
1000
0000
0000
0000
,  // measure 32
0000
0000
0000
0000
,  // measure 33
0100
0100
0010
0100
,  // measure 34
1000
0000
0001
0000
,  // measure 35
0010
0000
0000
0000
,  // measure 36
0100
0000
0000
0000
,  // measure 37
0010
0000
0001
0001
,  // measure 38
1000
0001
0100
0000
,  // measure 39
0010
0000
0100
0000
,  // measure 40
0010
0000
0100
0000
,  // measure 41
0001
0000
0000
0000
,  // measure 42
1000
0000
0000
0000
,  // measure 43
0100
0000
0000
0000
,  // measure 44
0000
0000
0000
0000
,  // measure 45
1000
0000
0001
0000
,  // measure 46
0100
0000
0010
0000
,  // measure 47
0100
0000
0000
0000
,  // measure 48
0010
0000
0000
0000
,  // measure 49
2002
0000
0000
3003
,  // measure 50
0200
0000
0000
0300
,  // measure 51
0002
0000
0000
0003
,  // measure 52
2000
0000
0000
3000
,  // measure 53
0020
0000
0000
0030
,  // measure 54
0200
0000
0000
0300
,  // measure 55
0020
0000
0000
0030
,  // measure 56
2000
0000
0000
3000
,  // measure 57
0100
0000
0000
0000
;

//---------------dance-single - Blank----------------
#NOTES:
     dance-single:
     :
     Beginner:
     1:
     0.074840,0.085317,0.007484,0.022452,0.000000,66.000000,1.000000,3.000000,0.000000,0.000000,0.000000,0.074840,0.085317,0.007484,0.022452,0.000000,66.000000,1.000000,3.000000,0.000000,0.000000,0.000000:
0000
0000
0000
0000
,
1000
0000
0000
0000
,
0100
0000
0000
0000
,
0010
0000
0000
0000
,
1000
0000
0000
0000
,
1000
0000
0000
0000
,
0001
0000
0000
0000
,
1000
0000
0000
0000
,
0100
0000
0000
0000
,
0010
0000
0100
0000
,
1000
0000
0000
0000
,
1000
0000
0000
0000
,
0100
0000
0000
0000
,
0100
0000
0001
0000
,
0100
0000
0000
0000
,
0100
0000
0010
0000
,
1000
0000
0100
0000
,
0010
0000
0001
0000
,
1000
0000
0010
0000
,
0200
0000
0000
0000
,
0300
0000
0000
0000
,
0002
0000
0013
0000
,
0100
0000
0010
0000
,
0200
0000
0000
0000
,
0300
0000
0000
0000
,
1000
0000
0000
0000
,
0001
0000
0000
0000
,
0100
0000
0000
0000
,
0000
0000
0000
0000
,
0100
0000
0000
0000
,
0001
0000
0000
0000
,
1000
0000
0000
0000
,
0000
0000
0000
0000
,
0100
0000
0010
0000
,
1000
0000
0001
0000
,
0010
0000
0000
0000
,
0100
0000
0000
0000
,
0010
0000
0001
0000
,
1000
0000
0100
0000
,
0010
0000
0000
0000
,
0100
0000
0000
0000
,
0010
0000
0000
0000
,
0001
0000
0000
0000
,
0100
0000
0000
0000
,
0000
0000
0000
0000
,
0010
0000
1000
0000
,
0001
0000
0100
0000
,
0010
0000
0000
0000
,
0100
0000
0000
0000
,
1001
0000
0000
0000
,
0100
0000
0000
0000
,
0001
0000
0000
0000
,
1000
0000
0000
0000
,
0010
0000
0000
0000
,
0100
0000
0000
0000
,
0010
0000
0000
0000
,
1000
0000
0000
0000
,
0100
0000
0000
0000
;
