#VERSION:0.83;
#TITLE:Mystik;
#SUBTITLE:;
#ARTIST:Tash Sultana;
#TITLETRANSLIT:;
#SUBTITLETRANSLIT:;
#ARTISTTRANSLIT:;
#GENRE:Mystik;
#ORIGIN:;
#CREDIT:;
#BANNER:Mystik-bn.png;
#BACKGROUND:Black.png;
#PREVIEWVID:Mystik-preview.avi;
#JACKET:Mystik-jacket.png;
#CDIMAGE:;
#DISCIMAGE:Mystik-bg.png;
#LYRICSPATH:;
#CDTITLE:;
#MUSIC:Mystik.mp3;
#OFFSET:-0.012000;
#SAMPLESTART:42.961426;
#SAMPLELENGTH:15.092743;
#SELECTABLE:YES;
#DISPLAYBPM:132.000000:134.000000;
#BPMS:0.000=132.400,
95.000=133.000,
96.000=132.500,
160.000=132.460,
196.000=134.500;
#STOPS:;
#DELAYS:;
#WARPS:;
#TIMESIGNATURES:0.000=4=4;
#TICKCOUNTS:0.000=2;
#COMBOS:0.000=1;
#SPEEDS:0.000=1.000=0.000=0;
#SCROLLS:0.000=1.000;
#FAKES:;
#LABELS:0.000=Song Start;
#LASTSECONDHINT:126.769714;
#BGCHANGES:0.000=Mystik-video.avi=1.000=0=0=1=====,
99999=-nosongbg-=1.000=0=0=0 // don't automatically add -songbackground-
;
#KEYSOUNDS:;
#ATTACKS:
;

//---------------dance-single - ----------------
#NOTEDATA:;
#CHARTNAME:;
#STEPSTYPE:dance-single;
#DESCRIPTION:;
#CHARTSTYLE:;
#DIFFICULTY:Challenge;
#METER:8;
#RADARVALUES:0.472719,0.540450,0.257543,0.148282,0.678977,424.000000,391.000000,33.000000,19.000000,0.000000,0.000000,1.000000,0.000000,0.000000,0.472719,0.540450,0.257543,0.148282,0.678977,424.000000,391.000000,33.000000,19.000000,0.000000,0.000000,1.000000,0.000000,0.000000;
#CREDIT:;
#DISPLAYBPM:132.000000:134.000000;
#NOTES:
// measure 0
0000
0000
0000
0000
,  // measure 1
0000
0000
0000
0000
,  // measure 2
0000
0000
0000
0000
,  // measure 3
0000
0000
0000
0000
,  // measure 4
1000
0000
1000
0001
0000
0000
0100
0000
0100
0010
0000
0010
,  // measure 5
1000
0000
1000
0001
0000
0000
0010
0000
0010
0100
0000
0100
,  // measure 6
1000
0000
1000
0001
0000
0001
0100
0000
0100
0010
0000
0010
,  // measure 7
1000
0000
1000
0100
0000
0000
0001
0000
0001
1000
0000
0100
,  // measure 8
1000
0000
0001
1000
0000
0010
0000
0000
0100
0001
0000
1000
,  // measure 9
0000
0000
0100
1000
0000
0010
0000
0000
0100
0001
0000
0001
,  // measure 10
1000
0000
0010
0100
0000
0001
0010
0000
0100
1000
0000
1000
,  // measure 11
0010
0000
0010
0100
0000
0000
0001
0000
0001
1000
0000
1000
,  // measure 12
0100
0000
0010
0100
0000
0010
0000
0000
0001
1000
0000
0010
,  // measure 13
0100
0000
0000
0000
0001
0000
1000
0000
0000
0000
0010
0000
0000
0000
0000
0200
0000
0000
0000
0000
0000
0300
0000
0000
,  // measure 14
0001
0000
0010
0000
0100
0000
1000
0000
0010
0000
0100
0000
,  // measure 15
0000
0000
0000
0002
0000
0000
0000
0000
0000
0000
0000
0000
0003
0000
0000
0000
1000
0000
0100
0000
0000
0000
0010
0000
,  // measure 16
0001
0000
1000
0010
0000
0100
0000
0000
0100
0001
0000
0010
,  // measure 17
0100
0000
1000
0000
0000
0010
0100
0000
0001
0000
0000
0010
,  // measure 18
0100
0000
0000
1000
0000
0001
0000
0000
0100
0010
0000
1000
,  // measure 19
0001
0000
0010
0100
0000
0000
0100
0000
1000
0001
1000
0001
,  // measure 20
0100
0000
0100
0010
0000
1000
0000
0000
1000
0100
0000
0010
,  // measure 21
0001
0000
0001
0100
0000
0010
0000
0000
1000
0001
0000
1000
,  // measure 22
0100
0000
0010
0100
0000
0010
0000
0000
0001
0000
1000
0000
,  // measure 23
0100
0000
0000
0010
0000
0101
0000
0000
0001
0100
0000
0010
,  // measure 24
2000
3100
0102
1003
,  // measure 25
1010
0000
2200
0000
3300
0000
0010
0000
0010
0001
0000
0001
,  // measure 26
0100
0000
0100
1000
0000
1000
0010
0000
0010
0001
0000
0100
,  // measure 27
1000
0000
0000
0000
0000
1000
0010
0000
0100
0001
0000
1000
,  // measure 28
0001
0000
0010
0001
0000
1000
0001
0000
0100
0001
0000
1000
,  // measure 29
0001
0000
0000
0000
0000
0010
0100
0000
0100
1000
0000
0001
,  // measure 30
0010
0000
0010
0100
0000
1000
0001
0000
0001
0100
0000
0010
,  // measure 31
1000
0000
0000
0100
0000
0000
0010
0000
0001
1000
0000
1000
,  // measure 32
0002
0103
2100
3001
,  // measure 33
0011
0000
0202
0000
0303
0000
0010
0000
0010
1000
0000
1000
,  // measure 34
0100
0000
0100
0001
0000
0001
0010
0000
0010
1000
0000
0100
,  // measure 35
0001
0000
0000
0000
0000
0001
0010
0000
0100
1000
0000
0001
,  // measure 36
1000
0000
0010
1000
0000
0001
1000
0000
0100
1000
0000
0001
,  // measure 37
1000
0000
0000
0000
0000
0010
0100
0000
0100
0001
0000
1000
,  // measure 38
0010
0000
0010
0100
0000
0001
1000
0000
1000
0100
0000
0010
,  // measure 39
0001
0000
0000
0100
0000
0010
0000
0000
1000
0000
0000
2002
,  // measure 40
0000
0000
0000
0000
0000
0000
0000
3003
0010
1000
0100
0010
,  // measure 41
0001
0000
0001
0100
0010
0100
0010
0000
1000
0100
0000
0010
,  // measure 42
0000
0000
0002
0000
0000
0000
0000
0000
0000
0000
0000
0000
,  // measure 43
0003
0000
0000
0000
0000
0000
0000
0000
0000
0000
0101
0000
0000
0000
0000
0000
0100
0010
0100
0000
0000
0000
0010
0000
,  // measure 44
1000
0000
0000
0000
1000
0100
1000
0000
0000
0000
1000
0000
0010
0000
0000
0000
0010
0000
0100
0000
0000
0000
0100
0000
,  // measure 45
0001
0000
0000
0000
0000
0011
0000
0000
1001
0000
0000
1100
,  // measure 46
0001
0000
0100
0001
0000
1000
0100
0000
0000
1100
0000
0000
,  // measure 47
0101
0110
1100
0101
,  // measure 48
2200
0000
0000
0000
,  // measure 49
0000
0000
0000
3300
,  // measure 50
0020
0000
0000
0000
0000
0000
0130
0001
1000
0000
0000
0100
0000
0000
0010
0001
,  // measure 51
0010
0000
0000
0000
0000
0000
0100
1000
0100
0000
0100
0010
0000
0010
0001
0000
,  // measure 52
2000
0000
0000
0000
3000
0000
0010
0100
0010
0000
0000
1000
0000
0000
0100
0010
,  // measure 53
0100
0000
0000
0000
0000
0000
1000
0001
1000
0000
0000
0000
0110
0000
0000
0000
,  // measure 54
0001
0000
0000
0000
0010
0000
0100
1000
0001
0000
0000
0100
0000
0000
0010
1000
,  // measure 55
0010
0000
0000
0000
0100
0000
0001
1000
0001
0000
0001
0010
0000
0010
0100
0000
,  // measure 56
1000
0000
0000
0000
0010
0000
0100
0001
1000
0000
0000
0010
0000
0000
1000
0001
,  // measure 57
1000
0000
0000
0000
0100
0000
0010
0001
0010
0000
0000
0000
0100
0000
0000
0000
,  // measure 58
1001
0000
0000
0000
1100
0000
0000
0000
0001
0100
0000
0100
0001
0000
0000
0000
,  // measure 59
1000
0000
0000
0000
1100
0000
0000
0000
0010
1000
0000
0100
0001
0000
1000
0000
,  // measure 60
0001
0000
0000
0000
0011
0000
0000
0000
0100
1000
0000
0001
1000
0000
0000
0000
,  // measure 61
0010
0000
0000
0000
1001
0000
0000
0000
1000
0010
0000
0000
0101
0000
0000
0000
,  // measure 62
0100
0000
0000
0000
1001
0000
0010
1000
0010
0100
0000
0000
0101
0000
0000
0000
,  // measure 63
0100
0000
0000
0000
1001
0000
0100
0001
0100
0010
0000
0000
1100
0000
0000
0000
,  // measure 64
0010
0000
0000
0000
1001
0000
0100
1000
0001
0100
0000
0000
1001
0000
0000
0000
,  // measure 65
0010
0000
0000
0000
1010
0000
0001
0010
0001
0000
0001
0000
0001
0000
0001
0000
,  // measure 66
2040
0000
0000
0000
,  // measure 67
0000
0000
0000
0000
0000
0000
0000
0000
0000
0000
0000
0000
0000
0000
0000
3030
,  // measure 68
0000
0002
0000
0000
0000
0000
0000
0000
,  // measure 69
0000
0003
0000
0000
;

//---------------dance-single - ----------------
#NOTEDATA:;
#CHARTNAME:;
#STEPSTYPE:dance-single;
#DESCRIPTION:;
#CHARTSTYLE:;
#DIFFICULTY:Hard;
#METER:7;
#RADARVALUES:0.336701,0.459382,0.148282,0.226326,0.257543,302.000000,283.000000,19.000000,29.000000,0.000000,0.000000,0.000000,0.000000,0.000000,0.336701,0.459382,0.148282,0.226326,0.257543,302.000000,283.000000,19.000000,29.000000,0.000000,0.000000,0.000000,0.000000,0.000000;
#CREDIT:;
#DISPLAYBPM:132.000000:134.000000;
#NOTES:
0000
0000
0000
0000
,
0000
0000
0000
0000
,
0000
0000
0000
0000
,
0000
0000
0000
0000
,
0010
0000
0000
0100
0000
0000
0001
0000
0000
0010
0000
0010
,
0100
0000
0000
1000
0000
0000
0001
0000
0000
0100
0000
0100
,
0010
0000
0000
1000
0000
0000
0100
0000
0000
0010
0000
0001
,
1000
0000
0000
0001
0000
0000
0100
0000
0100
0010
0000
0000
,
1000
0000
0100
0000
0000
0010
0000
0000
0001
0100
0000
0001
,
0000
0000
0100
0010
0000
0100
0000
0000
0000
0000
0000
0000
,
0010
1001
0100
2002
,
0000
0000
3003
0000
0000
0000
0000
0000
0000
0000
0000
0000
,
0010
0000
0010
0000
0000
1000
0000
0000
0100
0010
0000
0100
,
0010
0000
0000
0001
0000
1000
0000
0000
0001
0000
0000
0000
,
0100
0000
0010
0000
1000
0000
0100
0000
0010
0000
0001
0000
,
0000
0000
0000
2002
0000
0000
0000
0000
0000
3003
0000
0000
0000
0000
0000
0000
0100
0000
0001
0000
0000
0000
1000
0000
,
0100
0000
0010
0000
0000
0001
0000
0000
1000
0000
0000
0010
,
0100
0000
0010
0000
0000
1000
0010
0000
1000
0000
0000
0100
,
1000
0000
0000
0000
0000
0100
0000
0000
0010
0001
0000
0200
,
0000
0000
0000
0000
,
0310
0000
0000
1000
0000
0000
0100
0000
0000
0010
0000
0001
,
1000
0000
0000
0001
0000
0000
0100
0000
0000
0010
0000
1000
,
0001
0000
1000
0010
0000
0000
0000
0000
1100
0000
0101
0000
,
0011
1010
1100
0101
,
2001
3100
1002
0103
,
0010
0000
0010
0100
0000
0000
0001
0000
0000
0010
0000
0000
,
2000
3100
0002
0013
,
0200
0000
0000
0300
0000
0000
1000
0000
1000
0001
0000
0001
,
0100
0000
0000
0010
0000
1000
0010
0000
0000
0100
0000
0001
,
1000
0000
0000
0100
0000
0000
0010
0000
0001
0010
0000
0000
,
0001
0000
0100
0010
0000
0000
1000
0000
0001
1000
0000
0000
,
0100
0010
0001
1000
,
1002
0103
2001
3100
,
0010
0000
0010
0100
0000
0000
1000
0000
0000
0010
0000
0000
,
0002
0103
2000
3010
,
0200
0000
0000
0300
0000
0000
0001
0000
0001
1000
0000
1000
,
0100
0000
0000
0010
0000
0001
0010
0000
0000
0100
0000
1000
,
0001
0000
0000
0100
0000
0000
0010
0000
1000
0010
0000
0000
,
1000
0000
0100
0010
0000
0000
0001
0000
1000
0001
0000
0000
,
0100
0010
1000
0001
,
0200
1000
0001
0301
,
0020
0100
1000
1030
,
0100
0000
0001
0100
0000
0000
0100
0000
1000
0100
0000
0000
,
0010
0000
0001
0010
0000
0000
0010
0000
1000
0010
0000
0000
,
1000
0000
0001
0100
0000
0000
0010
0000
0010
0100
0000
0100
,
0001
0000
0000
0000
0000
0011
0000
0000
1100
0000
0000
0001
,
0100
0000
0001
1000
0000
0000
0010
0000
1000
0001
0000
0000
,
0010
0100
1000
0001
,
0200
0000
0000
0000
,
0000
0000
0000
0000
,
0320
0030
1000
0100
,
0020
0030
0001
0101
,
2000
3000
0010
0100
,
0020
0000
0000
0030
1000
0000
1100
0000
,
0020
0030
0100
0001
,
0020
0030
0100
0011
,
0200
0300
0010
1000
,
0020
0030
0100
0001
,
1000
0000
0010
0000
1000
0100
0001
0000
,
0001
0100
1000
0000
0010
0100
0001
0010
,
0100
1000
0001
0000
0001
0010
1000
0000
,
1000
0010
0001
0000
0001
0010
0100
0000
,
0100
1000
0001
0000
1000
0010
0100
0001
,
0010
0100
1000
0000
1000
0010
0001
0000
,
0001
0010
1000
0000
0100
1000
0010
1000
,
0100
0000
0000
0000
0001
0010
0100
1000
,
2020
0000
0000
0000
,
0000
0000
0000
0000
,
3030
0002
0000
0000
0000
0000
0000
0000
,
0000
0003
0000
0000
;

//---------------dance-single - ----------------
#NOTEDATA:;
#CHARTNAME:;
#STEPSTYPE:dance-single;
#DESCRIPTION:;
#CHARTSTYLE:;
#DIFFICULTY:Medium;
#METER:5;
#RADARVALUES:0.253083,0.296711,0.124869,0.327782,0.000000,227.000000,211.000000,16.000000,42.000000,0.000000,0.000000,0.000000,0.000000,0.000000,0.253083,0.296711,0.124869,0.327782,0.000000,227.000000,211.000000,16.000000,42.000000,0.000000,0.000000,0.000000,0.000000,0.000000;
#CREDIT:;
#DISPLAYBPM:132.000000:134.000000;
#NOTES:
0000
0000
0000
0000
,
0000
0000
0000
0000
,
0000
0000
0000
0000
,
0000
0000
0000
0000
,
0001
0001
1000
0100
,
2000
3000
0010
1000
,
0100
0010
0100
0010
,
0002
0003
1000
0001
,
0200
0300
0020
0030
,
1000
0100
0020
0030
,
0001
0001
1000
2000
,
0000
0000
3000
0000
,
0010
0100
0010
0010
,
0100
0010
0100
0100
,
0001
0001
1000
1000
,
0200
0300
0020
0030
,
0002
0003
0202
0303
,
2000
3000
2200
3300
,
0020
0030
0220
0330
,
0200
0300
0001
1000
,
0100
0100
0010
0001
,
0010
0010
0100
1000
,
0100
0001
0100
1000
,
0200
0000
0300
0010
,
2020
3030
0202
0303
,
1001
1001
0010
0100
,
0001
0001
0010
0010
,
0200
0300
1000
0001
,
1000
0100
0001
0010
,
0200
0300
0001
0100
,
1000
0010
0001
0100
,
2000
0000
3000
0010
,
0202
0303
0022
0033
,
1100
1100
2020
3030
,
0010
1000
0100
0100
,
0001
0000
1000
0001
,
1000
0100
0001
0100
,
2000
3000
0010
1000
,
0100
1000
0010
0001
,
0020
0030
0001
0100
,
0001
0001
0010
0010
,
0100
0100
1000
1000
,
0010
0001
0010
1000
,
0100
0001
0100
1000
,
0001
1000
0100
0010
,
0001
0000
1001
0110
,
1001
0100
0020
0000
,
0030
1000
0100
0001
,
0200
0000
0000
0000
,
0000
0000
0000
0300
,
0020
0030
1000
0001
,
0020
0030
0100
0100
,
2000
3000
0001
0010
,
0200
0300
1000
0100
,
0001
0100
1000
0100
,
0001
0010
1000
0010
,
0001
0010
0100
0010
,
0001
0001
0001
0100
,
1000
0000
0100
0000
0001
0100
0001
0000
,
0010
0000
0100
0000
0010
0100
0010
0000
,
0100
0000
1000
0000
0001
1000
0100
0000
,
0010
0000
0100
0000
1000
0100
1000
0000
,
0010
0000
0100
0000
0010
1000
0010
0000
,
1000
0000
0100
0000
0010
0100
0010
0000
,
0001
0000
0100
0000
1000
0001
1000
0000
,
0010
0001
0010
1001
,
0200
0000
0000
0000
,
0000
0000
0000
0000
0000
0000
0000
0300
,
0000
0020
0000
0000
0000
0000
0000
0000
,
0000
0030
0000
0000
0000
0000
0000
0000
;

//---------------dance-single - ----------------
#NOTEDATA:;
#CHARTNAME:;
#STEPSTYPE:dance-single;
#DESCRIPTION:;
#CHARTSTYLE:;
#DIFFICULTY:Easy;
#METER:3;
#RADARVALUES:0.187304,0.296711,0.101456,0.273152,0.000000,168.000000,155.000000,13.000000,35.000000,0.000000,0.000000,0.000000,0.000000,0.000000,0.187304,0.296711,0.101456,0.273152,0.000000,168.000000,155.000000,13.000000,35.000000,0.000000,0.000000,0.000000,0.000000,0.000000;
#CREDIT:;
#DISPLAYBPM:132.000000:134.000000;
#NOTES:
0000
0000
0000
0000
,
0000
0000
0000
0000
,
0000
0000
0000
0000
,
0000
0000
0000
0000
,
0001
0001
0001
0000
,
1000
0100
1000
0000
,
0010
0010
0100
0000
,
0010
1000
0010
0000
,
1000
0000
0100
0000
,
0001
0000
0010
0000
,
1000
0000
0100
0000
,
0001
0000
0100
0000
,
1000
0000
0001
0000
,
1000
0000
0010
0000
,
0100
0000
0001
0000
,
0010
0000
0100
0000
,
2000
0000
3100
0000
,
0002
0000
0013
0000
,
0200
0000
0310
0000
,
0002
0000
1003
0000
,
0020
0000
0130
0000
,
2000
0000
3001
0000
,
0200
0000
1300
0000
,
0002
0000
0103
0000
,
2002
3003
0220
0330
,
2002
0000
0000
3003
,
0010
1000
0010
0100
,
0010
0000
0100
0000
,
0001
0010
0100
1000
,
0001
0000
0010
0000
,
0100
1000
0001
0010
,
0100
0000
0010
0000
,
2002
3003
0220
0330
,
2002
0000
0000
3003
,
0010
0001
0010
0100
,
0010
0000
0001
1000
,
0001
0100
0010
1000
,
0100
0000
0010
0000
,
0001
1000
0010
0100
,
0001
0000
1001
0110
,
1001
0000
0000
0000
,
0010
1000
0010
0000
,
0100
0000
0001
0000
,
0010
0000
0100
0100
,
1000
0100
0001
0000
,
0010
0000
1001
0110
,
1001
0000
1000
0000
,
0000
0001
0100
0010
,
2002
0000
0000
0000
,
0000
0000
0000
3003
,
0010
0000
1000
1000
,
0100
0000
0010
0000
,
0001
0000
0010
0010
,
0100
0000
1000
1000
,
0001
0000
0100
0100
,
0010
0000
1000
1000
,
0100
0000
0010
0010
,
0001
0000
0100
0100
,
0200
0300
0020
0030
,
2000
3000
0001
0010
,
0200
0300
2000
3000
,
0002
0003
0100
0010
,
0200
0300
0020
0030
,
2000
3000
0001
0010
,
0200
0300
1000
0001
,
2000
3000
0010
0010
,
0200
0000
0000
0000
,
0000
0000
0000
0000
0000
0000
0000
0300
,
0000
0020
0000
0000
0000
0000
0000
0000
,
0000
0030
0000
0000
0000
0000
0000
0000
;

//---------------dance-single - ----------------
#NOTEDATA:;
#CHARTNAME:;
#STEPSTYPE:dance-single;
#DESCRIPTION:;
#CHARTSTYLE:;
#DIFFICULTY:Beginner;
#METER:1;
#RADARVALUES:0.132674,0.161842,0.007804,0.023413,0.000000,119.000000,118.000000,1.000000,3.000000,0.000000,0.000000,0.000000,0.000000,0.000000,0.132674,0.161842,0.007804,0.023413,0.000000,119.000000,118.000000,1.000000,3.000000,0.000000,0.000000,0.000000,0.000000,0.000000;
#CREDIT:;
#DISPLAYBPM:132.000000:134.000000;
#NOTES:
0000
0000
0000
0000
,
0000
0000
0000
0000
,
0000
0000
0000
0000
,
0000
0000
0000
0000
,
0010
0000
0100
0000
,
1000
0000
0100
0000
,
0010
0000
0001
0000
,
1000
0000
0010
0000
,
0100
0000
0000
0000
,
0010
0000
0000
0000
,
1000
0000
0000
0000
,
0001
0000
0000
0000
,
0010
0010
0000
0000
,
0100
0100
0000
0000
,
1000
0000
0001
0000
,
0100
0000
0010
0000
,
1000
0000
0100
0000
,
0010
0000
0001
0000
,
0010
0000
0100
0000
,
1000
0000
0001
0000
,
0010
0000
0100
0000
,
1000
0000
0001
0000
,
0010
0000
0100
0000
,
0010
0000
0100
0000
,
0010
0000
1010
0000
,
0010
0000
0100
0000
,
0001
0000
0100
0000
,
1000
0100
0000
0000
,
0010
0000
0001
0000
,
0010
0000
1000
0000
,
0001
0000
1000
0000
,
0010
0000
0010
0000
,
0001
0000
0100
0000
,
1000
0000
0010
0000
,
0100
0000
0001
0000
,
0010
0000
0100
0000
,
1000
0000
0001
0000
,
0100
0000
0010
0000
,
0100
0000
1000
0000
,
0001
0000
0000
0000
,
0010
0000
0000
0100
,
0100
0000
0001
0000
,
0010
0000
0100
0000
,
1000
0000
0001
0000
,
0010
0000
0100
0000
,
1000
0000
0001
0000
,
0100
0000
0010
0000
,
0000
0000
1000
0000
,
0200
0000
0000
0000
,
0000
0000
0300
0000
,
0010
0000
0010
0000
,
0100
0000
0100
0000
,
1000
0000
1000
0000
,
0001
0000
0100
0000
,
0010
0000
1000
0000
,
0010
0000
0100
0000
,
0001
0000
0010
0000
,
0100
0000
1000
1000
,
1000
0000
0010
0000
,
0001
0000
0100
0000
,
1000
0000
0100
0000
,
0001
0000
0010
0000
,
1000
0000
0100
0000
,
0010
0000
0001
0000
,
0100
0000
0010
0000
,
1000
0000
0100
0000
,
0020
0000
0000
0000
,
0000
0000
0000
0030
,
0000
0200
0000
0000
0000
0000
0000
0000
,
0000
0300
0000
0000
0000
0000
0000
0000
;
