#VERSION:0.81;
#TITLE:My Blood;
#SUBTITLE:;
#ARTIST:Ellie Goulding;
#TITLETRANSLIT:;
#SUBTITLETRANSLIT:;
#ARTISTTRANSLIT:;
#GENRE:Halcyon;
#ORIGIN:;
#CREDIT:;
#BANNER:My Blood-bn.png;
#BACKGROUND:My Blood-bg.png;
#PREVIEWVID:;
#JACKET:My Blood-jacket.png;
#CDIMAGE:;
#DISCIMAGE:;
#LYRICSPATH:;
#CDTITLE:;
#MUSIC:My Blood.mp3;
#OFFSET:-0.031000;
#SAMPLESTART:93.849998;
#SAMPLELENGTH:22.069000;
#SELECTABLE:YES;
#BPMS:0.000=87.000,
88.000=174.000,
152.000=87.000,
168.000=174.000,
232.000=87.000;
#STOPS:;
#DELAYS:;
#WARPS:;
#TIMESIGNATURES:0.000=4=4;
#TICKCOUNTS:0.000=4;
#COMBOS:0.000=1;
#SPEEDS:0.000=1.000=0.000=0;
#SCROLLS:0.000=1.000;
#FAKES:;
#LABELS:0.000=Song Start;
#LASTSECONDHINT:120.075996;
#BGCHANGES:;
#KEYSOUNDS:;
#ATTACKS:
;

//---------------dance-single - ----------------
#NOTEDATA:;
#CHARTNAME:;
#STEPSTYPE:dance-single;
#DESCRIPTION:;
#CHARTSTYLE:;
#DIFFICULTY:Hard;
#METER:7;
#RADARVALUES:0.376417,0.404192,0.238789,0.263492,0.078224,259.000000,29.000000,32.000000,0.000000,0.000000,0.000000,0.000000,0.000000,0.376417,0.404192,0.238789,0.263492,0.078224,259.000000,29.000000,32.000000,0.000000,0.000000,0.000000,0.000000,0.000000;
#CREDIT:;
#NOTES:
0000
0000
0000
0000
,
0000
0000
0000
0000
,
0000
0000
0000
0000
,
0000
0000
0000
0000
,
1000
0000
0001
0000
0101
0000
0000
0000
0100
0000
0000
0000
1001
0000
0000
0001
,
1000
0000
0000
1000
0100
0000
0000
0100
0010
0000
0000
0001
0000
0000
0100
0000
,
0001
0000
1000
0000
1001
0000
0000
0000
1000
0000
0000
0000
0110
0000
0000
0010
,
1000
0000
0000
0000
0001
0000
1000
0000
0100
0000
0000
1000
0001
0000
0000
0100
,
0000
0000
0010
0000
1000
0000
0000
0000
0100
0000
0000
0000
0010
0000
0001
1000
,
0001
0000
0000
0100
0000
0000
0010
0000
0000
0000
1000
0000
0001
0000
0000
0000
,
1000
0000
0000
0100
0010
0100
0000
0000
1000
0000
0000
0000
0001
0000
0000
0010
,
0100
0000
0000
1000
0001
0000
0100
0000
0001
0000
0000
1000
0000
1000
0010
0000
,
1000
0001
0201
0000
1000
0000
0010
0000
,
0301
0000
1000
0010
0100
0000
0001
0000
,
2000
0000
3200
0000
,
0320
0000
0031
1000
0200
0000
0300
0000
,
0020
0000
0032
0000
,
2003
0000
3001
1000
0200
0000
0300
0000
,
0020
0001
0230
1000
,
0320
0032
2000
0003
,
3020
1000
0230
0001
,
0320
0000
0200
0000
,
0330
0001
0101
1000
,
0010
1000
0101
1000
,
0001
0010
0100
1000
0010
0100
0001
0000
,
2000
3010
0110
0000
,
0001
1000
1100
0001
,
0010
0001
1100
0001
,
1000
0010
0100
0001
0010
0100
1000
0000
,
0002
0013
0110
1000
,
0001
0100
1001
0100
,
0101
0010
1001
0010
,
2000
0000
3100
0000
1000
0010
0100
0001
,
0000
0001
1000
0000
1000
0001
0010
0000
,
0001
1000
1100
0100
,
1001
0100
0101
0010
,
2000
0000
3100
0000
1000
0010
0100
0001
,
0000
0001
1000
0000
1000
0010
1000
0000
,
0100
0000
0000
0000
0100
0000
0000
0000
0100
0000
0000
0000
0100
0000
1000
0001
,
2000
0000
0000
0000
3010
0000
1000
0001
2000
0000
0000
0000
3002
0000
2003
0000
,
3100
0000
0000
0000
0000
0000
0000
0000
0000
0000
0000
0000
0000
0000
1000
0001
,
2000
0000
0000
0000
3000
0000
0001
1000
0002
0000
0000
0000
2003
0000
3002
0000
,
0103
0010
1010
0001
,
1000
0001
1010
0001
,
1000
0010
0100
0001
0010
0100
1000
0000
,
0001
0010
0110
0001
,
1000
0001
0101
1000
,
0010
1000
0101
1000
,
0001
0100
0010
1000
0100
0010
0001
0000
,
1000
0010
0110
0001
,
1000
0100
1100
0100
,
1001
0100
0101
0010
,
2000
0000
3001
0000
1000
0010
0100
0001
,
0000
0001
1000
0000
1000
0001
0010
0000
,
0001
1000
1100
0010
,
1001
0010
0101
0010
,
2000
0000
3001
0000
1000
0100
0010
0001
,
0000
0001
0100
0000
0001
1000
0001
0000
;

//---------------dance-single - ----------------
#NOTEDATA:;
#CHARTNAME:;
#STEPSTYPE:dance-single;
#DESCRIPTION:;
#CHARTSTYLE:;
#DIFFICULTY:Medium;
#METER:5;
#RADARVALUES:0.284665,0.238789,0.065873,0.214087,0.000000,208.000000,8.000000,26.000000,0.000000,0.000000,0.000000,0.000000,0.000000,0.284665,0.238789,0.065873,0.214087,0.000000,208.000000,8.000000,26.000000,0.000000,0.000000,0.000000,0.000000,0.000000;
#CREDIT:;
#NOTES:
0000
0000
0000
0000
,
0000
0000
0000
0000
,
0000
0000
0000
0000
,
0000
0000
0000
0000
,
1000
0100
0010
0000
0001
0000
1000
0000
,
0001
0000
0010
0001
0100
0000
0001
0000
,
1000
0010
0100
0000
0010
0000
1000
0000
,
0100
0000
0010
0100
1000
0000
0001
0000
,
0010
0001
0100
0000
0001
0000
1000
0000
,
0010
0000
1000
0000
0001
0100
0010
0000
,
1000
0100
0010
0001
,
1000
0000
0001
1000
0100
0000
0010
0000
,
0001
0100
0010
0000
1000
0000
0001
1000
,
0001
0010
0100
1000
,
0002
0000
0023
0000
,
0230
2300
3002
0000
,
0203
0000
0320
0000
,
2030
3002
0203
0000
,
0320
0000
2030
0000
,
3200
0000
0320
0000
,
0032
0000
2003
0000
,
3020
0000
0230
0000
,
0301
1000
1001
0010
,
1000
0100
1001
0100
,
0010
0000
0001
1000
0001
0000
0100
0000
,
0010
0000
1000
0001
,
0100
0010
1001
0010
,
0100
0010
1001
0010
,
1000
0000
0100
1000
0100
0000
0010
0000
,
0001
0000
1000
0010
,
0100
0001
0100
0010
,
1000
0100
0010
0001
,
2000
0000
0000
0000
3001
0000
0100
0010
,
0000
0100
0010
0000
1000
0000
0001
0000
,
1000
0001
0010
0100
,
0010
0001
1000
0100
,
0020
0000
0000
0000
0031
0000
1000
0100
,
0000
0100
1000
0000
0001
0000
0010
0000
,
0001
0000
0000
0000
0000
0000
0000
1000
,
2000
0000
3000
0001
0002
0000
0103
0000
,
0010
0000
0000
0000
0000
0000
0000
0100
,
0200
0000
0300
0010
0020
0000
1030
0000
,
0001
1000
1001
0010
,
0100
0010
1001
0010
,
1000
0000
0001
0010
0100
0000
0010
0000
,
0001
0000
1000
0100
,
0010
0001
1001
0100
,
0010
0100
1001
0100
,
0010
0000
1000
0100
0010
0000
0100
0000
,
1000
0000
0001
0010
,
0100
1000
0010
1000
,
0100
1000
0010
1000
,
0002
0000
0000
0000
0013
0000
0001
1000
,
0000
1000
0001
0000
0100
0000
0010
0000
,
1000
0100
0001
0010
,
0100
0010
0001
1000
,
0020
0000
0000
0000
1030
0000
0001
0100
,
0000
0100
0001
0000
1000
0000
0010
0000
,
1000
0000
0000
0000
;

//---------------dance-single - ----------------
#NOTEDATA:;
#CHARTNAME:;
#STEPSTYPE:dance-single;
#DESCRIPTION:;
#CHARTSTYLE:;
#DIFFICULTY:Easy;
#METER:3;
#RADARVALUES:0.202324,0.191031,0.000000,0.131746,0.000000,156.000000,0.000000,16.000000,0.000000,0.000000,0.000000,0.000000,0.000000,0.202324,0.191031,0.000000,0.131746,0.000000,156.000000,0.000000,16.000000,0.000000,0.000000,0.000000,0.000000,0.000000;
#CREDIT:;
#NOTES:
// measure 0
0000
0000
0000
0000
,  // measure 1
0000
0000
0000
0000
,  // measure 2
0000
0000
0000
0000
,  // measure 3
0000
0000
0000
0000
,  // measure 4
1000
1000
0100
0100
,  // measure 5
0001
0100
1000
0100
,  // measure 6
0001
0001
1000
1000
,  // measure 7
0001
0100
1000
0100
,  // measure 8
0010
0010
0100
0100
,  // measure 9
0001
1000
0100
0010
,  // measure 10
0100
0100
1000
1000
,  // measure 11
0001
0100
0010
1000
,  // measure 12
0100
0010
0100
0010
,  // measure 13
0001
1000
0001
1000
,  // measure 14
0020
0000
1030
0000
,  // measure 15
0200
0000
0301
0000
,  // measure 16
2000
0000
3100
0000
,  // measure 17
0002
0000
0013
0000
,  // measure 18
0200
0000
1300
0000
,  // measure 19
0002
0000
0103
0000
,  // measure 20
0020
0000
0130
0000
,  // measure 21
0002
0000
1003
0000
,  // measure 22
0010
1000
0100
0000
,  // measure 23
0010
0000
0001
1000
,  // measure 24
0001
0100
0010
1000
,  // measure 25
0001
0000
1000
0100
,  // measure 26
0010
0100
1000
0000
,  // measure 27
0001
0000
0010
0001
,  // measure 28
1000
0100
0010
0001
,  // measure 29
1000
0000
0001
1000
,  // measure 30
0100
0000
0010
0000
,  // measure 31
0100
0000
0010
0000
,  // measure 32
0002
0000
1003
0001
,  // measure 33
0100
0010
0100
0000
,  // measure 34
0001
0000
1000
0000
,  // measure 35
0010
0000
0100
0000
,  // measure 36
0020
0000
1030
0001
,  // measure 37
1000
0100
0010
0000
,  // measure 38
0001
0000
0000
0000
,  // measure 39
2000
3000
0002
0003
,  // measure 40
0100
0000
0000
0000
,  // measure 41
2000
3000
0002
0003
,  // measure 42
0100
0010
1000
0000
,  // measure 43
0001
0000
0010
0001
,  // measure 44
1000
0100
0010
0001
,  // measure 45
1000
0000
0001
0100
,  // measure 46
0000
0010
1000
0000
,  // measure 47
0100
0000
0010
0100
,  // measure 48
1000
0001
0010
0100
,  // measure 49
1000
0000
0001
0010
,  // measure 50
0000
0100
1000
0000
,  // measure 51
0001
0000
0100
0000
,  // measure 52
0020
0000
1030
0001
,  // measure 53
0100
0010
0100
0000
,  // measure 54
0001
1000
0100
0000
,  // measure 55
0010
0100
1000
0000
,  // measure 56
0002
0000
1003
0010
,  // measure 57
0100
0001
1000
0000
,  // measure 58
0001
0000
0000
0000
;

//---------------dance-single - ----------------
#NOTEDATA:;
#CHARTNAME:;
#STEPSTYPE:dance-single;
#DESCRIPTION:;
#CHARTSTYLE:;
#DIFFICULTY:Beginner;
#METER:2;
#RADARVALUES:0.136451,0.143274,0.008234,0.131746,0.000000,99.000000,1.000000,16.000000,0.000000,0.000000,0.000000,0.000000,0.000000,0.136451,0.143274,0.008234,0.131746,0.000000,99.000000,1.000000,16.000000,0.000000,0.000000,0.000000,0.000000,0.000000;
#CREDIT:;
#NOTES:
0000
0000
0000
0000
,
0000
0000
0000
0000
,
0000
0000
0000
0000
,
0000
0000
0000
0000
,
1000
0000
0100
0000
,
0001
0000
0100
0000
,
1000
0000
0010
0000
,
0100
0000
0001
0000
,
1000
0000
0100
0000
,
0010
0000
0001
0000
,
1000
0000
0001
0000
,
0100
0000
0010
0000
,
1000
0000
0001
0000
,
0100
0000
0010
0000
,
0200
0300
0100
0000
,
0020
0030
0010
0000
,
2000
3000
1000
0000
,
0002
0003
0001
0000
,
2000
3000
0100
0000
,
0002
0003
0100
0000
,
2000
3000
0010
0000
,
0002
0003
0010
0000
,
1001
0000
0100
0000
,
1000
0000
0100
0000
,
0010
0000
0001
0000
,
0100
0000
0010
0000
,
1000
0000
0001
0000
,
0100
0000
0010
0000
,
1000
0000
0001
0000
,
0100
0000
0010
0000
,
0100
0000
0100
0000
,
0010
0000
0010
0000
,
2000
0000
3000
0000
,
0002
0000
0003
0000
,
0100
0000
0100
0000
,
0001
0000
0001
0000
,
2000
0000
3000
0000
,
0002
0000
0003
0000
,
0100
0000
0000
0000
,
0010
0000
1000
0000
,
0100
0000
0000
0000
,
0010
0000
0001
0000
,
0100
0000
0010
0000
,
1000
0000
0100
0000
,
0010
0000
0001
0000
,
0100
0000
0010
0000
,
0100
0000
0001
0000
,
1000
0000
0010
0000
,
0100
0000
0001
0000
,
1000
0000
0100
0000
,
0010
0000
0010
0000
,
0100
0000
0100
0000
,
2000
0000
3000
0000
,
0002
0000
0003
0000
,
0100
0000
0100
0000
,
0010
0000
0010
0000
,
0200
0000
0300
0000
,
0002
0000
0003
0000
,
1000
0000
0000
0000
;
