#TITLE:Moonbound;
#SUBTITLE:;
#ARTIST:Anzo;
#TITLETRANSLIT:;
#SUBTITLETRANSLIT:;
#ARTISTTRANSLIT:;
#GENRE:Moonbound EP;
#CREDIT:;
#BANNER:Moonbound-bn.png;
#BACKGROUND:Moonbound-bg.png;
#LYRICSPATH:;
#CDTITLE:;
#MUSIC:Moonbound.mp3;
#OFFSET:-0.001042;
#SAMPLESTART:67.190178;
#SAMPLELENGTH:19.199997;
#LASTBEATHINT:213.866394;
#SELECTABLE:YES;
#DISPLAYBPM:100.00000;
#BPMS:0.000000=100.000000
,80.000000=200.000000
,137.500000=100.000000
;
#STOPS:137.500000=0.450000
;
#BGCHANGES:;
#KEYSOUNDS:;
#ATTACKS:;

//---------------dance-single - ----------------
#NOTES:
     dance-single:
     :
     Challenge:
     10:
     0.543076,0.658145,0.121164,0.151455,0.726986,502.000000,486.000000,16.000000,20.000000,0.000000,0.000000,0.543076,0.658145,0.121164,0.151455,0.726986,502.000000,486.000000,16.000000,20.000000,0.000000,0.000000:
0000
0000
0000
0000
,
0000
0000
0000
0000
,
0000
0000
0000
0000
,
0000
0000
0000
0000
,
0001
0010
0100
1000
0000
0010
1000
0001
0000
1000
0100
0010
0000
0100
1000
0100
,
1000
0010
0100
0001
0000
1000
0010
1000
0000
0001
0100
0010
0000
0000
0100
0001
,
1000
0010
0100
0001
0000
0010
0100
0010
0000
0001
1000
0001
0000
0010
0100
1000
,
0001
0100
0010
1000
0000
0100
0010
0001
0000
1000
0100
0000
1000
0001
0100
0000
,
0000
0010
1000
0001
0000
1000
0100
0010
0000
0100
1000
0001
0000
1000
0100
0010
,
0001
0100
0010
1000
0000
0001
0010
0100
0000
0010
0001
1000
0000
0000
0001
0010
,
0100
1000
0010
0100
0000
0010
1000
0001
0000
1000
0100
0010
0000
0100
1000
0001
,
0100
0010
1000
0001
0000
0010
0100
1000
0000
0001
0100
0000
0010
1000
0001
0000
,
0000
0000
2002
0000
0000
0000
3003
0020
,
0000
0000
0200
0030
,
0002
0000
0000
0300
,
1000
0000
1003
0010
0000
0010
0200
0000
,
0300
0000
0202
0000
0000
0000
0303
2020
,
0000
0000
0000
3030
2002
0000
0000
3003
,
2200
0000
0000
3300
,
0110
0000
0001
0100
0000
1000
0001
0000
,
0010
0001
1000
0100
,
1000
0010
0100
0001
,
0010
0100
0010
0001
,
1000
0100
1000
0001
,
0100
0010
1000
0001
,
0010
0100
0010
0001
,
1000
0100
0010
0001
,
1000
0001
0100
0010
,
1000
0010
0100
0001
0100
0010
1000
0001
,
0100
0010
0100
0001
1000
0010
0100
0001
,
1000
0010
1000
0100
0010
0001
0010
0100
,
1000
0001
0100
0001
0010
0100
1000
0100
,
0010
0001
1000
0001
0100
0010
1000
0001
,
0010
0100
0010
0001
1000
0001
0100
0010
,
1000
0000
0010
0000
0100
0000
0001
0000
1000
0010
0100
0001
1000
0010
0100
0001
,
1000
0000
0100
0000
1000
0000
0100
0000
1000
0000
0100
0000
0020
0000
0000
0000
0000
0000
0000
0000
0000
0000
0000
0000
0031
0000
0000
0000
0000
0000
0000
0000
0000
0000
0000
0000
1100
0000
0000
0000
0000
0000
0001
0000
0000
0010
0000
0000
,
0100
1000
0010
0000
0101
0000
0000
0000
0020
0000
0000
0000
1030
0000
0001
0100
,
0010
1000
0100
0010
0001
0000
0000
0000
1000
0000
0010
0000
0100
0001
1000
0010
,
0000
0000
0100
0001
0000
0001
1000
0000
0000
0010
0100
0000
0100
0001
1000
0000
,
0010
0000
0100
0000
0001
0000
1000
0000
0010
0000
0100
0000
0002
0000
0000
0000
0000
0000
0000
0000
0000
0000
0000
0000
0013
0000
0000
0000
0000
0000
0000
0000
0000
0000
0000
0000
0110
0000
0000
0000
0000
0000
0001
0000
0000
1000
0000
0000
,
0010
0100
0001
0000
0101
0000
0000
0000
0100
0000
0010
1000
0100
0010
0001
0100
,
0010
0000
0000
0000
1010
0000
0000
0000
0001
0000
0100
0000
0010
1000
0100
0010
,
0001
0000
1000
0010
0000
1000
0100
1000
0000
1000
0001
0000
0001
0100
0001
0000
,
0010
0000
0001
0000
1000
0000
0100
0000
0010
0000
0001
0000
2000
0000
0000
0000
0000
0000
0000
0000
0000
0000
0000
0000
3100
0000
0000
0000
0000
0000
0000
0000
0000
0000
0000
0000
1001
0000
0000
0000
0000
0000
0010
0000
0000
1000
0000
0000
,
0001
0010
0100
0000
1100
0000
0000
0000
0002
0000
0000
0000
0103
0000
0010
1000
,
0100
0010
0001
1000
0001
0000
0000
0000
1000
0000
0010
0000
0100
0001
0100
0010
,
0000
0000
1000
0100
0000
0100
0010
0000
0000
0001
1000
0000
1000
0010
1000
0000
,
0010
0000
0100
0000
0001
0000
1000
0000
0010
0000
0100
0000
0002
0000
0000
0000
0000
0000
0000
0000
0000
0000
0000
0000
0013
0000
0000
0000
0000
0000
0000
0000
0000
0000
0000
0000
0110
0000
0000
0000
0000
0000
1000
0000
0000
0001
0000
0000
,
0010
0100
1000
0000
1100
0000
0000
0000
0100
0000
0010
0001
0100
0010
1000
0100
,
0010
0000
0000
0000
0011
0000
0000
0000
1000
0000
0100
0000
0010
0001
0100
0010
,
1000
0000
0001
0010
0000
0001
0100
0001
0000
0001
1000
0000
1000
0100
1000
0000
,
0001
0010
0100
1000
0000
1000
0100
0010
0001
0010
0100
1000
0000
1000
0100
0010
,
0001
0100
0010
1000
0000
1000
0100
0010
0000
0010
0001
1000
0000
0000
0010
1000
,
0001
0010
0100
1000
0000
0010
0100
0010
0000
1000
0001
0100
0000
0001
1000
0001
,
0010
0100
1000
0010
0000
1000
0100
0010
0000
0001
1000
0100
0000
1000
0100
0010
,
0001
1000
0001
0100
0000
0010
1000
0010
0000
0100
0001
0000
0001
1000
0100
0000
,
0010
0001
1000
0010
0000
0100
0001
1000
0000
0001
0100
0010
0000
1000
0001
1000
,
0100
0010
0100
1000
0000
0010
0100
0010
0000
0010
1000
0001
0000
0000
0100
0010
,
1000
0010
0100
0001
0000
0010
0100
0010
0000
0100
1000
0001
0000
0100
0001
1000
,
0010
0100
0001
1000
0000
0010
1000
0001
0010
0100
1000
0001
0010
0100
1000
0001
;

//---------------dance-single - ----------------
#NOTES:
     dance-single:
     :
     Hard:
     7:
     0.378639,0.453420,0.159028,0.181747,0.106019,350.000000,329.000000,21.000000,24.000000,0.000000,0.000000,0.378639,0.453420,0.159028,0.181747,0.106019,350.000000,329.000000,21.000000,24.000000,0.000000,0.000000:
0000
0000
0000
0000
,
0000
0000
0000
0000
,
0000
0000
0000
0000
,
0000
0000
0000
0000
,
0010
1000
1100
0000
0100
0000
1001
0000
,
0100
0001
0010
0000
0001
1000
0110
0000
,
0010
1000
0100
0000
1000
0001
1100
0000
,
0010
0100
0010
0000
1000
0001
0110
0000
,
0001
1000
0010
0000
1000
0001
0011
0000
,
0001
1000
0010
0000
0100
0010
1001
0000
,
0100
0010
0100
0000
0010
1000
1010
0000
,
0100
1000
0001
0000
1100
0100
0100
0000
,
0000
0000
2002
0000
0000
0000
3003
0020
,
0000
0000
0200
0030
,
0002
0000
0000
0300
,
1000
0000
1003
0010
0000
0010
0200
0000
,
0300
0000
0202
0000
0000
0000
0303
2020
,
0000
0000
0000
3030
2002
0000
0000
3003
,
2200
0000
0000
3300
,
0110
0000
0001
0100
0000
1000
0001
0000
,
0010
0001
1000
0100
,
1000
0010
0100
0001
,
0010
0100
0010
0001
,
1000
0100
1000
0001
,
0100
0010
1000
0001
,
0010
0100
0010
0001
,
1000
0100
0010
0001
,
1000
0001
0100
0010
,
1000
0010
0100
0000
0001
0100
0010
0000
,
1000
0001
0100
0000
0010
1000
0001
0000
,
0100
0010
1000
0000
0010
0100
0001
0000
,
0010
0100
1000
0000
0001
0010
0001
0000
,
1000
0100
0010
0001
1000
0100
0010
0001
,
1000
0010
0100
0001
1000
0010
0100
0001
,
1000
0100
0010
0001
1000
0100
0001
0100
,
0010
0100
0010
0000
2001
0000
0000
0000
3200
0000
0000
0000
0310
0000
0001
0100
,
0001
0000
1000
0000
0100
0000
0000
0000
0010
0000
0000
0000
0001
0000
1000
0010
,
1000
0000
0100
0000
0010
0000
0000
0000
0001
0000
1000
0000
0010
0100
0010
0000
,
0100
0001
1000
0001
0100
0010
1000
0000
,
0010
0100
0010
0000
1002
0000
0000
0000
0203
0000
0000
0000
0310
0000
1000
0100
,
1000
0000
0001
0000
0100
0000
0000
0000
0010
0000
1000
0001
1000
0000
0100
0000
,
0010
0000
0001
0000
0100
0000
0000
0000
0010
0000
1000
0000
0001
0100
0001
0000
,
0010
0000
0100
1000
0000
0100
1000
0000
0001
0000
1000
0000
0100
0000
0000
0000
,
1000
0001
0100
0000
1002
0000
0000
0000
0203
0000
0000
0000
0310
0000
1000
0010
,
1000
0000
0001
0000
0010
0000
0100
0000
1000
0000
0010
0000
1000
0000
0001
0100
,
0001
0000
0010
0000
0100
0000
1000
0000
0001
0000
0100
0000
0010
1000
0010
0000
,
0100
0001
1000
0001
0010
0100
1000
0010
,
0100
0010
0100
0000
2001
0000
0000
0000
3020
0000
0000
0000
0130
0000
0001
0010
,
0001
0000
1000
0000
0010
0000
0100
0000
0001
0000
1000
0001
1000
0000
0010
0000
,
0100
0000
0001
0000
0010
0000
0100
0000
1000
0000
0001
0000
1000
0010
1000
0000
,
0100
0000
0010
0001
0000
0010
0001
0000
1000
0000
0001
0000
0010
0000
0000
0000
,
0002
0000
0000
0000
2000
0000
0000
3003
,
1001
0000
0000
0001
0000
0000
1000
0000
0010
0000
0010
0000
1000
0000
0000
0000
,
0001
0000
0000
0100
0000
0000
0010
0000
0100
0000
0100
0000
0010
0000
0000
0000
,
1000
0000
0000
0100
0000
0000
0001
0000
1000
0000
0001
0000
0001
0000
0000
0000
,
0100
0000
0000
0001
0000
0000
1000
0000
0010
0000
0010
0000
0100
0001
0100
0000
,
0001
0000
0000
0010
0000
0000
0100
0000
1000
0000
1000
0000
0100
0000
0010
0000
,
0001
0000
0000
0100
0000
0000
0010
0000
1000
0000
1000
0000
0100
0000
0000
0000
,
0010
0000
0000
0001
0000
0000
1000
0000
0010
0000
0100
0000
0001
0000
0000
0000
,
1000
0010
1010
0000
0001
1000
0100
0100
;

//---------------dance-single - ----------------
#NOTES:
     dance-single:
     :
     Medium:
     6:
     0.258556,0.317394,0.151455,0.090873,0.000000,239.000000,219.000000,20.000000,12.000000,0.000000,0.000000,0.258556,0.317394,0.151455,0.090873,0.000000,239.000000,219.000000,20.000000,12.000000,0.000000,0.000000:
0000
0000
0000
0000
,
0000
0000
0000
0000
,
0000
0000
0000
0000
,
0000
0000
0000
0000
,
0010
1000
0001
0010
,
0100
0000
1000
0000
0001
0000
0100
0100
,
0100
0010
1000
0001
,
0010
0000
0100
0000
1000
0001
1000
0000
,
0010
0100
0001
0010
,
0100
0000
1000
0000
0010
0000
1000
1000
,
0001
0100
0010
1000
,
0100
0000
0010
0000
0100
1000
0100
1000
,
0001
0000
0020
0000
0000
0000
0030
0200
,
0000
0000
0000
0300
2000
0000
0000
0000
,
0002
0000
3000
0000
,
0203
0000
0000
0320
0000
0000
1030
0000
,
0100
0000
0020
0000
0000
0000
0030
0002
,
0000
0000
0000
0003
0200
0000
0000
0000
,
0020
0000
0300
0000
,
2030
0000
0000
3002
0000
0000
0103
0000
,
0010
0000
1000
0000
,
0100
0010
0100
0010
,
0001
0000
1000
0000
,
0010
0100
0001
1000
,
0100
0000
0010
0000
,
0001
1000
0010
0100
,
0001
0000
0010
0000
,
0100
1000
0001
0100
,
0010
1000
0100
1000
,
0010
0100
0001
0100
,
0010
1000
0001
0100
,
0010
1000
0001
0100
,
0010
1000
0010
0100
,
0001
0010
0100
1000
,
0001
0010
0001
0001
,
1001
0100
1001
0000
0100
0000
0001
0100
,
0001
0000
0010
0000
0100
0000
1000
0010
,
1000
0000
0100
0000
0010
0000
0001
0100
,
0000
0100
0000
0010
0000
0000
1000
0000
,
1001
0100
1001
0000
0010
0000
0001
1000
,
0001
0000
0100
0000
0010
0000
1000
0100
,
1000
0000
0010
0000
0100
0000
0001
1000
,
0100
0000
0010
0000
0100
1000
0001
0000
,
0000
1100
0000
1001
0000
1010
0000
1001
,
0000
0100
0000
0001
0000
1000
0000
0010
,
0000
0101
0000
1001
0000
0011
0000
1001
,
0000
0100
0000
0010
0000
1000
0100
0000
,
0000
0011
0000
1001
0000
1100
0000
1001
,
0000
0100
0000
0001
0000
1000
0000
0010
,
0000
1010
0000
0101
0000
0011
0000
1001
,
0000
0010
0000
0001
0000
1000
0010
0000
,
0000
0000
0000
0000
,
0001
0000
0010
0000
0001
0100
0001
0000
,
1000
0010
0100
0001
,
0010
0000
0100
0000
1000
0001
0100
0000
,
0010
1000
0100
0000
1000
0000
0001
0000
,
0010
0001
0100
0000
0010
0000
0100
0001
,
1000
0010
0100
0001
,
0010
0100
1000
0000
0001
1000
0100
0000
,
0010
0001
0100
0000
0001
1000
0001
1000
;

//---------------dance-single - ----------------
#NOTES:
     dance-single:
     :
     Easy:
     4:
     0.207710,0.271484,0.136310,0.212038,0.000000,192.000000,174.000000,18.000000,28.000000,0.000000,0.000000,0.207710,0.271484,0.136310,0.212038,0.000000,192.000000,174.000000,18.000000,28.000000,0.000000,0.000000:
// measure 0
0000
0000
0000
0000
,  // measure 1
0000
0000
0000
0000
,  // measure 2
0000
0000
0000
0000
,  // measure 3
0000
0000
0000
0000
,  // measure 4
0001
0010
0100
1000
,  // measure 5
0100
0010
0100
0010
,  // measure 6
0001
0100
0010
1000
,  // measure 7
0001
0100
0001
0100
,  // measure 8
0010
1000
0100
0010
,  // measure 9
0001
1000
0100
0010
,  // measure 10
0100
1000
0001
0100
,  // measure 11
0010
1000
0001
0010
,  // measure 12
0100
2000
0000
0000
,  // measure 13
3002
0000
0203
0000
,  // measure 14
0320
0000
0000
0000
,  // measure 15
2030
0000
0100
0100
,  // measure 16
3100
0020
0000
0000
,  // measure 17
0002
0030
2000
0003
,  // measure 18
0020
0000
0000
3000
,  // measure 19
0200
0030
0001
0301
,  // measure 20
0001
0000
0010
0000
,  // measure 21
0100
0000
1000
0001
,  // measure 22
1000
0000
0010
0000
,  // measure 23
0100
0000
0001
1000
,  // measure 24
0001
0000
0010
0000
,  // measure 25
0100
0000
1000
0001
,  // measure 26
1000
0000
0010
0000
,  // measure 27
0100
0000
0001
1000
,  // measure 28
0001
0100
0001
0000
,  // measure 29
1000
0010
1000
0000
,  // measure 30
0100
1000
0001
0000
,  // measure 31
0010
0001
1000
0000
,  // measure 32
0001
1000
0010
0100
,  // measure 33
0001
1000
0010
0100
,  // measure 34
0001
0000
1000
1000
,  // measure 35
1001
1001
2002
3003
,  // measure 36
0010
0100
0001
1000
,  // measure 37
0100
0020
0030
0002
,  // measure 38
0003
1000
0010
0100
,  // measure 39
1001
1001
2002
3003
,  // measure 40
0010
1000
0200
0300
,  // measure 41
0020
0030
0001
1000
,  // measure 42
0100
0010
0200
0300
,  // measure 43
1001
1001
2002
3003
,  // measure 44
0010
1000
0001
0100
,  // measure 45
0010
2000
3000
0200
,  // measure 46
0300
0020
0030
0001
,  // measure 47
1001
1001
2002
3003
,  // measure 48
0100
0010
1000
0001
,  // measure 49
0200
0000
0000
0310
,  // measure 50
1000
0100
0010
0001
,  // measure 51
2000
0000
0000
0000
,  // measure 52
3001
0010
0100
1001
,  // measure 53
0100
1000
0100
0010
,  // measure 54
0001
0100
0010
1001
,  // measure 55
0100
0001
1000
1001
,  // measure 56
1000
0100
1000
1001
,  // measure 57
1000
0010
1000
1001
,  // measure 58
0001
0010
0100
1001
,  // measure 59
0001
1000
0100
0010
;

//---------------dance-single - ----------------
#NOTES:
     dance-single:
     :
     Beginner:
     2:
     0.123328,0.158366,0.007573,0.060582,0.000000,114.000000,113.000000,1.000000,8.000000,0.000000,0.000000,0.123328,0.158366,0.007573,0.060582,0.000000,114.000000,113.000000,1.000000,8.000000,0.000000,0.000000:
// measure 0
0000
0000
0000
0000
,  // measure 1
0000
0000
0000
0000
,  // measure 2
0000
0000
0000
0000
,  // measure 3
0000
0000
0000
0000
,  // measure 4
0010
0000
1000
0000
,  // measure 5
0001
0000
0001
0000
,  // measure 6
0010
0000
0001
0000
,  // measure 7
1000
0000
1000
0000
,  // measure 8
0100
0000
0010
0000
,  // measure 9
0100
0000
0010
0000
,  // measure 10
0001
0000
1000
0000
,  // measure 11
0010
0000
0100
0100
,  // measure 12
0100
0000
0000
0000
,  // measure 13
0010
0000
0010
0000
,  // measure 14
1000
0000
0000
0000
,  // measure 15
0001
0000
0001
0001
,  // measure 16
0001
0000
0100
0000
,  // measure 17
1000
0000
0100
0000
,  // measure 18
0010
0000
0000
0000
,  // measure 19
0001
0000
1000
1000
,  // measure 20
1000
0000
0000
0000
,  // measure 21
0010
0000
0000
0000
,  // measure 22
0100
0000
0000
0000
,  // measure 23
0001
0000
0001
0000
,  // measure 24
0001
0000
0000
0000
,  // measure 25
0000
0010
0000
0000
,  // measure 26
0100
0000
0000
0000
,  // measure 27
1000
0000
1000
0000
,  // measure 28
1000
0000
1000
0000
,  // measure 29
1000
0000
1000
0000
,  // measure 30
0001
0000
0001
0000
,  // measure 31
0001
0000
0001
0000
,  // measure 32
0100
0000
0100
0000
,  // measure 33
0100
0000
0100
0000
,  // measure 34
0100
0000
0001
0000
,  // measure 35
0010
0010
0020
0030
,  // measure 36
0100
0000
1000
0000
,  // measure 37
0001
0002
0003
0200
,  // measure 38
0300
0020
0030
1000
,  // measure 39
1000
2000
3000
0200
,  // measure 40
0300
0002
0003
0100
,  // measure 41
0200
0000
0000
0300
,  // measure 42
1000
0000
0001
0000
,  // measure 43
0100
0000
0010
0000
,  // measure 44
0100
0000
0001
0000
,  // measure 45
1000
0000
0010
0000
,  // measure 46
1000
0000
0100
0100
,  // measure 47
0100
0000
0010
0000
,  // measure 48
0001
0000
1000
0000
,  // measure 49
0010
0000
0100
0100
,  // measure 50
0100
0000
0001
0000
,  // measure 51
1000
0000
0000
0000
,  // measure 52
1001
0000
0100
0000
,  // measure 53
0010
0010
0010
0000
,  // measure 54
1000
0000
0001
0000
,  // measure 55
0010
0010
0010
0000
,  // measure 56
0100
0100
0100
0000
,  // measure 57
1000
0000
0100
0000
,  // measure 58
0010
0000
0001
0000
,  // measure 59
1000
0000
0010
0010
;
