#TITLE:Monument;
#SUBTITLE:(The Inevitable End Version);
#ARTIST:Royksopp feat. Robyn;
#TITLETRANSLIT:;
#SUBTITLETRANSLIT:;
#ARTISTTRANSLIT:;
#GENRE:The Inevitable End;
#CREDIT:;
#BANNER:Monument (The Inevitable End Version)-bn.png;
#BACKGROUND:Monument (The Inevitable End Version)-bg.png;
#LYRICSPATH:;
#CDTITLE:;
#MUSIC:Monument (The Inevitable End Version).mp3;
#OFFSET:-0.032000;
#SAMPLESTART:42.613853;
#SAMPLELENGTH:20.645161;
#LASTBEATHINT:227.998505;
#SELECTABLE:YES;
#DISPLAYBPM:93.000000;
#BPMS:0.000000=93.000000
,174.000000=744.000000
,175.000000=93.000000
;
#STOPS:174.000000=0.141000,
174.250000=0.141000,
174.500000=0.141000,
174.750000=0.141000
;
#BGCHANGES:0.000=Monument (The Inevitable End Version)-video.avi=1.000=0=0=0=StretchNoLoop====,
99999=-nosongbg-=1.000=0=0=0 // don't automatically add -songbackground-
;
#KEYSOUNDS:;
#ATTACKS:;

//---------------dance-single - ----------------
#NOTES:
     dance-single:
     :
     Challenge:
     10:
     0.618804,0.657317,0.234756,0.045437,0.976888,572.000000,541.000000,31.000000,6.000000,0.000000,0.000000,0.618804,0.657317,0.234756,0.045437,0.976888,572.000000,541.000000,31.000000,6.000000,0.000000,0.000000:
0000
0000
0000
0000
,
0000
0000
0000
0000
,
0000
0000
0000
0000
,
0000
0000
0000
0000
,
1000
0010
0100
0001
0000
0001
1000
0001
0010
0100
0010
0001
0000
0001
1000
0100
,
0010
0100
1000
0010
0000
0010
0100
0001
1000
0100
0010
0100
0000
0100
1000
0001
,
0100
0010
1000
0010
0000
1000
0001
1000
0100
0010
0001
0100
0000
0001
0100
0001
,
0010
0100
1000
0010
0000
1000
0010
1000
0001
0010
0100
1000
0000
0001
1000
0001
,
0100
0010
0100
0010
0000
0100
0010
0100
0001
1000
0001
1000
0000
0001
1000
0001
,
1000
0010
1000
0010
0000
1000
0010
1000
0001
0100
0001
0100
0000
0001
0100
0001
,
0010
0001
0010
0001
0000
1000
0100
1000
0010
1000
0010
1000
0000
0001
0010
0001
,
1000
0100
1000
0100
0000
1000
0001
1000
0001
0100
0001
0100
0000
0010
0100
0010
,
1000
0001
1000
0010
0000
1000
0001
1000
0001
0010
0001
1000
0000
0001
1000
0001
,
0100
0010
0100
0001
0000
0001
0100
0001
0100
0010
1000
0010
0000
1000
0010
1000
,
0001
1000
0100
1000
0000
1000
0010
1000
0001
0010
0001
0100
0000
0001
0100
0001
,
0010
0001
1000
0010
0000
0010
1000
0010
0100
0001
0100
0010
0000
1000
0001
1000
,
0100
0000
0010
0100
1000
0000
0100
1000
0001
0000
1000
0001
0010
0000
0001
1000
,
0010
0000
1000
0001
0100
0000
0020
0000
0000
0000
1030
0001
0100
0000
0001
0010
,
0001
0000
0010
0100
1000
0000
0100
0010
0001
0000
1000
0010
0100
0000
0010
1000
,
0001
0000
0020
0000
0000
0000
0130
0000
1000
0000
0010
0100
0001
0000
1000
0000
,
1010
0000
0001
0000
1000
0100
0010
0001
1100
0000
0001
0000
1000
0010
0100
0001
,
1010
0000
0001
0000
1000
0100
0010
0001
1100
0000
0000
0000
0110
0000
0000
0000
,
0101
0000
0100
0000
0001
0010
0100
1000
0011
0000
0100
0000
0001
0100
0010
1000
,
0101
0000
0010
0000
0001
0010
0100
1000
0011
0000
0000
0000
1100
0000
0000
0000
,
2002
0000
0000
0000
3003
0000
1000
0001
0100
0000
0001
0100
0010
0000
0100
0010
,
1000
0000
0010
0100
0001
0000
0200
0000
0000
0000
0301
0010
0100
0000
0010
0001
,
1000
0000
0100
1000
0010
0000
1000
0001
0100
0000
0010
1000
0100
0000
0010
0001
,
1000
0000
0200
0000
0000
0000
0310
0000
0001
0000
1000
0001
0100
0000
0010
0000
,
0110
0000
1000
0000
0001
0010
0100
1000
0110
0000
0001
0000
1000
0100
0010
0001
,
0110
0000
0001
0000
1000
0001
0100
0010
1001
0000
0000
0000
0110
0000
0000
0000
,
1001
0000
0010
0000
1000
0100
0001
0100
0110
0000
0010
0000
0001
0100
1000
0100
,
0110
0000
0010
0000
1000
0100
0001
0100
1001
0000
0000
0000
0110
0000
0000
0000
,
1001
0000
0010
0000
1001
0000
0010
0000
0100
0001
1000
0010
0101
0000
0000
0000
,
1100
0000
0000
0000
1001
0000
0010
0000
0001
1000
0010
0100
1001
0000
0100
0000
,
0000
0000
0000
0000
1001
0000
0010
0000
1001
0000
0010
0000
0100
0001
1000
0010
,
0101
0000
0000
0000
1100
0000
0000
0000
1001
0000
0010
0000
0001
1000
0010
0100
,
1001
0100
0000
0000
1001
0010
1001
0010
,
0100
0001
1000
0010
0101
0000
0000
0000
1100
0000
0000
0000
1001
0000
0010
0000
,
0001
1000
0010
0100
1001
0000
0100
0000
0000
0000
0000
0000
1001
0000
0010
0000
,
1001
0000
0010
0000
0100
0001
1000
0010
0101
0000
0000
0000
1100
0000
0000
0000
,
1001
0000
0010
0000
0001
1000
0010
0100
1001
0000
0100
0000
0000
0000
0000
0000
,
1001
0000
0010
0000
0100
0001
1000
0010
0101
0000
0000
0000
1100
0000
0000
0000
,
1001
0000
0010
0000
0001
1000
0010
0100
1001
0000
0100
0000
1000
0001
0100
0010
,
1001
0000
0100
0000
0010
1000
0001
0100
0001
0001
1000
1000
0010
0000
0100
0000
,
0001
0010
0001
0010
0000
0001
1000
0100
1000
0010
1000
0010
0000
1000
0001
0100
,
0001
0010
0001
0010
0000
0001
1000
0100
1000
0010
1000
0010
1000
0001
0100
0000
,
0010
0000
1000
0000
0001
0000
0010
0000
0000
0000
0100
0000
1000
0000
0001
0000
0100
0000
0010
0000
1000
0000
0001
0000
0000
0000
0010
0000
0100
0010
0100
0000
,
1000
0001
0100
0010
0000
1000
0001
0010
0100
1000
0001
0100
0010
0010
1000
0001
,
0100
0010
0100
0000
0001
0010
0100
1000
0010
0100
0010
0000
1000
0100
0010
0001
,
0100
0010
0100
0000
0001
1000
0010
0100
0001
0010
0100
0000
0010
0001
1000
0100
,
0010
0001
0100
0000
0010
1000
0001
0100
0010
1000
0100
0000
1000
0100
0010
0001
,
0100
0000
0010
0000
0100
0000
0000
0000
0001
0000
1000
0000
0010
0000
0100
0000
0001
0000
1000
0000
0100
0000
0000
0000
0010
0000
0100
0000
0010
0000
0001
1000
,
0001
0100
0001
0100
0000
0010
1000
0010
1000
0100
1000
0100
0000
0010
0001
0010
,
0001
0100
0001
0100
0000
0010
1000
0010
1000
0100
1000
0100
0000
0010
0001
0010
,
0001
1000
0001
1000
0000
0010
1000
0010
1000
0001
1000
0001
0000
0100
0010
0100
,
0001
1000
0001
1000
0000
0010
0100
0010
1000
0001
1000
0001
0000
0100
0010
0100
,
0010
0000
0000
0000
;

//---------------dance-single - ----------------
#NOTES:
     dance-single:
     :
     Hard:
     8:
     0.373230,0.466483,0.098446,0.015146,0.446794,345.000000,332.000000,13.000000,2.000000,0.000000,0.000000,0.373230,0.466483,0.098446,0.015146,0.446794,345.000000,332.000000,13.000000,2.000000,0.000000,0.000000:
0000
0000
0000
0000
,
0000
0000
0000
0000
,
0000
0000
0000
0000
,
0000
0000
0000
0000
,
0010
0000
1000
0001
0000
0001
0000
0000
0010
0000
0001
1000
0000
1000
0000
0000
,
0100
0000
1000
0001
0000
0001
0000
0000
0100
0000
0001
1000
0000
1000
0000
0000
,
0010
0000
0100
0001
0000
0001
0000
0000
0010
0000
0100
1000
0000
1000
0000
0000
,
0010
0000
1000
0001
0000
0001
0000
0000
0100
0000
0010
0100
0000
0100
0000
0000
,
0010
1000
0100
0000
0010
0001
0101
0000
,
0001
0000
0010
0100
0000
0100
0000
0000
1000
0000
0001
0000
0100
0000
0010
0000
,
1000
0000
0001
0100
0000
0100
0000
0000
0010
0000
0100
0000
0001
0000
0000
0000
,
0010
0000
0100
1000
0000
1000
0000
0000
0010
0000
1000
0000
0100
0000
0010
0000
,
0100
0000
0010
0001
0000
0001
0000
0000
1000
0000
0010
0100
0000
0100
0000
0000
,
0001
0000
1000
0010
0000
0010
0000
0000
1000
0000
0100
0000
0010
0000
0001
0000
,
1000
0000
0100
0010
0000
0010
0000
0000
0001
0000
1000
0000
0010
0000
0000
0000
,
0100
0000
0010
1000
0000
1000
0000
0000
0001
0000
1000
0000
0010
0000
0100
0000
,
0001
0000
0010
0000
0100
1000
0010
0100
,
0010
0000
0000
1000
0000
0000
0100
0000
0010
0000
0000
0000
1001
0000
0000
0000
,
0010
0000
0000
0001
0000
1000
0000
0000
0010
0000
0100
0000
0001
0000
1000
0000
,
0010
1000
0100
0000
0010
0100
0010
0000
,
1001
0000
0000
0000
1000
0100
1000
0100
0010
0000
0000
0000
0001
0100
0001
0100
,
0010
0000
0000
0000
1000
0010
1000
0010
0100
0000
0000
0000
0001
0000
0000
0000
,
1000
0000
0000
0000
0001
0010
0100
1000
0001
0000
0000
0000
1000
0010
0100
0001
,
1000
0000
0000
0000
0001
0100
0010
1000
0001
0000
0000
0000
1000
0000
0000
0000
,
2002
0000
3003
0000
0010
1000
0100
0010
,
0100
0000
0000
1000
0000
0000
0001
0000
0100
0000
0010
0000
1000
0000
0000
0000
,
0010
1000
0100
0000
0010
0001
1000
0100
,
0010
0001
0100
0000
0010
0100
0001
0000
,
1001
0000
0000
0000
0001
0100
0010
1000
0001
0000
0000
0000
1000
0010
0100
0001
,
1000
0000
0000
0000
0100
0010
0001
1000
0010
0000
0000
0000
0100
0000
0000
0000
,
0010
0000
0000
0000
1000
0001
0100
0010
1000
0000
0000
0000
0001
0010
0100
1000
,
0010
0000
0000
0000
0100
0001
1000
0010
0100
0000
0000
0000
0010
0000
0000
0000
,
1001
0000
0100
0000
1001
0000
0100
0000
0010
1000
0001
0100
0010
0000
0000
0000
,
1000
0000
0000
0000
0010
0000
0000
0000
0100
0001
1000
0010
0100
0000
0000
0000
,
0000
0000
0000
0000
1001
0000
0100
0000
1001
0000
0100
0000
0010
1000
0001
0100
,
0010
0000
0000
0000
1000
0000
0000
0000
0010
0000
0000
0000
0100
0001
1000
0010
,
0100
0000
0000
0000
1001
0100
1001
0100
,
0010
1000
0001
0100
0010
0000
0000
0000
1000
0000
0000
0000
0010
0000
0000
0000
,
0100
0001
1000
0010
0100
0000
0000
0000
0000
0000
0000
0000
1001
0000
0100
0000
,
1001
0000
0000
0000
0010
1000
0001
0100
0010
0000
0000
0000
1000
0000
0000
0000
,
0010
0000
0000
0000
0100
0001
1000
0010
0100
0000
0000
0000
0000
0000
0000
0000
,
1001
0000
0000
0000
0010
1000
0001
0100
0010
0000
0000
0000
1000
0000
0000
0000
,
0010
0000
0000
0000
0100
0001
1000
0010
0100
0000
0000
0000
0001
1000
0010
0100
,
0001
0000
0000
0000
1000
0010
0100
0001
1000
0010
1000
0010
1000
0000
0000
0000
,
0100
0000
1001
0000
0010
0000
1000
0001
,
0100
0000
0110
0000
0010
1000
0100
0100
,
0010
0001
0100
0000
0001
1000
0010
0100
,
0001
0000
0010
0000
0100
1000
0010
0000
,
0100
0000
0000
0000
0001
1000
0001
1000
0000
0000
0000
0000
0010
0100
0010
0100
,
0000
0000
0000
0000
0010
1000
0010
1000
0000
0000
0000
0000
0100
0001
0100
0001
,
0000
0000
0000
0000
1000
0010
1000
0010
0000
0000
0000
0000
0001
0100
0001
0100
,
0000
0000
0000
0000
0001
0010
0001
0010
0000
0000
0000
0000
0100
1000
0100
1000
,
0100
0000
1000
0001
0000
0100
0000
0000
0001
0000
1000
0010
0000
0100
0000
0000
,
0001
0000
0010
0100
0000
1000
0000
0000
0010
0000
0100
0001
0000
1000
0000
0000
,
0100
0000
0010
0001
0000
1000
0000
0000
0100
0000
0010
0100
0000
1000
0000
0000
,
0001
0000
0010
0100
0000
1000
0000
0000
0010
0000
0100
0001
0000
1000
0000
0000
,
1001
0000
0000
0000
;

//---------------dance-single - ----------------
#NOTES:
     dance-single:
     :
     Medium:
     5:
     0.262883,0.296853,0.098446,0.106019,0.000000,243.000000,230.000000,13.000000,14.000000,0.000000,0.000000,0.262883,0.296853,0.098446,0.106019,0.000000,243.000000,230.000000,13.000000,14.000000,0.000000,0.000000:
// measure 0
0000
0000
0000
0000
,  // measure 1
0000
0000
0000
0000
,  // measure 2
0000
0000
0000
0000
,  // measure 3
0000
0000
0000
0000
,  // measure 4
0010
1000
0100
0010
,  // measure 5
0001
1000
0010
0100
,  // measure 6
0001
0010
0100
1000
,  // measure 7
0010
0100
0001
1000
,  // measure 8
0100
0000
0010
0000
0001
1000
0100
0000
,  // measure 9
0010
0000
0100
0000
1000
0010
0100
0001
,  // measure 10
1000
0000
0010
0000
0100
0001
1000
0000
,  // measure 11
0010
0000
0100
0000
0010
1000
0100
0010
,  // measure 12
0001
0000
1000
0000
0010
1000
0001
0000
,  // measure 13
0010
0000
0100
0000
0010
0001
1000
0100
,  // measure 14
0010
0000
0001
0000
1000
0001
0100
0000
,  // measure 15
0010
0000
1000
0010
0100
0001
1000
0010
,  // measure 16
0100
0000
0001
0000
1000
0001
0100
0010
,  // measure 17
0100
0001
1000
0010
,  // measure 18
0100
0000
0001
0000
0010
0001
1000
0100
,  // measure 19
0010
0100
1000
0000
0010
0000
0100
0000
,  // measure 20
1001
0000
0100
0001
1000
0000
0100
1000
,  // measure 21
0001
0000
0100
0001
1000
0010
0100
0000
,  // measure 22
0010
0000
1000
0001
0100
0000
0001
1000
,  // measure 23
0100
0000
1000
0001
0100
0000
0010
0000
,  // measure 24
2002
0000
3003
0000
0010
0001
1000
0100
,  // measure 25
0010
0100
1000
0001
,  // measure 26
0100
0000
0010
0000
1000
0001
0100
0010
,  // measure 27
1000
0001
0010
0100
,  // measure 28
1001
0000
0010
0001
1000
0000
0010
1000
,  // measure 29
0001
0000
0010
0001
1000
0100
0010
0000
,  // measure 30
0001
0000
1000
0010
0100
0000
0001
0010
,  // measure 31
0100
0000
1000
0010
0100
0000
0001
0000
,  // measure 32
1001
0000
1001
0000
1001
0000
1000
0001
,  // measure 33
0100
0000
0010
0000
0100
0001
1000
0000
,  // measure 34
0000
1001
1001
1001
,  // measure 35
1000
0001
0100
0000
0010
0000
0100
0001
,  // measure 36
1000
0000
1001
1001
,  // measure 37
1001
0000
1000
0001
0100
0000
0010
0000
,  // measure 38
0100
0001
1000
0000
0000
0000
1001
0000
,  // measure 39
1001
0000
1001
0000
1000
0001
0100
0000
,  // measure 40
0010
0000
0100
0001
1000
0000
0000
0000
,  // measure 41
1001
0000
1001
0000
1000
0001
0100
0000
,  // measure 42
0010
0000
0100
0001
1000
0000
0100
1000
,  // measure 43
0001
0000
0100
0001
1000
0010
0100
0000
,  // measure 44
0020
0000
1030
0000
0200
0000
0301
1000
,  // measure 45
0100
0000
0010
0000
0001
1000
0010
0100
,  // measure 46
0002
0000
0013
0000
2000
0000
3100
0010
,  // measure 47
0200
0000
1300
0000
0020
0000
0130
0001
,  // measure 48
2000
0000
3010
0100
0002
0000
0013
0100
,  // measure 49
2000
0000
3100
0010
0001
1000
0001
0000
,  // measure 50
0200
0000
0310
1000
0002
0000
0013
0100
,  // measure 51
2000
0000
3100
0010
0001
1000
0100
0000
,  // measure 52
0010
0001
0100
1001
,  // measure 53
0010
1000
0100
1001
,  // measure 54
1000
0010
0100
1001
,  // measure 55
0001
0010
0100
1000
,  // measure 56
0110
0000
0000
0000
;

//---------------dance-single - ----------------
#NOTES:
     dance-single:
     :
     Easy:
     3:
     0.154701,0.190834,0.000000,0.128737,0.000000,143.000000,143.000000,0.000000,17.000000,0.000000,0.000000,0.154701,0.190834,0.000000,0.128737,0.000000,143.000000,143.000000,0.000000,17.000000,0.000000,0.000000:
// measure 0
0000
0000
0000
0000
,  // measure 1
0000
0000
0000
0000
,  // measure 2
0000
0000
0000
0000
,  // measure 3
0000
0000
0000
0000
,  // measure 4
0010
1000
0100
0000
,  // measure 5
0010
0001
0100
0000
,  // measure 6
0001
1000
0010
0000
,  // measure 7
0100
0001
1000
0000
,  // measure 8
0010
0000
1000
0100
,  // measure 9
0010
0000
0001
1000
,  // measure 10
0100
0000
0010
0001
,  // measure 11
0100
0000
0010
1000
,  // measure 12
0001
0000
0010
0001
,  // measure 13
0010
0000
0100
1000
,  // measure 14
0001
0000
0100
0001
,  // measure 15
0100
0000
0010
1000
,  // measure 16
0001
0000
0010
0100
,  // measure 17
1000
0001
0100
0000
,  // measure 18
0010
0000
0100
0010
,  // measure 19
1000
0001
0100
0010
,  // measure 20
2000
3000
0002
0003
,  // measure 21
0200
0300
0010
1000
,  // measure 22
0200
0300
0020
0030
,  // measure 23
0002
0003
1000
0100
,  // measure 24
0020
0030
0001
1000
,  // measure 25
0010
0100
0001
0000
,  // measure 26
1000
0000
0010
0100
,  // measure 27
0001
1000
0100
0010
,  // measure 28
0200
0300
2000
3000
,  // measure 29
0020
0030
0100
0001
,  // measure 30
2000
3000
0020
0030
,  // measure 31
0200
0300
0001
0010
,  // measure 32
0100
0100
0100
0100
,  // measure 33
1000
0001
0200
0300
,  // measure 34
0000
0100
0100
0100
,  // measure 35
0100
1000
0001
0200
,  // measure 36
0300
0000
0100
0100
,  // measure 37
0100
0100
1000
0001
,  // measure 38
0200
0300
0000
0100
,  // measure 39
0200
0300
1000
0001
,  // measure 40
0200
0300
0020
0030
,  // measure 41
0200
0300
1000
0001
,  // measure 42
0200
0300
0020
0030
,  // measure 43
2000
3000
0001
0010
,  // measure 44
0100
1000
0010
0100
,  // measure 45
0001
0010
0100
1000
,  // measure 46
0010
1000
0001
0100
,  // measure 47
0010
1000
0001
0100
,  // measure 48
0001
0010
0100
0010
,  // measure 49
0100
1000
0001
1000
,  // measure 50
0001
0100
0010
0100
,  // measure 51
0010
1000
0001
0100
,  // measure 52
0010
0010
1000
1000
,  // measure 53
0100
0100
0001
0001
,  // measure 54
0010
0010
1000
1000
,  // measure 55
0100
0100
0001
0001
,  // measure 56
0010
0000
0000
0000
;

//---------------dance-single - ----------------
#NOTES:
     dance-single:
     :
     Beginner:
     1:
     0.107101,0.148426,0.000000,0.000000,0.000000,99.000000,99.000000,0.000000,0.000000,0.000000,0.000000,0.107101,0.148426,0.000000,0.000000,0.000000,99.000000,99.000000,0.000000,0.000000,0.000000,0.000000:
// measure 0
0000
0000
0000
0000
,  // measure 1
0000
0000
0000
0000
,  // measure 2
0000
0000
0000
0000
,  // measure 3
0000
0000
0000
0000
,  // measure 4
0010
0000
1000
0000
,  // measure 5
0100
0000
0010
0000
,  // measure 6
0001
0000
1000
0000
,  // measure 7
0010
0000
0100
0000
,  // measure 8
0001
0000
0010
0010
,  // measure 9
0000
0000
0100
0100
,  // measure 10
0000
0000
1000
1000
,  // measure 11
0000
0000
0001
0001
,  // measure 12
0001
0000
0100
0100
,  // measure 13
0000
0000
0010
0010
,  // measure 14
0000
0000
1000
1000
,  // measure 15
0000
0000
0001
0001
,  // measure 16
0001
0000
0010
0010
,  // measure 17
0010
0000
0100
0000
,  // measure 18
0000
0000
1000
1000
,  // measure 19
1000
0000
0001
0000
,  // measure 20
0100
0000
0010
0000
,  // measure 21
0100
0000
0010
0010
,  // measure 22
0010
0000
1000
0000
,  // measure 23
0001
0000
0100
0100
,  // measure 24
0100
0000
0010
0010
,  // measure 25
0010
0000
1000
0000
,  // measure 26
0000
0000
0100
0100
,  // measure 27
0100
0000
0010
0000
,  // measure 28
0001
0000
1000
0000
,  // measure 29
0010
0000
0100
0100
,  // measure 30
0100
0000
0001
0000
,  // measure 31
1000
0000
0010
0010
,  // measure 32
0010
0000
0000
1000
,  // measure 33
1000
1000
0000
0100
,  // measure 34
0000
0000
0000
0000
,  // measure 35
1000
1000
1000
0000
,  // measure 36
0100
0000
0000
0000
,  // measure 37
0000
1000
1000
1000
,  // measure 38
0000
0100
0000
0000
,  // measure 39
0000
0000
1000
1000
,  // measure 40
1000
0000
0100
0000
,  // measure 41
0000
0000
1000
1000
,  // measure 42
1000
0000
0100
0000
,  // measure 43
0010
0000
0001
0001
,  // measure 44
0001
0000
0000
0100
,  // measure 45
0100
0000
0000
0000
,  // measure 46
0010
0000
0000
1000
,  // measure 47
1000
0000
0000
0000
,  // measure 48
0100
0000
0010
0000
,  // measure 49
0100
0000
0010
0000
,  // measure 50
0001
0000
1000
0000
,  // measure 51
0010
0000
0100
0000
,  // measure 52
0001
0001
0001
0000
,  // measure 53
1000
1000
1000
0000
,  // measure 54
0010
0010
0010
0000
,  // measure 55
0100
0100
0100
0000
,  // measure 56
0010
0000
0000
0000
;
