#TITLE:Missing;
#SUBTITLE:(Round Remix);
#ARTIST:The xx;
#TITLETRANSLIT:;
#SUBTITLETRANSLIT:;
#ARTISTTRANSLIT:;
#GENRE:Coexist;
#CREDIT:;
#BANNER:Missing (Round Remix)-bn.png;
#BACKGROUND:Missing (Round Remix)-bg.png;
#LYRICSPATH:;
#CDTITLE:;
#MUSIC:Missing (Round Remix).mp3;
#OFFSET:-0.045454;
#SAMPLESTART:81.351326;
#SAMPLELENGTH:16.271179;
#LASTBEATHINT:290.020294;
#SELECTABLE:YES;
#BPMS:0.000000=118.000000
;
#STOPS:
;
#BGCHANGES:;
#KEYSOUNDS:;
#ATTACKS:;

//---------------dance-single - ----------------
#NOTES:
     dance-single:
     :
     Hard:
     7:
     0.400967,0.461003,0.121739,0.175846,0.108213,415.000000,397.000000,18.000000,26.000000,0.000000,0.000000,0.400967,0.461003,0.121739,0.175846,0.108213,415.000000,397.000000,18.000000,26.000000,0.000000,0.000000:
0000
0000
0000
0000
,
0000
0000
0000
0000
,
0000
0000
0000
0000
,
0000
0000
0000
0000
,
2000
0000
3100
0000
0001
1000
0100
0010
,
0100
0000
0100
0000
1000
0010
0100
0100
,
0002
0000
1003
0000
0001
1000
0001
0100
,
0020
0000
1030
0000
0100
1000
0001
0001
,
0200
0000
0310
0000
1000
0100
0010
0100
,
2000
0000
3001
0000
1000
0010
1000
0001
,
0020
0000
0130
0000
1000
0001
0100
0010
,
0200
0000
0301
0000
1000
0001
0100
0000
,
0101
0000
0000
0000
0101
0000
0000
0100
0000
0000
0100
0000
0010
0000
0010
0000
,
1010
0000
0000
0000
1010
0000
0000
0010
0000
0000
0010
0000
0100
0000
0100
0000
,
1001
0000
0000
0000
1001
0000
0000
0100
0000
0000
0100
0000
0010
0000
0010
0000
,
1001
0000
0000
0000
1001
0000
0000
0010
0000
0000
0010
0000
0100
0000
0100
0000
,
0001
0000
0101
0000
1000
0001
0100
0010
,
0100
0000
0110
0000
0001
1000
0010
1000
,
0001
0000
1010
0000
0001
1000
0100
0100
,
0010
0000
0110
0000
0001
1000
0010
0010
,
0001
0000
1001
0000
0010
1000
0100
1000
,
0010
0000
1001
0000
0100
0001
0010
0001
,
0100
0000
0110
0000
0001
1000
0010
0100
,
0010
0000
1010
0000
0100
1000
0001
1000
,
0100
0000
0000
0000
1000
0000
0000
0010
0000
0000
1000
0000
0001
0000
0010
0000
,
0001
0000
0000
0000
0100
0000
0000
0001
0000
0000
1000
0000
0100
0000
1000
0000
,
0010
0000
0000
0000
0100
0000
0000
0001
0000
0000
0010
0000
0100
0000
0010
0000
,
0001
0000
0000
0000
1000
0000
0000
0010
0000
0000
0100
0000
0001
0000
1000
0000
,
0100
0000
0000
0000
0001
0000
0000
0100
0000
0000
1000
0000
0010
0000
0010
0000
,
0100
0000
0000
0000
0001
0000
0000
1000
0000
0000
0010
0000
0100
0000
0100
0000
,
0001
0000
0000
0000
1000
0000
0000
0010
0000
0000
0001
0000
1000
0000
0001
0000
,
0100
0000
0000
0000
0010
0000
0000
1000
0000
0000
0100
0000
0001
0000
1000
0000
,
0002
0000
0000
0000
0013
0001
0100
0001
,
0000
0000
1000
0100
2000
0000
3001
0000
,
0100
0000
0010
0000
1000
0001
1000
0000
,
0100
0000
0010
0000
0001
0001
0001
0000
,
2000
0000
0000
0000
3010
0100
0010
2000
,
0000
3001
0000
0100
0010
0100
0010
0000
,
2000
0000
3200
0000
,
0302
0000
0000
0000
0103
0100
0100
0000
,
0010
0001
0010
0001
1000
0010
1000
0010
,
1000
0001
1000
0001
1000
0100
1000
0100
,
0001
0100
0001
0100
1000
0100
1000
0100
,
1000
0001
1000
0001
0100
0010
0100
0000
,
0001
0100
0001
0100
1000
0100
1000
0100
,
0010
0100
0010
0100
0010
1000
0010
1000
,
0001
1000
0001
1000
0001
0010
0001
0010
,
0100
1000
0100
1000
0001
0100
0001
0000
,
0101
0000
0000
0000
1001
0000
0000
0100
0000
0000
0100
0000
0010
0000
0010
0000
,
1000
0000
0000
0000
0001
0000
0000
1000
0000
0000
0100
0000
0010
0000
0010
0000
,
0001
0000
0000
0000
0100
0000
0000
0010
0000
0000
1000
0000
0100
0000
0100
0000
,
0010
0000
0000
0000
0001
0000
0000
1000
0000
0000
0001
0000
0010
0000
0010
0000
,
0100
0000
1000
0000
0100
0000
1000
0001
0000
1000
0001
0000
0100
0000
0001
0000
,
1000
0000
0001
0000
0100
0000
0001
1000
0000
0001
1000
0000
0100
0000
1000
0000
,
0010
0000
1000
0000
0001
0000
1000
0010
0000
1000
0010
0000
0100
0000
0001
0000
,
1000
0000
0010
0000
1000
0000
0001
0100
0000
0001
0100
0000
0010
0000
1000
0000
,
0100
0000
0000
0000
0010
0000
0000
0100
0000
0000
0100
0000
1000
0000
1000
0000
,
0001
0000
0000
0000
0100
0000
0000
0010
0000
0000
0010
0000
1000
0000
1000
0000
,
0001
0000
0000
0000
0010
0000
0000
0100
0000
0000
1000
0000
0001
0000
0001
0000
,
0100
0000
0000
0000
0010
0000
0000
1000
0000
0000
0100
0000
0010
0000
0010
0000
,
0002
0000
0000
0000
0100
0000
0000
0100
0000
0000
0100
0000
0103
0000
0000
0000
,
0020
0000
0000
0000
1000
0000
0000
1000
0000
0000
1000
0000
1030
0000
0000
0000
,
0200
0000
0000
0000
0001
0000
0000
0001
0000
0000
0001
0000
0301
0000
0000
0000
,
2000
0000
0000
0000
0100
0000
0000
0100
0000
0000
3100
0000
0010
0000
0010
0000
,
0200
0000
1000
0000
0000
0000
1300
0001
,
0200
0000
0010
0000
0000
0000
0310
1000
,
0002
0000
0010
0000
0000
0000
0013
0100
,
2000
0000
0010
0000
0000
0000
3010
0100
,
0002
0100
0000
1003
,
0020
1000
0000
0130
,
2000
0100
0000
3100
,
0002
1000
0000
1003
;

//---------------dance-single - ----------------
#NOTES:
     dance-single:
     :
     Medium:
     5:
     0.293720,0.339686,0.263768,0.148792,0.000000,304.000000,265.000000,39.000000,22.000000,0.000000,0.000000,0.293720,0.339686,0.263768,0.148792,0.000000,304.000000,265.000000,39.000000,22.000000,0.000000,0.000000:
0000
0000
0000
0000
,
0000
0000
0000
0000
,
0000
0000
0000
0000
,
0000
0000
0000
0000
,
0001
0000
0010
0000
0001
0000
1000
0010
,
1000
0000
0001
0000
1000
0000
0100
1000
,
0001
0000
0010
0000
0100
0000
0010
0001
,
0010
0000
0100
0000
1000
0000
0001
1000
,
0010
0000
0100
0000
0010
0000
1000
0010
,
1000
0000
0001
0000
0100
0000
0010
0100
,
0001
0000
1000
0000
0010
0000
1000
0100
,
1000
0000
0010
0000
1000
0001
0100
0010
,
0200
0001
0301
0000
,
0020
1000
1030
0000
,
2000
0100
3001
0000
,
0002
1000
0103
0000
,
0001
0000
0010
0000
0100
0010
0100
0000
,
1000
1100
1000
1100
,
0010
0000
1000
0000
0001
1000
0010
0000
,
0100
0101
0100
0101
,
0010
0000
1000
0000
0001
0010
0100
0000
,
0010
0011
0010
0011
,
0010
0000
0100
0000
1000
0100
0010
0000
,
0100
1100
0100
1100
,
0001
0000
1000
0000
0001
1000
0010
0010
,
0100
0100
0010
1001
,
0010
0000
0100
0000
0010
1000
0001
0001
,
0010
0110
0010
1001
,
0100
0000
1001
0000
0010
1000
0010
0000
,
0100
0000
1001
0000
0010
0001
0010
0000
,
0100
0000
1001
0000
0100
0010
0100
0000
,
0010
0000
1001
0000
0010
0100
0010
0000
,
0200
0001
0300
1001
,
0010
1000
0100
1001
,
0020
1000
0030
1001
,
0010
0001
0100
1001
,
0200
0000
0000
0301
,
2000
0000
0000
3010
,
2000
0000
0000
3100
,
0002
0000
0100
0103
,
0100
1100
0100
1001
,
0100
0101
0100
1001
,
0100
1100
0100
1001
,
0100
0101
0100
1001
,
0100
1100
0100
1010
,
0100
1100
0100
1010
,
0100
0101
0100
0011
,
0100
0101
0100
0011
,
0010
0100
0010
1001
,
0001
0100
1000
0100
,
0010
0100
0010
1001
,
0010
0001
0100
1000
,
0100
0000
0010
0000
0001
1000
0100
0100
,
0010
0001
1000
1001
,
0010
0000
1000
0000
0001
1000
0010
0010
,
0100
0000
0001
0000
1000
0001
1000
0000
,
0020
1000
0000
1030
,
0002
0010
0000
0013
,
0200
1000
0000
1300
,
0020
0100
0000
0130
,
0002
1000
0000
1003
,
0200
0010
0000
0310
,
0002
0010
0000
0013
,
0200
1000
0000
1300
,
0020
0000
0000
1030
,
0200
0000
0000
0310
,
0002
0000
0000
1003
,
0020
0000
0000
0130
,
0001
1000
0000
0010
,
1000
0010
0000
1000
,
0100
0001
0000
0100
,
1000
0001
0000
0101
;

//---------------dance-single - ----------------
#NOTES:
     dance-single:
     :
     Easy:
     3:
     0.158454,0.218370,0.000000,0.108213,0.000000,164.000000,164.000000,0.000000,16.000000,0.000000,0.000000,0.158454,0.218370,0.000000,0.108213,0.000000,164.000000,164.000000,0.000000,16.000000,0.000000,0.000000:
// measure 0
0000
0000
0000
0000
,  // measure 1
0000
0000
0000
0000
,  // measure 2
0000
0000
0000
0000
,  // measure 3
0000
0000
0000
0000
,  // measure 4
0001
1000
0001
1000
,  // measure 5
0200
0000
0000
0300
,  // measure 6
1000
0001
1000
0001
,  // measure 7
0200
0000
0000
0300
,  // measure 8
0001
1000
0001
1000
,  // measure 9
0200
0000
0000
0300
,  // measure 10
1000
0001
1000
0001
,  // measure 11
0200
0000
0000
0300
,  // measure 12
0010
0000
0000
1000
,  // measure 13
0100
0000
0000
0001
,  // measure 14
0010
0000
0000
0100
,  // measure 15
1000
0000
0000
0010
,  // measure 16
0001
0000
0000
0100
,  // measure 17
0010
0100
0000
0010
,  // measure 18
1000
0001
0000
1000
,  // measure 19
0100
0010
0000
0001
,  // measure 20
1000
0010
0000
0100
,  // measure 21
0001
0010
0000
0100
,  // measure 22
1000
0100
0000
1000
,  // measure 23
0001
1000
0000
0010
,  // measure 24
0100
0001
0000
0010
,  // measure 25
0001
0010
0000
0100
,  // measure 26
1000
0100
0000
1000
,  // measure 27
0001
1000
0000
0001
,  // measure 28
0100
0001
0000
1000
,  // measure 29
0010
1000
0000
0010
,  // measure 30
0100
0010
0000
1000
,  // measure 31
0001
1000
0000
0001
,  // measure 32
0020
0000
0000
0030
,  // measure 33
0200
0000
0000
0300
,  // measure 34
2000
0000
0000
3000
,  // measure 35
0002
0000
0000
0003
,  // measure 36
0100
0000
0000
0000
,  // measure 37
0010
0000
0000
0000
,  // measure 38
1000
0000
0000
0000
,  // measure 39
0000
0000
0000
0000
,  // measure 40
0001
0001
1000
0001
,  // measure 41
1000
1000
0001
1000
,  // measure 42
0001
0001
0100
0001
,  // measure 43
0100
0100
0010
0100
,  // measure 44
0010
0010
1000
0010
,  // measure 45
1000
1000
0010
1000
,  // measure 46
0001
0001
1000
0001
,  // measure 47
1000
1000
0100
1000
,  // measure 48
0100
0000
0000
0010
,  // measure 49
0001
0000
0000
1000
,  // measure 50
0010
0000
0000
0100
,  // measure 51
0001
0000
0000
1000
,  // measure 52
0100
0000
0000
0010
,  // measure 53
0100
0000
0000
1000
,  // measure 54
0001
0000
0000
0100
,  // measure 55
0010
0000
0000
1000
,  // measure 56
0100
0100
0000
0010
,  // measure 57
0000
0100
0000
0010
,  // measure 58
0010
0001
0000
0001
,  // measure 59
0000
1000
0000
1000
,  // measure 60
0010
1000
0000
1000
,  // measure 61
0100
0100
0000
0100
,  // measure 62
0010
0010
0000
0010
,  // measure 63
0001
0001
0000
1000
,  // measure 64
0020
0000
0030
1000
,  // measure 65
0200
0000
0300
0010
,  // measure 66
0002
0000
0003
1000
,  // measure 67
0020
0000
0030
0100
,  // measure 68
0002
0000
0000
0003
,  // measure 69
2000
0000
0000
3000
,  // measure 70
0200
0000
0000
0300
,  // measure 71
0200
0000
0000
0300
;

//---------------dance-single - ----------------
#NOTES:
     dance-single:
     :
     Beginner:
     1:
     0.102416,0.168068,0.000000,0.000000,0.000000,106.000000,106.000000,0.000000,0.000000,0.000000,0.000000,0.102416,0.168068,0.000000,0.000000,0.000000,106.000000,106.000000,0.000000,0.000000,0.000000,0.000000:
// measure 0
0000
0000
0000
0000
,  // measure 1
0000
0000
0000
0000
,  // measure 2
0000
0000
0000
0000
,  // measure 3
0000
0000
0000
0000
,  // measure 4
0001
0000
0010
0000
,  // measure 5
0001
0000
0000
0000
,  // measure 6
1000
0000
0100
0000
,  // measure 7
1000
0000
0000
0000
,  // measure 8
0010
0000
1000
0000
,  // measure 9
0010
0000
0000
0000
,  // measure 10
0100
0000
0001
0000
,  // measure 11
0100
0000
0000
0000
,  // measure 12
0001
0001
0001
0000
,  // measure 13
0001
0001
0001
0000
,  // measure 14
1000
1000
1000
0000
,  // measure 15
1000
1000
1000
0000
,  // measure 16
0010
0000
0100
0000
,  // measure 17
0010
0000
0100
0000
,  // measure 18
0001
0000
0100
0000
,  // measure 19
0001
0000
0100
0000
,  // measure 20
0001
0000
1000
0000
,  // measure 21
0001
0000
1000
0000
,  // measure 22
0100
0000
1000
0000
,  // measure 23
0100
0000
1000
0000
,  // measure 24
0010
0000
0100
0000
,  // measure 25
0010
0000
0100
0000
,  // measure 26
0001
0000
0100
0000
,  // measure 27
1000
0000
0100
0000
,  // measure 28
0001
0000
0100
0000
,  // measure 29
0001
0000
0100
0000
,  // measure 30
1000
0000
0100
0000
,  // measure 31
1000
0000
0100
0000
,  // measure 32
0001
0000
0000
0000
,  // measure 33
0010
0000
0000
0000
,  // measure 34
0100
0000
0000
0000
,  // measure 35
0100
0000
0000
0000
,  // measure 36
1000
0000
0000
0000
,  // measure 37
0000
0000
0000
0000
,  // measure 38
0010
0000
0000
0000
,  // measure 39
0000
0000
0000
0000
,  // measure 40
0100
0000
0100
0000
,  // measure 41
0010
0000
0010
0000
,  // measure 42
1000
0000
1000
0000
,  // measure 43
0001
0000
0001
0000
,  // measure 44
0010
0000
0010
0000
,  // measure 45
0100
0000
0100
0000
,  // measure 46
1000
0000
1000
0000
,  // measure 47
0001
0000
0001
0000
,  // measure 48
0100
0000
0000
0000
,  // measure 49
0010
0000
0000
0000
,  // measure 50
1000
0000
0000
0000
,  // measure 51
0001
0000
0000
0000
,  // measure 52
0010
0000
0010
0000
,  // measure 53
0100
0000
0100
0000
,  // measure 54
1000
0000
1000
0000
,  // measure 55
0100
0000
0100
0000
,  // measure 56
0001
0000
0000
0000
,  // measure 57
0100
0000
0000
0000
,  // measure 58
0010
0000
0000
0000
,  // measure 59
0001
0000
0000
0000
,  // measure 60
1000
0000
0000
0000
,  // measure 61
0010
0000
0000
0000
,  // measure 62
0100
0000
0000
0000
,  // measure 63
0001
0000
0000
0000
,  // measure 64
1000
0000
0000
0000
,  // measure 65
0100
0000
0000
0000
,  // measure 66
0010
0000
0000
0000
,  // measure 67
0100
0000
0000
0000
,  // measure 68
0010
0000
0000
0000
,  // measure 69
0001
0000
0000
0000
,  // measure 70
1000
0000
0000
0000
,  // measure 71
0100
0000
0000
0000
;
