#VERSION:0.83;
#TITLE:Maximum Black;
#SUBTITLE:;
#ARTIST:Gunship;
#TITLETRANSLIT:;
#SUBTITLETRANSLIT:;
#ARTISTTRANSLIT:;
#GENRE:Gunship;
#ORIGIN:;
#CREDIT:;
#BANNER:Maximum Black-bn.png;
#BACKGROUND:Maximum Black-bg.png;
#PREVIEWVID:;
#JACKET:Maximum Black-jacket.png;
#CDIMAGE:;
#DISCIMAGE:;
#LYRICSPATH:;
#CDTITLE:;
#MUSIC:Maximum Black.mp3;
#OFFSET:-0.535000;
#SAMPLESTART:57.015381;
#SAMPLELENGTH:18.000004;
#SELECTABLE:YES;
#DISPLAYBPM:120.000000;
#BPMS:0.000=60.000,
44.000=120.000;
#STOPS:;
#DELAYS:;
#WARPS:;
#TIMESIGNATURES:0.000=4=4;
#TICKCOUNTS:0.000=2;
#COMBOS:0.000=1;
#SPEEDS:0.000=1.000=0.000=0;
#SCROLLS:0.000=1.000;
#FAKES:;
#LABELS:0.000=Song Start;
#LASTSECONDHINT:141.575394;
#BGCHANGES:-0.500=Maximum Black-video.avi=1.000=0=0=0=StretchNoLoop====,
99999=-nosongbg-=1.000=0=0=0 // don't automatically add -songbackground-
;
#KEYSOUNDS:;
#ATTACKS:
;

//---------------dance-single - ----------------
#NOTEDATA:;
#CHARTNAME:;
#STEPSTYPE:dance-single;
#DESCRIPTION:;
#CHARTSTYLE:;
#DIFFICULTY:Challenge;
#METER:11;
#RADARVALUES:0.781659,0.787070,0.021045,0.070149,1.413499,780.000000,777.000000,3.000000,10.000000,0.000000,0.000000,0.000000,0.000000,0.000000,0.781659,0.787070,0.021045,0.070149,1.413499,780.000000,777.000000,3.000000,10.000000,0.000000,0.000000,0.000000,0.000000,0.000000;
#CREDIT:;
#OFFSET:-0.535000;
#BPMS:0.000000=120.000000
;
#STOPS:;
#DELAYS:;
#WARPS:;
#TIMESIGNATURES:0.000000=4=4
;
#TICKCOUNTS:0.000000=2
;
#COMBOS:0.000000=1
;
#SPEEDS:0.000000=1.000000=0.000000=0
;
#SCROLLS:0.000000=1.000000
;
#FAKES:;
#LABELS:0.000000=Song Start
;
#DISPLAYBPM:120.000000;
#NOTES:
// measure 0
0000
0000
0000
0000
,  // measure 1
0000
0000
0000
0000
,  // measure 2
0000
0010
0010
0000
0100
0000
0010
0010
,  // measure 3
0000
0000
1000
0001
1000
0000
0100
0000
0001
1000
0001
0000
0100
0000
0010
0000
,  // measure 4
1000
0100
0010
0001
0000
0001
0100
0000
0001
0100
0010
1000
0000
1000
0100
0000
,  // measure 5
1000
0010
0100
0001
0000
0001
0010
0000
0001
0010
0100
1000
0000
1000
0010
0000
,  // measure 6
1000
0100
0010
0001
0000
0001
0100
0000
0001
0100
0010
1000
0000
1000
0100
0000
,  // measure 7
1000
0010
0100
0001
0000
0001
0010
0000
0001
0010
0100
1000
0000
1000
0010
0000
,  // measure 8
0100
0001
1000
0010
0000
1000
0001
0000
0010
0001
1000
0100
0000
0010
0001
0000
,  // measure 9
1000
0010
0100
0001
0000
1000
0010
0000
0100
0001
1000
0100
0000
0010
0100
0000
,  // measure 10
1000
0010
0100
0001
0000
0010
0100
0000
1000
0001
0100
0010
0000
1000
0001
0000
,  // measure 11
0010
0100
1000
0001
0000
0100
0010
0000
1000
0010
0100
0001
0000
0010
0100
0000
,  // measure 12
1000
0100
1000
0001
0000
0100
0000
0001
1000
0001
0010
0100
0000
1000
0000
0010
,  // measure 13
1000
0010
0100
0001
0000
0010
0000
0100
1000
0001
0100
0010
0000
1000
0000
0001
,  // measure 14
0010
0100
0010
0001
0000
1000
0000
0100
0010
0100
1000
0010
0000
0100
0000
0001
,  // measure 15
0010
0001
1000
0010
0000
0100
0000
0001
1000
0001
0010
0100
0000
1000
0100
0000
,  // measure 16
0010
0001
1000
0010
0000
0100
0000
0001
0010
0100
0010
0001
0000
1000
0000
0100
,  // measure 17
0010
0100
1000
0010
0000
0100
0000
0001
0010
0001
1000
0010
0000
0100
0000
0010
,  // measure 18
1000
0001
0010
0100
0000
0010
0000
0001
1000
0010
0100
0001
0000
1000
0000
0100
,  // measure 19
0010
0100
1000
0010
0000
0100
0000
0001
1000
0010
0100
0001
0000
1000
0001
0000
,  // measure 20
0010
0022
0000
0000
0000
0000
0000
0000
,  // measure 21
0000
0030
1000
0010
,  // measure 22
0103
0000
0000
1000
0010
0100
0002
0000
0000
0000
0000
0000
0000
0000
0000
0000
0000
0000
0000
0000
0000
0000
0000
0000
,  // measure 23
0003
0000
0000
1000
0010
0100
0002
0000
0000
0000
0000
0000
0000
0000
0000
1000
0000
0000
1003
0000
0000
0000
0000
0000
,  // measure 24
0020
0000
2000
0000
,  // measure 25
0030
0001
3002
0000
0010
0000
0010
0000
,  // measure 26
0103
0000
0000
0001
0010
0100
2000
0000
0000
0000
0000
0000
3000
0000
0000
1000
0100
0010
0002
0000
0000
0000
0000
0000
,  // measure 27
0003
0000
0000
0001
0010
0100
1000
0000
0000
1000
0000
0000
1000
0000
0000
1000
0100
0010
0001
0000
0000
0001
0000
0000
,  // measure 28
1000
0100
0010
0001
1000
0001
1000
0001
1000
0100
0010
0001
1000
0001
1000
0001
,  // measure 29
1000
0100
0010
0001
1000
0001
1000
0001
1000
0100
0010
0001
1000
0001
1000
0001
,  // measure 30
0010
0001
1000
0001
0100
0010
0100
0001
0010
0001
1000
0001
0100
0010
0100
0001
,  // measure 31
0010
0001
1000
0001
0100
0010
0100
0001
0010
0001
1000
0001
0100
0010
0100
0001
,  // measure 32
0010
0100
1000
0001
0010
0100
0010
0100
1000
0001
0010
0100
1000
0001
1000
0001
,  // measure 33
0010
0100
1000
0001
0010
0100
0010
0100
1000
0001
0010
0100
1000
0001
1000
0001
,  // measure 34
1000
0010
0100
0001
1000
0001
1000
0001
1000
0010
0100
0001
1000
0001
1000
0001
,  // measure 35
1000
0010
0100
0001
1000
0001
1000
0001
1000
0010
0100
0001
1000
0001
1000
0001
,  // measure 36
0100
0010
1000
0001
0100
0010
1000
0001
0010
0100
1000
0001
0010
0100
1000
0001
,  // measure 37
0100
0001
1000
0010
0100
0001
1000
0010
1000
0100
1000
0001
1000
0100
1000
0001
,  // measure 38
0010
0001
1000
0010
1000
0001
0100
0001
0010
0001
1000
0010
1000
0001
0100
0001
,  // measure 39
0010
0001
1000
0010
1000
0001
0100
0001
0010
0001
1000
0010
1000
0001
0100
0001
,  // measure 40
1000
0100
1000
0001
0100
0010
0100
0001
1000
0100
1000
0001
0100
0010
0100
0001
,  // measure 41
1000
0100
1000
0001
0100
0010
0100
0001
1000
0100
1000
0001
0100
0010
0100
0001
,  // measure 42
1000
0100
0010
0001
1000
0010
0100
0001
1000
0100
0010
0001
1000
0010
0100
0001
,  // measure 43
0010
0100
1000
0001
0100
0010
1000
0001
0010
0100
1000
0001
0100
0010
1000
0001
,  // measure 44
0010
0000
0000
0000
,  // measure 45
0000
0000
0000
0000
,  // measure 46
0102
0000
0100
0000
0100
0000
0103
0010
,  // measure 47
0100
0000
1000
0000
0100
0000
0000
0000
0101
0000
0000
1000
0100
0000
1000
0000
,  // measure 48
0001
0010
0001
0000
0100
0000
0000
0001
0100
0010
1000
0000
0001
0000
0000
0010
,  // measure 49
0100
1000
0001
0000
0100
0000
0000
0010
1000
0010
0100
0000
0001
0000
0000
1000
,  // measure 50
0010
0100
0000
0000
0010
0100
0000
0000
0000
0000
0000
0000
0001
0100
0000
0000
0001
0100
0000
0000
0001
0000
1000
0000
0010
0000
0000
0000
0000
0000
0010
0000
,  // measure 51
0100
0000
0000
0000
0000
0000
0001
0000
0000
1000
0000
0000
0000
0000
0000
0010
0000
0000
0100
0000
0001
0000
1000
0000
0010
0000
0000
1000
0000
0000
0001
0000
0000
1000
0000
0000
0100
0000
0000
1000
0000
0000
0001
0000
0000
1000
0000
0000
,  // measure 52
0010
1000
0100
1000
0000
1000
0001
1000
0000
0010
1000
0010
0000
0100
0001
0100
,  // measure 53
0000
0001
1000
0001
0000
0010
0001
0010
0000
0100
1000
0100
0000
0010
0001
0010
,  // measure 54
0000
0001
1000
0001
0000
0001
0100
0001
0000
0001
1000
0001
0000
0001
0010
0001
,  // measure 55
0000
1000
0010
1000
0000
1000
0100
1000
0000
1000
0001
1000
0000
1000
0010
0100
,  // measure 56
0001
0010
0100
0010
0000
0010
0001
0010
0000
0010
1000
0010
0000
0010
0001
0010
,  // measure 57
0000
0010
0100
0010
0000
0010
0001
0010
0000
0010
1000
0010
0000
0010
0001
0010
,  // measure 58
0000
0001
1000
0001
0000
0001
0100
0001
0000
0001
0010
0001
0000
0001
0100
0001
,  // measure 59
0000
1000
0010
1000
0000
1000
0100
1000
0000
1000
0001
1000
0000
1000
0100
1000
,  // measure 60
0001
0100
0010
1000
0000
0010
0100
0001
0000
1000
0010
0100
0000
0001
0010
0100
,  // measure 61
0000
1000
0001
0100
0000
0010
1000
0001
0000
0010
0100
1000
0000
0001
0100
0010
,  // measure 62
1000
0100
0010
0001
0000
0010
0100
1000
0000
0001
0010
0100
0000
1000
0100
0010
,  // measure 63
0001
0100
0010
1000
0000
0010
0100
0001
0000
1000
0010
0100
0000
0001
1000
0010
,  // measure 64
0100
0001
0100
0010
1000
0010
0100
0001
1000
0010
0100
0001
0100
0010
1000
0010
,  // measure 65
0001
0010
0100
0010
1000
0100
0010
0100
1000
0001
0100
0010
0100
0001
0100
0010
,  // measure 66
1000
0001
0100
0010
0100
0001
0010
0100
1000
0010
0100
0001
0100
0010
0100
0001
,  // measure 67
1000
0100
0010
0100
1000
0001
0010
0100
1000
0010
0100
0010
0001
0010
0100
0010
,  // measure 68
1000
0000
0000
0000
;

//---------------dance-single - ----------------
#NOTEDATA:;
#CHARTNAME:;
#STEPSTYPE:dance-single;
#DESCRIPTION:;
#CHARTSTYLE:;
#DIFFICULTY:Hard;
#METER:8;
#RADARVALUES:0.418889,0.524713,0.091194,0.259551,0.326192,418.000000,405.000000,13.000000,37.000000,0.000000,7.000000,0.000000,0.000000,0.000000,0.418889,0.524713,0.091194,0.259551,0.326192,418.000000,405.000000,13.000000,37.000000,0.000000,7.000000,0.000000,0.000000,0.000000;
#CREDIT:;
#OFFSET:-0.535000;
#BPMS:0.000000=120.000000
;
#STOPS:;
#DELAYS:;
#WARPS:;
#TIMESIGNATURES:0.000000=4=4
;
#TICKCOUNTS:0.000000=2
;
#COMBOS:0.000000=1
;
#SPEEDS:0.000000=1.000000=0.000000=0
;
#SCROLLS:0.000000=1.000000
;
#FAKES:;
#LABELS:0.000000=Song Start
;
#DISPLAYBPM:120.000000;
#NOTES:
0000
0000
0000
0000
,
0000
0000
0000
0000
,
0000
0010
0010
0000
0100
0000
0010
0010
,
0000
0000
1000
0100
1000
0000
0000
0000
0001
0100
0001
0000
1000
0000
0001
0000
,
1000
0000
0000
0010
0000
0100
0000
0000
0001
0000
0000
0010
0000
0100
0000
0000
,
2000
0000
0000
0010
0000
0001
0000
0000
3002
0000
0000
0010
0000
1000
0000
0000
,
0103
0000
0000
0010
0000
1000
0000
0000
0100
0000
0000
0010
0000
0001
0000
0000
,
1000
0000
0000
0010
0000
1000
0000
0000
0001
0000
0000
0010
0000
0001
0000
0000
,
1001
0000
0000
0010
0000
0001
0000
0000
1000
0000
0000
0010
0000
1000
0000
0000
,
0001
0000
0000
0100
0000
0010
0000
0000
1000
0000
0000
0100
0000
0010
0000
0000
,
0001
0000
0000
1000
0000
0001
0000
0000
0100
0000
0000
1000
0000
0100
0000
0000
,
0010
0000
0000
1000
0000
0001
0000
0000
0010
0000
0000
0100
0000
1000
0000
0000
,
1020
0000
0000
0100
0000
1030
0000
0000
0002
0000
0000
0010
0000
0103
0000
0000
,
0200
0000
0000
1000
0000
0301
0000
0000
0020
0000
0000
1000
0000
0130
0000
0000
,
2000
0000
0000
0100
0000
3010
0000
0000
0200
0000
0000
0001
0000
1300
0000
0000
,
0020
0000
0000
0001
0000
0130
0000
0000
2000
0000
0000
0100
0000
3001
0000
0000
,
0011
0000
0001
0100
0000
0100
0000
0000
0010
0000
1000
0001
0000
0001
0000
0000
,
0010
0000
0100
1000
0000
1000
0000
0000
0010
0000
1000
0001
0000
0001
0000
0000
,
0100
0000
0010
1000
0000
1000
0000
0000
0001
0000
0010
0100
0000
0100
0000
0000
,
1000
0000
0010
0100
0000
0100
0000
0000
0001
0000
1000
0100
0000
1000
0100
0000
,
0110
0200
0000
0000
2000
0000
0000
0000
,
0000
0300
0001
0010
,
0200
0000
0000
0300
,
0002
0000
0000
3003
,
0200
0000
0002
0000
,
0003
0020
0000
0000
,
0330
0000
0000
0000
,
2000
3200
0320
0032
,
1003
0010
2000
0000
3001
0100
1000
0100
,
0001
0100
0001
0000
0001
0020
0200
0000
,
0330
0000
1000
0010
1000
0000
0100
1000
,
0001
0100
0010
0000
0100
0001
0100
0010
,
1000
0100
0010
0001
1000
0100
0010
0001
,
1000
0100
1000
0000
0001
0010
0001
0000
,
1000
0010
1000
0100
0010
0100
1000
0010
,
1000
0001
0100
0010
0100
0001
0010
0100
,
0120
0200
0000
0030
2000
0000
0000
0000
,
0001
0000
0010
0000
,
0002
0000
0013
0000
,
0001
0010
0011
3300
,
2002
0000
3003
0000
0100
0001
0010
0100
,
0020
0032
2003
3020
,
0130
0001
1000
0000
1000
0010
0100
0000
,
0010
0000
1000
0000
0100
0000
0001
0000
0100
0000
1000
0000
0010
0100
0010
0100
,
0001
0000
0000
0000
,
0000
0000
0000
0000
,
0102
0000
0100
0000
0100
0000
0103
0010
,
0100
0000
1000
0000
0100
0000
0000
0000
0101
0000
0000
1000
0100
0000
1000
0000
,
0001
0000
0010
0000
0100
0000
0000
1000
0001
0000
1000
0000
0100
0000
0000
1000
,
0010
0000
1000
0000
0100
0000
0000
0010
0001
0000
0100
0000
0001
0000
0000
0100
,
0010
0000
0010
0000
0000
0000
1000
0000
1000
0000
0001
1000
0001
0000
0000
0010
,
0100
0000
0010
0100
0000
0010
0100
0000
0001
0000
1000
0000
0010
0100
0010
0000
,
2001
0100
0001
3100
,
0001
0100
0001
0100
1000
0100
1000
0100
,
0002
0100
1000
0103
,
0001
0100
0001
0100
1000
0100
0001
0100
,
0110
0001
0100
0001
0010
0001
0100
0001
,
1000
0010
1000
0100
1000
0010
1000
0100
,
0001
0100
1000
0010
1000
0100
0010
0100
,
1000
0010
1000
0100
1000
0001
1000
0100
,
0010
0001
0010
0000
0100
0000
1000
0000
0100
1000
0100
0000
0010
0000
0001
0000
,
1000
0001
1000
0000
0010
0000
0100
0000
0001
1000
0001
0000
0010
0000
0100
0000
,
1000
0010
1000
0000
0001
0000
1000
0000
0010
0100
0010
0000
0100
0000
0001
0000
,
1000
0100
1000
0000
0100
0000
0001
0000
0100
0010
0100
0000
0010
0000
0001
0000
,
0110
0000
0001
0000
0100
0000
0001
1000
0001
0000
1000
0000
0010
0000
0100
0001
,
0100
0000
0010
0000
1000
0000
0100
0010
0100
0000
1000
0000
0010
0000
0100
0001
,
0100
0000
0001
0000
1000
0000
0010
0100
0010
0000
0100
0000
0010
0000
1000
0100
,
1000
0000
0001
0000
0010
0000
0100
0010
0100
0000
1000
0000
0010
0000
1000
0000
,
0101
0000
0000
0000
;

//---------------dance-single - ----------------
#NOTEDATA:;
#CHARTNAME:;
#STEPSTYPE:dance-single;
#DESCRIPTION:;
#CHARTSTYLE:;
#DIFFICULTY:Medium;
#METER:6;
#RADARVALUES:0.287610,0.381610,0.098208,0.287610,0.000000,287.000000,273.000000,14.000000,41.000000,0.000000,0.000000,0.000000,0.000000,0.000000,0.287610,0.381610,0.098208,0.287610,0.000000,287.000000,273.000000,14.000000,41.000000,0.000000,0.000000,0.000000,0.000000,0.000000;
#CREDIT:;
#OFFSET:-0.535000;
#BPMS:0.000000=120.000000
;
#STOPS:;
#DELAYS:;
#WARPS:;
#TIMESIGNATURES:0.000000=4=4
;
#TICKCOUNTS:0.000000=2
;
#COMBOS:0.000000=1
;
#SPEEDS:0.000000=1.000000=0.000000=0
;
#SCROLLS:0.000000=1.000000
;
#FAKES:;
#LABELS:0.000000=Song Start
;
#DISPLAYBPM:120.000000;
#NOTES:
0000
0000
0000
0000
,
0000
0000
0000
0000
,
0000
1000
0001
0000
0100
0000
0010
0010
,
0000
1000
0100
0110
,
2002
3003
0022
0033
,
2000
0010
0100
0010
,
3100
0001
0010
0100
,
1000
0010
0100
0001
,
2000
0010
3010
0100
,
0001
0001
0010
0100
,
1000
0001
1000
0100
,
0001
0100
0001
0000
1000
0100
1000
0000
,
0220
0330
2002
3003
,
0010
1000
0100
0000
0010
0001
0100
0000
,
0200
0000
0310
1000
,
0002
0010
0100
0010
,
0103
1000
0010
0100
,
0001
0010
0100
1000
,
0002
0000
2003
0000
,
3200
0000
0010
0310
,
0220
0030
2000
0000
,
0000
0000
0000
0300
,
0002
0000
0000
0000
,
3000
0000
0200
0003
0000
0010
0010
0000
,
0020
0300
2000
0000
,
0030
0200
0000
3300
,
0000
1000
0001
0000
0000
0001
1000
0000
,
0000
0010
0100
0010
0000
1000
0001
0000
,
0102
1000
0100
0010
,
1000
0100
1003
0020
,
0002
0003
2000
3000
,
0200
0300
0001
0130
,
2000
0010
0001
0100
,
0010
0100
0001
0020
,
3000
0100
1000
0100
,
1000
0001
1030
0001
,
2002
3003
2020
0000
,
3000
0000
1000
0001
,
2000
3000
0200
0300
,
0001
0100
1000
0001
,
2030
0000
3000
0000
0100
1000
0010
0000
,
0100
0000
0001
0000
1000
0010
0100
0000
,
0002
0000
1003
0000
1000
0001
1000
0000
,
0020
0000
0130
0000
1000
0001
0100
0010
,
1000
0000
0000
0000
,
0000
0000
0000
0000
,
0100
0000
0100
0000
0100
0000
0100
0001
,
1000
0000
1000
0000
1000
0010
0100
0010
,
0200
0001
0010
0310
,
0002
0010
1000
0103
,
0001
0100
0000
1000
0100
0000
0110
0000
,
0011
0000
1100
0000
0010
0010
0100
0100
,
0110
0000
0000
0001
0010
1000
0000
1000
,
0010
0001
0000
0001
0100
0001
0000
1000
,
0010
1000
0000
1000
0100
1000
0000
1000
,
0100
0001
0000
0001
0100
0010
0000
0010
,
1000
0100
0000
0010
0100
0010
0000
0010
,
0001
1000
0000
1000
0010
0100
0000
0100
,
0010
1000
0000
1000
0100
0001
0000
0001
,
0100
1000
0000
1000
0010
0100
0000
0001
,
0010
0100
1000
0000
0010
1000
0010
0000
,
0001
0100
1000
0000
1000
0010
0001
0010
,
1000
0100
0000
0010
0100
0010
0000
0001
,
1000
0010
0000
0100
0001
0010
0100
1000
,
0010
1000
0100
0000
0010
0001
0100
0000
,
0010
1000
0010
0000
1000
0100
1000
0000
,
0001
0010
0100
1000
0000
0010
1000
0010
,
0100
0001
0100
0000
0001
0000
1000
0000
,
1001
0000
0000
0000
;

//---------------dance-single - ----------------
#NOTEDATA:;
#CHARTNAME:;
#STEPSTYPE:dance-single;
#DESCRIPTION:;
#CHARTSTYLE:;
#DIFFICULTY:Easy;
#METER:4;
#RADARVALUES:0.188400,0.238506,0.049104,0.294625,0.000000,188.000000,181.000000,7.000000,42.000000,0.000000,0.000000,0.000000,0.000000,0.000000,0.188400,0.238506,0.049104,0.294625,0.000000,188.000000,181.000000,7.000000,42.000000,0.000000,0.000000,0.000000,0.000000,0.000000;
#CREDIT:;
#OFFSET:-0.535000;
#BPMS:0.000000=120.000000
;
#STOPS:;
#DELAYS:;
#WARPS:;
#TIMESIGNATURES:0.000000=4=4
;
#TICKCOUNTS:0.000000=2
;
#COMBOS:0.000000=1
;
#SPEEDS:0.000000=1.000000=0.000000=0
;
#SCROLLS:0.000000=1.000000
;
#FAKES:;
#LABELS:0.000000=Song Start
;
#DISPLAYBPM:120.000000;
#NOTES:
0000
0000
0000
0000
,
0000
0000
0000
0000
,
2000
0000
3200
0000
,
0320
0000
0032
0000
,
2000
0000
0000
3003
,
0020
0000
1000
2000
,
0000
0000
0000
0000
,
0000
0030
3001
0000
,
0010
0001
1000
0100
,
0010
0100
1000
0020
,
0000
0200
0000
0000
,
0330
0000
0000
0000
,
2002
0000
3003
0001
,
0020
0000
0001
0200
,
0000
0000
0000
0000
,
0000
0000
0330
0000
,
2000
0010
0001
0020
,
3000
0100
1000
0200
,
0000
0030
0002
0000
,
0000
0000
0303
0000
,
2002
0000
3003
0000
,
0000
0000
0010
0010
,
0200
0000
0000
0300
,
0000
0002
0000
0000
,
2003
0000
0200
0000
,
3000
0020
0000
0000
,
0330
0002
0003
2000
,
3000
0010
0100
0001
,
1001
0100
0100
0000
,
1000
0100
0001
0100
,
2000
0000
0020
3030
,
0002
0000
0020
0033
,
0001
0100
0010
1000
,
0200
0310
0010
0002
,
0000
1003
0010
0100
,
0001
0010
0100
2000
,
3000
0000
2002
0000
,
0000
3003
0010
0100
,
0020
0000
0130
1000
,
0100
0001
0010
0100
,
0220
0330
2002
3003
,
0010
0001
1000
0100
,
2000
3000
0002
0003
,
0100
0010
1000
0001
,
0100
0000
0000
0000
,
0000
0000
0000
0000
,
0001
0001
0001
0001
,
1000
1000
0010
0010
,
0100
0100
0100
0100
,
0001
0001
0001
0001
,
0010
0010
0100
0100
,
1000
0100
0010
0000
,
0001
0100
0001
0100
,
1000
0100
0001
0100
,
1000
0100
1000
0100
,
0001
0100
1000
0100
,
0001
0010
1000
0010
,
1000
0010
0001
0010
,
0001
0100
1000
0100
,
0001
0010
1000
0100
,
0001
1000
0010
0100
,
1000
0100
0010
1000
,
0001
0010
0100
1000
,
0001
0010
1000
0010
,
0001
0100
0010
1000
,
0100
0001
0010
0100
,
1000
0100
0010
0001
,
1000
0010
0100
0001
,
1001
0000
0000
0000
;

//---------------dance-single - ----------------
#NOTEDATA:;
#CHARTNAME:;
#STEPSTYPE:dance-single;
#DESCRIPTION:;
#CHARTSTYLE:;
#DIFFICULTY:Beginner;
#METER:1;
#RADARVALUES:0.135287,0.190805,0.035074,0.063134,0.000000,135.000000,130.000000,5.000000,9.000000,0.000000,0.000000,0.000000,0.000000,0.000000,0.135287,0.190805,0.035074,0.063134,0.000000,135.000000,130.000000,5.000000,9.000000,0.000000,0.000000,0.000000,0.000000,0.000000;
#CREDIT:;
#OFFSET:-0.535000;
#BPMS:0.000000=120.000000
;
#STOPS:;
#DELAYS:;
#WARPS:;
#TIMESIGNATURES:0.000000=4=4
;
#TICKCOUNTS:0.000000=2
;
#COMBOS:0.000000=1
;
#SPEEDS:0.000000=1.000000=0.000000=0
;
#SCROLLS:0.000000=1.000000
;
#FAKES:;
#LABELS:0.000000=Song Start
;
#DISPLAYBPM:120.000000;
#NOTES:
0000
0000
0000
0000
,
0000
0000
0000
0000
,
0010
0000
1000
0000
,
0100
0000
0010
0000
,
0001
0000
0001
0000
,
0010
0000
0100
0000
,
1000
0000
0010
0000
,
0100
0000
0001
0000
,
0010
0000
0100
0000
,
1000
0000
0001
0000
,
0010
0000
0100
0000
,
1000
0000
0001
0000
,
0100
0000
0010
0000
,
1000
0000
0001
0000
,
0010
0000
0100
0000
,
1000
0000
0001
0000
,
1000
0000
0010
0000
,
0100
0000
0001
0000
,
0010
0000
0100
0000
,
1000
0000
0010
0000
,
0100
0000
0000
0000
,
0000
0000
0001
0001
,
0000
0000
0000
0000
,
0000
0000
0000
0000
,
1000
0000
0000
0000
,
0000
0000
0010
0010
,
0000
0000
0000
0000
,
0100
0100
0000
0100
,
0000
0001
0001
0001
,
0001
0001
0001
0002
,
0000
0000
0000
0000
,
0000
0000
0003
0000
,
0000
1000
1000
1000
,
1000
1000
1000
1000
,
0000
0010
0010
0010
,
0010
0010
0000
0000
,
1001
0000
0020
0000
,
0000
0000
0030
0000
,
0200
0000
0000
0300
,
0002
0003
2000
3000
,
0200
0000
0300
0000
,
0010
0010
0010
0020
,
0000
0000
0030
0000
,
0002
0003
2000
3000
,
1001
0000
0000
0000
,
0000
0000
0000
0000
,
0001
0000
0010
0000
,
0100
0000
1000
0000
,
0010
0000
0100
0000
,
0001
0000
0010
0000
,
0100
0000
0100
0000
,
0100
0000
0100
0100
,
0100
0000
1000
0000
,
0001
0000
0010
0000
,
0001
0000
0100
0000
,
0010
0000
1000
0000
,
1001
1001
0000
0010
,
0000
1000
0000
0010
,
0000
0001
0000
0010
,
0000
0100
0000
1000
,
1000
1000
0000
0001
,
0001
0001
0000
0100
,
0100
0100
0000
0010
,
0010
0000
1000
0000
,
0001
0001
0000
0010
,
0010
0010
0000
1000
,
1000
1000
0000
0010
,
0010
0000
0100
0000
,
1001
0000
0000
0000
;
