#VERSION:0.83;
#TITLE:Mambo;
#SUBTITLE:;
#ARTIST:Nikki Vianna;
#TITLETRANSLIT:;
#SUBTITLETRANSLIT:;
#ARTISTTRANSLIT:;
#GENRE:Mambo;
#ORIGIN:;
#CREDIT:[Ness];
#BANNER:Mambo-bn.png;
#BACKGROUND:Black.png;
#PREVIEWVID:Mambo-preview.avi;
#JACKET:Mambo-jacket.png;
#CDIMAGE:;
#DISCIMAGE:Mambo-bg.png;
#LYRICSPATH:;
#CDTITLE:;
#MUSIC:Mambo.mp3;
#OFFSET:-0.013000;
#SAMPLESTART:48.004936;
#SAMPLELENGTH:13.714287;
#SELECTABLE:YES;
#BPMS:0.000=140.000;
#STOPS:;
#DELAYS:;
#WARPS:;
#TIMESIGNATURES:0.000=4=4;
#TICKCOUNTS:0.000=2;
#COMBOS:0.000=1;
#SPEEDS:0.000=1.000=0.000=0;
#SCROLLS:0.000=1.000;
#FAKES:;
#LABELS:0.000=Song Start;
#LASTSECONDHINT:131.187805;
#BGCHANGES:-0.250=Mambo-video.avi=1.000=1=0=0=StretchNoLoop==CrossFade==,
99999=-nosongbg-=1.000=0=0=0 // don't automatically add -songbackground-
;
#KEYSOUNDS:;
#ATTACKS:
;

//---------------dance-single - ----------------
#NOTEDATA:;
#CHARTNAME:;
#STEPSTYPE:dance-single;
#DESCRIPTION:;
#CHARTSTYLE:;
#DIFFICULTY:Challenge;
#METER:9;
#RADARVALUES:0.583104,0.602320,0.492230,0.340775,0.261261,539.000000,462.000000,65.000000,45.000000,100.000000,20.000000,0.000000,0.000000,0.000000,0.583104,0.602320,0.492230,0.340775,0.261261,539.000000,462.000000,65.000000,45.000000,100.000000,20.000000,0.000000,0.000000,0.000000;
#CREDIT:;
#NOTES:
// measure 0
0000
0000
0000
0000
,  // measure 1
0000
0000
0000
0000
,  // measure 2
0000
0000
0000
0000
,  // measure 3
0000
0000
0000
0000
,  // measure 4
0001
0100
0002
1000
0000
0000
0013
0000
,  // measure 5
2100
0000
3010
1000
0100
0000
1000
0010
,  // measure 6
0001
0010
2000
0001
0000
3001
0100
0000
,  // measure 7
0201
0000
0300
0010
0000
0010
1000
0000
,  // measure 8
1100
0000
0001
1000
0100
0000
0010
0000
,  // measure 9
0001
0100
1000
0100
0001
0000
1000
0010
,  // measure 10
0100
0001
2000
0100
0000
3100
0010
0001
,  // measure 11
0100
0000
0000
0000
0000
0000
0010
0000
0000
0000
0010
0000
1000
0001
1000
0001
,  // measure 12
0100
0000
0000
0100
0001
0000
1000
0000
0100
0000
0000
0100
0010
0000
0001
0000
,  // measure 13
1000
0000
0010
0000
1010
0000
0000
0010
1000
0000
0001
0000
1001
0000
0000
0001
,  // measure 14
0010
0000
0000
0010
0001
0000
1000
0000
0100
0000
0000
0100
0010
0000
0001
0000
,  // measure 15
0100
0000
0010
0000
1001
0000
0000
0100
0001
0000
1000
0000
0210
0000
0000
0000
,  // measure 16
1300
0000
0000
0000
0001
0000
0010
0000
1000
0000
0000
1000
0001
0000
1000
0000
,  // measure 17
0100
0000
0010
0000
0001
0000
0100
0000
0010
0000
0000
0010
1000
0000
0100
0000
,  // measure 18
0010
0000
0000
0001
1000
0000
0001
0000
0000
0000
0110
0000
0001
0000
1000
0001
,  // measure 19
0100
0000
0000
0010
1000
0000
0100
0000
0000
0000
0010
0000
0001
1000
0010
0100
,  // measure 20
0002
0020
1033
MMMM
,  // measure 21
0200
0000
1300
0001
0100
0001
1000
0010
,  // measure 22
0200
0020
0331
MMMM
,  // measure 23
0020
0000
1030
0001
0100
0010
1000
0000
,  // measure 24
2200
0000
0000
0010
0001
0000
0000
0001
3310
0000
0000
0010
0001
0000
0000
0001
,  // measure 25
1000
0000
1000
0000
0010
0000
0010
0000
0100
0000
0100
0000
0001
1000
0010
0100
,  // measure 26
0002
0000
1000
1000
1000
2003
0100
0100
,  // measure 27
0100
0000
0000
3200
0000
0000
0010
0000
0000
0010
0000
0000
0310
0000
0100
0000
0010
0000
1001
0000
0000
0000
0000
0000
,  // measure 28
MMMM
1110
0111
MMMM
,  // measure 29
2010
0000
3001
1200
1000
0310
0100
0000
,  // measure 30
MMMM
1011
1101
MMMM
,  // measure 31
0201
0000
1300
0120
0001
0130
0010
0000
,  // measure 32
MMMM
0111
1011
MMMM
,  // measure 33
1002
0000
0000
0000
0103
0000
0110
0000
1000
0000
0010
0000
0001
0100
0010
1000
,  // measure 34
1001
0000
0000
0000
M00M
0000
M10M
0000
M00M
0100
M00M
0000
M01M
0000
M00M
0010
M00M
0000
M10M
0000
M00M
0100
0000
0000
,  // measure 35
0001
0010
1000
0100
0010
0100
1001
0000
,  // measure 36
0210
0000
0000
0010
0000
0301
1000
0000
,  // measure 37
1001
0000
0010
0001
0100
0000
0100
0010
,  // measure 38
1001
1000
0010
0001
0000
0001
0010
1000
,  // measure 39
0200
0000
0010
1000
0000
0010
1300
0000
,  // measure 40
1100
0000
0001
1000
0020
0000
0001
0000
,  // measure 41
1030
0100
2000
0001
0000
3001
0010
0100
,  // measure 42
1000
0010
0100
0001
0000
0001
0100
0010
,  // measure 43
1000
0000
0000
1000
0010
0000
0100
0000
0001
0000
0100
0000
0100
0001
0100
0001
,  // measure 44
0010
0000
2100
0100
3001
0000
2100
0100
,  // measure 45
3001
0100
0101
0000
0001
0010
1100
0000
,  // measure 46
0100
0000
0012
0010
1003
0000
1010
0100
,  // measure 47
0010
0100
0011
0000
1000
0001
0110
0000
,  // measure 48
0101
0000
0001
1000
0010
0000
1001
0000
,  // measure 49
0100
0010
0200
1000
0000
1300
0100
0010
,  // measure 50
1000
0000
0000
1000
0010
0000
0100
0000
0000
0000
0001
0000
0100
0000
0010
1000
,  // measure 51
0100
0000
0000
0010
0001
0000
1000
0000
0010
0100
0001
0010
0100
1000
0010
0100
,  // measure 52
0002
0020
0133
MMMM
,  // measure 53
0020
0000
0130
0001
0010
0100
1000
0001
,  // measure 54
0200
0020
1330
MMMM
,  // measure 55
0200
0000
0310
0001
1000
0010
0100
0001
,  // measure 56
1001
0000
0000
0100
0010
0000
0000
1000
0001
0000
0000
0010
0100
0000
0000
0001
,  // measure 57
1000
0000
0010
0000
0100
0000
0001
0000
0010
0000
0100
0000
1000
0010
0100
0001
,  // measure 58
0020
0000
0001
0001
0001
0032
0100
0100
,  // measure 59
0100
0000
0000
0203
0000
0000
0010
0000
0000
0010
0000
0000
0310
0000
0100
0000
0010
0000
1001
0000
0000
0000
0000
0000
,  // measure 60
MMMM
1101
1110
MMMM
,  // measure 61
0210
0000
1300
0201
0001
0310
0100
0000
,  // measure 62
MMMM
1011
0111
MMMM
,  // measure 63
0102
0000
0013
2001
0100
3001
1000
0000
,  // measure 64
MMMM
1110
1011
MMMM
,  // measure 65
2001
0000
0000
0000
3100
0000
0110
0000
0001
0000
0010
0000
1000
0100
0010
0001
,  // measure 66
1002
0000
1003
0001
1000
0001
0100
1000
,  // measure 67
0010
0001
0100
1000
0010
0001
1100
0000
,  // measure 68
0011
0000
0000
0010
1000
0000
0000
1000
0100
0000
0000
0100
0001
0000
0000
0000
,  // measure 69
0011
0000
1000
0101
1000
0100
0010
0001
,  // measure 70
1100
0000
0000
0100
0001
0000
0000
0001
0010
0000
0000
0010
1000
0000
0000
0000
,  // measure 71
0101
0000
0010
0110
0001
1000
0010
0100
,  // measure 72
0101
0000
0000
0100
1000
0000
0000
1000
0010
0000
0000
0010
0001
0000
0000
0000
,  // measure 73
1001
0000
0000
0000
0100
0000
1001
0000
0100
0000
0001
0000
1000
0100
0010
0001
,  // measure 74
1001
0000
0000
0000
M00M
0000
M10M
0000
M00M
0100
M00M
0000
M01M
0000
M00M
0010
M00M
0000
M10M
0000
M00M
0100
0000
0000
,  // measure 75
1000
0010
0001
0100
0010
1000
0101
0000
;

//---------------dance-single - ----------------
#NOTEDATA:;
#CHARTNAME:;
#STEPSTYPE:dance-single;
#DESCRIPTION:;
#CHARTSTYLE:;
#DIFFICULTY:Hard;
#METER:7;
#RADARVALUES:0.455448,0.487592,0.340775,0.295338,0.000000,421.000000,376.000000,45.000000,39.000000,0.000000,0.000000,0.000000,0.000000,0.000000,0.455448,0.487592,0.340775,0.295338,0.000000,421.000000,376.000000,45.000000,39.000000,0.000000,0.000000,0.000000,0.000000,0.000000;
#CREDIT:;
#NOTES:
0000
0000
0000
0000
,
0000
0000
0000
0000
,
0000
0000
0000
0000
,
0000
0000
0000
0000
,
1000
0001
2000
0000
0000
0000
0010
0000
,
3001
0000
0100
0010
0100
0000
0001
1000
,
0010
0100
0002
0000
0000
0000
0010
0000
,
2000
3003
0000
0110
,
1001
0000
1000
0100
2000
0000
0000
0000
,
3001
0010
0100
1000
0001
0000
1000
0010
,
0100
0010
2000
0000
0000
0000
0100
0000
,
0002
3003
0000
0100
,
1100
0000
1000
0010
0100
0000
0110
0000
,
0001
1000
0010
0000
0010
0100
0001
0000
,
0010
0000
0001
1000
0100
0000
1100
0000
,
0100
0010
0001
0000
0001
1000
0020
0000
,
0130
0000
0001
0100
0010
0000
1010
0000
,
0100
0010
0100
0001
1000
0000
0010
0100
,
0001
0010
0100
0000
0000
0000
1100
0000
,
0011
0000
1000
0010
0100
0001
0010
0000
,
0210
0001
1300
0000
,
0010
0000
0100
0001
1000
0001
1000
0010
,
0200
1000
0301
0000
,
0010
0000
1000
0010
0100
0001
1000
0100
,
0020
1000
0031
0000
,
1000
0000
0001
1000
0010
0100
0001
1000
,
0100
0000
0010
0100
0010
0100
0010
0100
,
1000
0001
1000
0001
1000
0001
0100
0000
,
1001
1010
0110
0001
,
0202
0000
0303
1001
0000
1000
0010
0100
,
0001
0011
1100
0100
,
2002
0000
3003
0011
0000
0001
0100
0010
,
1000
0110
2002
3003
,
0010
0000
1000
0001
0100
0010
1000
0100
,
0110
0000
0001
0100
1000
0100
0001
0100
,
0010
0100
0010
0100
0001
1000
0100
0000
,
1000
0001
2000
0000
0000
0000
0010
0000
,
3100
0000
0001
0010
0100
0000
0010
0001
,
0100
0001
0020
0000
0000
0000
0001
0000
,
0130
0000
1000
0100
0000
0001
0200
0000
,
0310
0000
1000
0100
0010
0000
0001
0000
,
0100
0010
0200
0000
0000
0000
0301
1000
,
0100
0010
0200
0000
0000
0000
1300
0000
,
0001
0000
1000
0010
0100
0000
0110
0000
,
1001
0000
0001
1000
0100
0000
0110
0000
,
0010
0001
1000
0000
0010
0100
0001
0000
,
1000
0000
0010
1000
0001
0000
0011
0000
,
0001
0010
1000
0000
0100
1000
0002
0000
,
0103
0000
0010
1000
0100
0000
0011
0000
,
0100
0010
0200
0000
0000
0000
1300
0010
,
0100
0001
0020
0000
0030
0000
0101
0000
,
1010
0000
0001
0010
0100
1000
0001
0000
,
1002
0100
0013
0000
,
1000
0000
0001
0100
0010
1000
0010
0100
,
0002
1000
0103
0000
,
0001
0000
0010
0001
1000
0100
0010
0001
,
2000
0010
3100
0000
,
0001
0000
1000
0010
1000
0001
0100
0010
,
1000
0000
0100
0010
0100
0010
0100
0010
,
0001
1000
0001
1000
0001
1000
0100
0000
,
1001
0101
1100
0010
,
0022
0000
0033
1001
0000
0001
1000
0010
,
0100
1010
0101
0100
,
0220
0000
0330
1001
0000
0010
1000
0001
,
0010
0011
2200
3300
,
0100
0000
0001
1000
0100
0010
0001
0100
,
0110
0000
0010
1000
0100
1000
0010
1000
,
0001
0100
0010
0100
0001
0010
0100
0000
,
2100
0010
3100
1100
,
0200
0000
0301
0100
1000
0100
0001
0100
,
0020
0001
0130
0110
,
2000
0000
3010
1000
0001
1000
0010
1000
,
0002
0010
0103
0101
,
0200
0000
0301
0100
1000
0001
0010
1000
,
0100
0000
0010
0100
0010
0100
0010
0100
,
1000
0001
0100
0010
1000
0001
1000
0000
;

//---------------dance-single - ----------------
#NOTEDATA:;
#CHARTNAME:;
#STEPSTYPE:dance-single;
#DESCRIPTION:;
#CHARTSTYLE:;
#DIFFICULTY:Medium;
#METER:6;
#RADARVALUES:0.358084,0.458153,0.159028,0.113592,0.000000,331.000000,310.000000,21.000000,15.000000,0.000000,0.000000,0.000000,0.000000,0.000000,0.358084,0.458153,0.159028,0.113592,0.000000,331.000000,310.000000,21.000000,15.000000,0.000000,0.000000,0.000000,0.000000,0.000000;
#CREDIT:;
#NOTES:
0000
0000
0000
0000
,
0000
0000
0000
0000
,
0000
0000
0000
0000
,
0000
0000
0000
0000
,
0010
0000
0000
0010
0000
0000
1000
0000
,
0001
0000
0010
0100
0010
0000
0100
0000
,
1000
0000
0000
1000
0000
0000
0001
0000
,
0100
0000
0000
0100
0000
0000
0010
0000
,
1000
0000
0000
0100
0000
0000
0010
0000
,
0001
0000
1000
0001
1000
0000
0010
0000
,
0100
0000
0000
0100
0000
0000
0001
0000
,
0010
0000
0000
0100
0000
0000
1000
0000
,
0001
1001
0010
0100
,
1000
0100
1000
0000
0001
0100
0001
0000
,
1000
1001
0010
0100
,
0001
0010
0001
0000
1000
0010
1000
0000
,
0001
0110
1000
0100
,
0001
1000
0001
0000
0100
0010
0100
0000
,
0001
0010
0100
1000
,
0010
0100
0010
0000
1000
0001
1000
0000
,
2010
0001
3010
0000
,
0100
0001
0010
0100
,
0010
0012
1003
0000
,
0100
0010
0100
1000
,
0001
2001
3010
0000
,
0100
0001
0010
0100
,
1000
0000
0001
1000
0001
1000
0001
1000
,
0001
0010
0110
1001
,
0200
1000
0310
0000
,
0001
0000
1000
0010
0100
0000
0001
0000
,
0020
0001
1030
0000
,
0100
0000
0010
1000
0001
0000
0010
0000
,
0200
0001
1300
0000
,
0010
0000
1000
0100
0010
0000
0001
0000
,
0100
0100
0010
0010
,
1000
0001
1000
0001
1000
0001
1000
0000
,
0010
0000
0000
0010
0000
0000
0100
0000
,
0001
0000
0010
0100
0010
0000
0100
0000
,
1000
0000
0001
1000
0000
0000
0010
0000
,
0100
0000
0001
0010
0000
0000
0100
0000
,
1000
0000
0001
0100
0000
0000
0010
0000
,
1000
0000
0010
0100
0000
0000
0001
0000
,
0010
0000
0100
1000
0000
0000
0001
0000
,
0010
0000
0001
1000
0000
0000
0010
0000
,
0100
0110
0001
1000
,
0010
1000
0010
0000
0100
0001
0100
0000
,
0010
1001
0001
1000
,
0100
0010
0100
0000
0010
0001
0100
0000
,
0010
1001
0010
1000
,
0100
0010
0100
0000
1000
0000
0001
0000
,
0100
0010
1000
0100
,
0010
0001
1000
0000
0010
0100
0010
0000
,
2100
0001
3100
0000
,
0010
0001
1000
0010
,
0100
1002
0013
0000
,
0100
1000
0001
0100
,
0010
0120
1030
0000
,
0100
0001
1000
0010
,
0100
0000
0001
1000
0001
1000
0001
1000
,
0001
0010
0110
1001
,
0200
1000
0301
0000
,
0100
0000
0010
1000
0001
0000
0010
0000
,
0200
0001
0310
0000
,
0100
0000
1000
0010
0100
0000
0001
0000
,
0020
1000
0130
0000
,
0010
0000
0001
0100
0010
0000
1000
0000
,
0100
0010
0001
1000
,
0010
0100
0010
0100
0010
0100
0010
0000
,
2001
0010
3001
0000
,
0010
0000
0100
1000
0001
0000
0100
0000
,
1002
0010
1003
0000
,
0010
0000
0100
1000
0001
0000
0100
0000
,
0210
0001
0310
0000
,
1000
0000
0001
0010
0100
0000
1100
0000
,
1001
0000
1000
0001
1000
0001
1000
0001
,
1000
0001
1000
0001
1000
0001
0000
0000
;

//---------------dance-single - ----------------
#NOTEDATA:;
#CHARTNAME:;
#STEPSTYPE:dance-single;
#DESCRIPTION:;
#CHARTSTYLE:;
#DIFFICULTY:Easy;
#METER:4;
#RADARVALUES:0.273702,0.344183,0.204465,0.053009,0.000000,253.000000,226.000000,27.000000,7.000000,0.000000,0.000000,0.000000,0.000000,0.000000,0.273702,0.344183,0.204465,0.053009,0.000000,253.000000,226.000000,27.000000,7.000000,0.000000,0.000000,0.000000,0.000000,0.000000;
#CREDIT:;
#NOTES:
0000
0000
0000
0000
,
0000
0000
0000
0000
,
0000
0000
0000
0000
,
0000
0000
0000
0000
,
0010
0000
1000
0000
,
0001
0000
0010
0000
,
0100
0000
1000
0001
,
1000
0000
0000
0020
,
0130
0000
0001
0000
,
1000
0000
0100
0010
,
0100
0000
1000
0000
,
0001
0000
0000
0100
,
0010
1000
0100
0000
,
0010
0001
1000
0001
,
0010
0100
0010
0000
,
0001
1000
0010
0100
,
0001
0010
1000
0000
,
1000
0010
0001
0000
,
1000
0001
0100
0000
,
0010
1000
0100
0000
,
0020
0100
0130
0000
,
1000
0000
0001
0000
,
0200
0010
0310
0000
,
1000
0000
0001
0000
,
0020
0100
0130
0000
,
0010
0000
0001
0000
,
1000
0001
1000
0001
,
1000
0001
1000
0001
,
1001
0110
1001
0000
,
1000
0001
0100
0010
,
0110
1001
0110
0000
,
0001
1000
0010
0100
,
1001
0110
1001
0000
,
0010
0001
0100
1000
,
0010
0100
0010
0100
,
0001
1000
0100
0000
,
0010
0000
0010
0000
,
0001
0000
1000
0001
,
0100
0010
0000
0010
,
0100
0001
0000
0001
,
0010
1000
0000
1000
,
0010
0001
0000
1000
,
0001
0100
0000
0001
,
0010
0100
0000
1000
,
0001
1000
0100
0000
,
0010
0001
0100
1000
,
0100
0010
0100
0000
,
0010
0001
1000
0001
,
0100
0010
1000
0000
,
0010
0100
0000
0001
,
0010
0100
0000
1000
,
0100
0010
0001
0000
,
2000
0010
3010
0000
,
0001
0000
1000
0000
,
0002
0100
0103
0000
,
1000
0000
0001
0000
,
2000
0100
3100
0000
,
0010
0001
1000
0010
,
0100
0010
0100
0010
,
1000
0001
0100
0010
,
1001
0110
1001
0000
,
0001
1000
0100
1000
,
1001
0110
1001
0000
,
0010
0001
1000
0001
,
0110
1001
0110
0000
,
0010
0100
1000
0001
,
0100
0010
0100
0010
,
1000
0100
0001
0000
,
1100
1001
1100
0000
,
1000
0100
0010
0001
,
0011
1001
0011
0000
,
0001
0100
0010
1000
,
1010
1001
1010
0000
,
1000
0100
0001
0010
,
0100
1000
0010
0001
,
0100
1000
0010
0001
;

//---------------dance-single - ----------------
#NOTEDATA:;
#CHARTNAME:;
#STEPSTYPE:dance-single;
#DESCRIPTION:;
#CHARTSTYLE:;
#DIFFICULTY:Beginner;
#METER:1;
#RADARVALUES:0.178501,0.258137,0.068155,0.045437,0.000000,165.000000,156.000000,9.000000,6.000000,0.000000,0.000000,0.000000,0.000000,0.000000,0.178501,0.258137,0.068155,0.045437,0.000000,165.000000,156.000000,9.000000,6.000000,0.000000,0.000000,0.000000,0.000000,0.000000;
#CREDIT:;
#NOTES:
0000
0000
0000
0000
,
0000
0000
0000
0000
,
0000
0000
0000
0000
,
0000
0000
0000
0000
,
0001
0000
0000
1000
,
1000
0000
0000
0100
,
0100
0000
0000
0010
,
0010
0000
0000
0001
,
0001
0000
0000
1000
,
1000
0000
0000
0100
,
0100
0000
0000
0010
,
0010
0000
0000
0001
,
0000
0001
0000
0001
,
0000
1000
0000
1000
,
0000
0010
0000
0010
,
0000
0100
0000
0100
,
0000
0001
0000
0001
,
0000
1000
0000
1000
,
0000
0100
0000
0100
,
0000
0010
0000
0000
,
0001
0001
0001
0000
,
1000
0000
0000
0000
,
0100
0100
0100
0000
,
0010
0000
0000
0000
,
0001
0001
0001
0000
,
1000
0000
0010
0000
,
0100
0000
0001
0000
,
0010
0000
0100
0000
,
1000
1000
1000
0000
,
0010
0000
0100
0000
,
0010
0010
0010
0000
,
1000
0000
0001
0000
,
0010
0010
0010
0000
,
0001
0000
0100
0000
,
1000
0000
0001
0000
,
1000
0000
0001
0000
,
0100
0000
0000
0010
,
0010
0000
0000
1000
,
1000
0000
0000
0001
,
0001
0000
0000
0010
,
0010
0000
0000
0100
,
0100
0000
0000
1000
,
1000
0000
0000
0001
,
0001
0000
0000
0100
,
0000
0010
0000
0100
,
0000
0010
0000
1000
,
0000
0001
0000
1000
,
0000
0001
0000
0010
,
0010
0010
0000
0100
,
0000
0010
0000
0100
,
0000
1000
0000
0001
,
0000
0100
0000
0000
,
0010
0010
0010
0000
,
1000
0000
0001
0000
,
0100
0100
0100
0000
,
0001
0000
1000
0000
,
0100
0100
0100
0000
,
0010
0000
0001
0000
,
0100
0000
1000
0000
,
0010
0000
0100
0000
,
0001
0001
0001
0000
,
1000
0000
0001
0000
,
0010
0010
0010
0000
,
0100
0000
0010
0000
,
0001
0001
0001
0000
,
1000
0000
0001
0000
,
0100
0000
0010
0000
,
1000
0000
0001
0000
,
1001
1001
2002
3003
,
0000
0000
0000
0000
,
0110
0110
0220
0330
,
0000
0000
0000
0000
,
1001
1001
2002
3003
,
0100
0000
0010
0000
,
0100
0100
0100
0100
,
0100
0100
0100
0100
;

//---------------dance-double - ----------------
#NOTEDATA:;
#CHARTNAME:;
#STEPSTYPE:dance-double;
#DESCRIPTION:;
#CHARTSTYLE:;
#DIFFICULTY:Challenge;
#METER:9;
#RADARVALUES:0.556058,0.602320,0.461939,0.333202,0.159028,514.000000,441.000000,61.000000,44.000000,176.000000,16.000000,0.000000,0.000000,0.000000,0.556058,0.602320,0.461939,0.333202,0.159028,514.000000,441.000000,61.000000,44.000000,176.000000,16.000000,0.000000,0.000000,0.000000;
#CREDIT:;
#NOTES:
00000000
00000000
00000000
00000000
,
00000000
00000000
00000000
00000000
,
00000000
00000000
00000000
00000000
,
00000000
00000000
00000000
00000000
,
00000100
00010000
00002000
00010000
00000000
00003000
00100000
00000000
,
01020000
00000000
00130000
00010000
01000000
00000000
00100000
10000000
,
00010000
01000000
00200000
10000000
00000000
10300000
01000000
00000000
,
02100000
00000000
03000000
00100000
00000000
00100000
00001000
00000000
,
00011000
00000000
00000010
00000100
00000001
00000000
00000010
00000000
,
00000001
00001000
00000010
00001000
00000100
00000000
00000010
00000100
,
00010000
00001000
00020000
01000000
00000000
01030000
00100000
00010000
,
01000000
00000000
00000000
00000000
00000000
00000000
00001000
00000000
00000000
00000000
00001000
00000000
00010000
00001000
00010000
00001000
,
01000000
00000000
00000000
01000000
00100000
00000000
10000000
00000000
00010000
00000000
00000000
00010000
00100000
00000000
00001000
00000000
,
00000100
00000000
00000010
00000000
00000110
00000000
00000000
00000010
00000001
00000000
00001000
00000000
00001001
00000000
00000000
00000001
,
00000100
00000000
00000000
00000100
00000010
00000000
00010000
00000000
00001000
00000000
00000000
00100000
00010000
00000000
00100000
00000000
,
01000000
00000000
10000000
00000000
10010000
00000000
00000000
01000000
00010000
00000000
10000000
00000000
02100000
00000000
00000000
00000000
,
13000000
00000000
00000000
00000000
00010000
00000000
01000000
00000000
00100000
00000000
00000000
01000000
00001000
00000000
00010000
00000000
,
00001000
00000000
00000100
00000000
00000010
00000000
00001000
00000000
00000100
00000000
00000000
00000100
00010000
00000000
00001000
00000000
,
01000000
00000000
00000000
00100000
10000000
00000000
00010000
00000000
00000000
00000000
00110000
00000000
00001000
00000000
00010000
00001000
,
00010000
00000000
00000000
00000010
00000100
00000000
00000001
00000000
00000000
00000000
00000010
00000000
00000100
00001000
00000001
00000010
,
00000200
00000020
00001331
MMMMMMMM
,
00000200
00000000
00001300
00000010
00000100
00000001
00001000
00000100
,
00020000
00002000
01033100
MMMMMMMM
,
00200000
00000000
10300000
00010000
01000000
00100000
10000000
01000000
,
00100000
00000000
00000000
00100000
00001000
00000000
00000000
00001000
00010000
00000000
00000000
00010000
00000010
00000000
00000000
00000010
,
00000100
00000000
00000100
00000000
00000001
00000000
00000001
00000000
00001000
00000000
00001000
00000000
00000100
00010000
00001000
01000000
,
00200000
00000000
10000000
10000000
10300000
20000000
01000000
01000000
,
01000000
00000000
00000000
32000000
00000000
00000000
00100000
00000000
00000000
00100000
00000000
00000000
03100000
00000000
00001000
00000000
00010000
00000000
00011000
00000000
00000000
00000000
00000000
00000000
,
MMMMMMMM
00001110
00000111
MMMMMMMM
,
00002010
00000000
00003001
00001200
00001000
00000310
00000100
00000000
,
MMMMMMMM
00110010
00111000
MMMMMMMM
,
00021000
00000000
00031000
01002000
00010000
01003000
00100000
00000000
,
MMMMMMMM
01110000
10110000
MMMMMMMM
,
10020000
00000000
01030000
01100000
01000000
00001000
00000010
00000001
,
00000100
00000000
00000001
00000001
00001000
00001000
00000010
00000010
,
00000100
00000001
00000010
00001000
00010000
00100000
10000000
00000000
,
02100000
00000000
00000000
03010000
00000000
10000000
00100000
00000000
,
10010000
00000000
00100000
00001000
01000000
00000000
01000000
00001000
,
00010000
00000100
00000010
00000001
00000000
00000001
00000010
00000100
,
00010000
00001000
01000000
00100000
00000000
10000000
01000000
00000000
,
11000000
00000000
00010000
10000000
00200000
00000000
00010000
00000000
,
10300000
01000000
00010000
00001000
00000000
00010000
00001000
00000010
,
00000001
00000010
00001000
00010000
00000000
01000000
10000000
00010000
,
01000000
00000000
00000000
00100000
10000000
00000000
00010000
00000000
00100000
00000000
01000000
00000000
10000000
00010000
10000000
00010000
,
00100000
00000000
00210000
00001000
00310000
00000000
00210000
00001000
,
00310000
00100000
01100000
00000000
00010000
00100000
01001000
00000000
,
01000000
00000000
00102000
00010000
00103000
00000000
00102000
00010000
,
00103000
00001000
00011000
00000000
00000010
00000100
00000110
00000000
,
00001001
00000000
00000001
00000100
00000010
00000000
00001001
00000000
,
00001000
00000100
00000020
00000001
00000000
00000031
00000010
00000100
,
00010000
00000000
00000000
00001000
00010000
00000000
01000000
00000000
00000000
00000000
00100000
00000000
00010000
00000000
01000000
00100000
,
10000000
00000000
00000000
00010000
00100000
00000000
01000000
00000000
00100000
00001000
00010000
00000010
00001000
00000100
00001000
00000001
,
00002000
00000200
00003310
MMMMMMMM
,
00000002
00000000
00000103
00000001
00001000
00000100
00010000
00001000
,
00200000
00002000
00313010
MMMMMMMM
,
02000000
00000000
03001000
01000000
00100000
10000000
01000000
00100000
,
10010000
00000000
00000000
00010000
00100000
00000000
00000000
01000000
10000000
00000000
00000000
00100000
01000000
00000000
00000000
00010000
,
00100000
00000000
00001000
00000000
00010000
00000000
00000100
00000000
00000010
00000000
00000001
00000000
00000100
00000010
00001000
00000001
,
00000200
00000000
00000010
00000010
00000010
00000320
00010000
00010000
,
00010000
00000000
00000000
00020030
00000000
00000000
01000000
00000000
00000000
01000000
00000000
00000000
01030000
00000000
00100000
00000000
01000000
00000000
10010000
00000000
00000000
00000000
00000000
00000000
,
MMMMMMMM
11010000
11100000
MMMMMMMM
,
02100000
00000000
13000000
02010000
00010000
03100000
00010000
00000000
,
MMMMMMMM
00110010
00101010
MMMMMMMM
,
00000102
00000000
00000013
00002001
00000100
00003001
00001000
00000000
,
MMMMMMMM
00001110
00001011
MMMMMMMM
,
00001002
00000000
00000103
00000110
00000001
00000010
00001000
00010000
,
00200000
00000000
10300000
01000000
00010000
00001000
00000010
00000001
,
00000100
00001000
00010000
00100000
10000000
00010000
10000000
00000000
,
MMMMMMMM
00000011
00001100
MMMMMMMM
,
00011000
00000000
00100000
00000010
00010000
00000100
00010000
00000000
,
MMMMMMMM
11000000
10100000
MMMMMMMM
,
00011000
00000000
00000100
01000000
00001000
00100000
00010000
00000000
,
MMMMMMMM
00000011
00010010
MMMMMMMM
,
20010000
00000000
31000000
01100000
10000000
00100000
00010000
00001000
,
00000020
00000000
00000031
00000100
00001000
00010000
00100000
10000000
,
01000000
00010000
00001000
00000010
00000001
00001000
00000001
00000000
;

//---------------dance-double - ----------------
#NOTEDATA:;
#CHARTNAME:;
#STEPSTYPE:dance-double;
#DESCRIPTION:;
#CHARTSTYLE:;
#DIFFICULTY:Hard;
#METER:7;
#RADARVALUES:0.471676,0.486787,0.477085,0.249902,0.000000,436.000000,373.000000,63.000000,33.000000,0.000000,0.000000,0.000000,0.000000,0.000000,0.471676,0.486787,0.477085,0.249902,0.000000,436.000000,373.000000,63.000000,33.000000,0.000000,0.000000,0.000000,0.000000,0.000000;
#CREDIT:;
#NOTES:
00000000
00000000
00000000
00000000
,
00000000
00000000
00000000
00000000
,
00000000
00000000
00000000
00000000
,
00000000
00000000
00000000
00000000
,
10000000
00010000
10000000
00000000
00000000
00000000
00002000
00000000
,
01003000
00000000
00001000
00010000
00000100
00000000
00000010
00000001
,
00000100
00000010
00000200
00000000
00000000
00000000
00001000
00000000
,
00000020
00000330
00000000
00011000
,
00110000
00000000
01000000
10000000
00020000
00000000
00000000
00000000
,
01030000
00100000
10000000
00010000
00100000
00000000
00001000
00010000
,
00000100
00000010
00000200
00000000
00000000
00000000
00010000
00000000
,
00002000
00003300
00000000
00011000
,
00110000
00000000
10000000
00100000
01000000
00000000
01100000
00000000
,
00010000
01000000
00001000
00000000
00010000
00000100
00001000
00000000
,
00000010
00000000
00000100
00000001
00000010
00000000
00000110
00000000
,
00001000
00000001
00000100
00000000
00000010
00001000
00000100
00000000
,
00010000
00000000
00001000
01000000
00100000
00000000
11000000
00000000
,
00100000
00001000
01000000
00100000
10000000
00000000
00100000
01000000
,
00001000
00010000
00001000
00000000
00000000
00000000
00011000
00000000
,
00001010
00000000
00000100
00000001
00001000
00000100
00000010
00000000
,
00000210
00000001
00001300
00000000
,
00000100
00000000
00010000
00001000
01000000
00010000
10000000
00010000
,
00200000
10000000
00310000
00000000
,
01000000
00000000
00100000
10000000
00010000
00100000
00001000
00010000
,
00000020
00000001
00001030
00000000
,
00000200
00000000
00000301
00000010
00001000
00000100
00010000
00001000
,
00010000
00000000
01000000
00100000
01000000
00100000
00010000
10000000
,
00010000
10000000
00100000
01000000
00001000
00010000
00001000
00000000
,
00011000
00110000
10100000
11000000
,
02020000
00000000
03030000
10010000
00000000
10000000
00100000
01000000
,
00010000
00110000
00010010
00000011
,
00000202
00000000
00000303
00001001
00000000
00000001
00000100
00000010
,
00001000
00001010
00101000
01010000
,
11000000
00000000
10000000
01000000
00010000
00100000
10000000
01000000
,
00010000
00000000
00001000
00000100
00000001
00000100
00000010
00001000
,
00000100
00010000
00001000
01000000
00100000
10000000
01000000
00000000
,
10000000
00010000
20000000
00000000
00000000
00000000
00100000
00000000
,
31000000
00000000
00010000
00100000
00001000
00000000
00010000
00000100
,
00000010
00000100
00002000
00000000
00000000
00000000
00000010
00000000
,
00003001
00000000
00001000
00000100
00000000
00000001
00000200
00000000
,
00000310
00000000
00001000
00000100
00010000
00000000
00001000
00000000
,
01000000
00100000
02000000
00000000
00000000
00000000
03010000
10000000
,
00100000
01000000
00200000
00000000
00000000
00000000
00310000
00000000
,
00001000
00000000
00000100
00000010
00000100
00000000
00000110
00000000
,
00001001
00000000
00000001
00000010
00001000
00000000
00011000
00000000
,
01000000
00010000
10000000
00000000
00100000
01000000
00010000
00000000
,
00100000
00000000
00010000
00000100
00000010
00000000
00000011
00000000
,
00000001
00000100
00001000
00000000
00010000
00100000
02000000
00000000
,
03100000
00000000
00100000
10000000
01000000
00000000
00110000
00000000
,
01000000
00100000
02000000
00000000
00000000
00000000
13000000
00010000
,
01000000
00100000
02000000
00000000
03000000
00000000
10010000
00000000
,
00110000
00000000
00001000
00010000
00000100
00000010
00000100
00000000
,
00001002
00000100
00000013
00000000
,
00000001
00000000
00000100
00000010
00001000
00000001
00000100
00000010
,
00020000
00100000
00031000
00000000
,
00100000
00000000
01000000
10000000
00010000
00100000
01000000
10000000
,
00200000
00010000
01300000
00000000
,
00100000
00000000
01000000
00001000
00010000
00000100
00000010
00000100
,
00001000
00000000
00000001
00001000
00000001
00001000
00000010
00000100
,
00000010
00000100
00000001
00000010
00000100
00010000
00001000
00000000
,
10010000
01010000
11000000
00110000
,
00020020
00000000
00030030
00011000
00000000
00010000
00000100
00000010
,
00000001
00000101
00001100
00011000
,
02200000
00000000
03300000
10010000
00000000
00100000
10000000
00010000
,
00100000
00110000
00010010
00000011
,
00001100
00000000
00001000
01000000
00010000
10000000
00100000
01000000
,
00010000
00000000
00100000
00001000
01000000
00001000
00100000
01000000
,
10000000
00100000
01000000
00001000
00010000
00000010
00000100
00000000
,
00001001
00000101
00001100
00010010
,
00202000
00000000
00303000
00011000
00000000
00001000
00100000
01000000
,
10000000
01010000
00011000
00001010
,
00000022
00000000
00000033
00001001
00000000
00000100
00010000
00001000
,
00100000
00110000
10100000
11000000
,
01001000
00000000
00010000
00000100
00000010
00000001
00000100
00001000
,
00010000
00000000
00000010
00010000
00000100
00010000
00000010
00000100
,
00000001
00000010
00001000
00010000
01000000
10000000
00000000
00000000
;

//---------------dance-double - ----------------
#NOTEDATA:;
#CHARTNAME:;
#STEPSTYPE:dance-double;
#DESCRIPTION:;
#CHARTSTYLE:;
#DIFFICULTY:Medium;
#METER:6;
#RADARVALUES:0.357002,0.458153,0.174174,0.113592,0.000000,330.000000,307.000000,23.000000,15.000000,0.000000,0.000000,0.000000,0.000000,0.000000,0.357002,0.458153,0.174174,0.113592,0.000000,330.000000,307.000000,23.000000,15.000000,0.000000,0.000000,0.000000,0.000000,0.000000;
#CREDIT:;
#NOTES:
00000000
00000000
00000000
00000000
,
00000000
00000000
00000000
00000000
,
00000000
00000000
00000000
00000000
,
00000000
00000000
00000000
00000000
,
00000010
00000000
00000000
00000010
00000000
00000000
00010000
00000000
,
00001000
00000000
00100000
01000000
00100000
00000000
01000000
00000000
,
10000000
00000000
00000000
10000000
00000000
00000000
00010000
00000000
,
01000000
00000000
00000000
01000000
00000000
00000000
00001000
00000000
,
00010000
00000000
00000000
00010000
00000000
00000000
00000100
00000000
,
00000010
00000000
00000001
00001000
00000001
00000000
00000100
00000000
,
00000010
00000000
00000000
00000010
00000000
00000000
00010000
00000000
,
00001000
00000000
00000000
01000000
00000000
00000000
00100000
00000000
,
10000000
10010000
00100000
01000000
,
00010000
00100000
00010000
00000000
00100000
00001000
00100000
00000000
,
00001000
00011000
00000100
00000010
,
00000100
00001000
00000100
00000000
00001000
00000001
00001000
00000000
,
00000010
00000000
00011000
00000000
00001000
00010000
00001000
00000000
,
00100000
01000000
00100000
00000000
01000000
10000000
01000000
00000000
,
10000000
00100000
01000000
00010000
,
00001000
00000010
00000100
00000001
,
00000012
00001000
00000013
00000000
,
00000100
00010000
00001000
01000000
,
00100000
20100000
30010000
00000000
,
01000000
00001000
00010000
00000010
,
00000100
00001002
00000013
00000000
,
00000100
00010000
00000010
00000100
,
00000001
00000000
00001000
00000001
00001000
00000001
00001000
00000001
,
00001000
00000010
00010010
00011000
,
00002000
00100000
00013000
00000000
,
01000000
00000000
00100000
10000000
01000000
00000000
00100000
00000000
,
00002000
00000010
00013000
00000000
,
00000100
00000000
00000010
00000001
00001000
00000000
00000010
00000000
,
00000200
00001000
00000301
00000000
,
00001000
00000000
00000010
00001000
00000001
00000000
00000010
00000000
,
00000100
00010000
00001000
01000000
,
00010000
10000000
00010000
10000000
00010000
10000000
00010000
00000000
,
01000000
00000000
00000000
01000000
00000000
00000000
00010000
00000000
,
00100000
00000000
00001000
00010000
00001000
00000000
00000010
00000000
,
00000100
00000000
00000001
00000010
00000000
00000000
00000100
00000000
,
00010000
00000000
00001000
01000000
00000000
00000000
00100000
00000000
,
10000000
00000000
00010000
00100000
00000000
00000000
00000100
00000000
,
00000010
00000000
00000001
00000100
00000000
00000000
00000010
00000000
,
00010000
00000000
00001000
01000000
00000000
00000000
00010000
00000000
,
00100000
00000000
01000000
10000000
00000000
00000000
00100000
00000000
,
01000000
01100000
10000000
00010000
,
00100000
00010000
00100000
00000000
01000000
10000000
01000000
00000000
,
00100000
00011000
00001000
00000010
,
00000100
00000010
00000100
00000000
00000001
00001000
00000100
00000000
,
00000010
00001001
00000100
00001000
,
00010000
00001000
00010000
00000000
00000000
00000000
00011000
00000000
,
01000000
00100000
10000000
00010000
,
00000100
00000010
00000100
00000000
00000010
00000000
00000110
00000000
,
00001002
00000100
00001003
00000000
,
00000010
00010000
00001000
00100000
,
01000000
20010000
30100000
00000000
,
01000000
00001000
00010000
00000100
,
00000010
00000120
00000031
00000000
,
00001000
00000010
00000100
00000001
,
00000010
00000000
00000100
00001000
00000100
00001000
00000100
00001000
,
00000100
00010000
00011000
00110000
,
02000000
00010000
13000000
00000000
,
01000000
00000000
00100000
00010000
01000000
00000000
00001000
00000000
,
00000020
00000001
00000130
00000000
,
00000010
00000000
00000001
00001000
00000100
00000000
00001000
00000000
,
00000020
00000001
00000130
00000000
,
00000010
00000000
00001000
00000100
00010000
00000000
00001000
00000000
,
01000000
00100000
10000000
00010000
,
01000000
00001000
01000000
00001000
01000000
00001000
01000000
00000000
,
00010200
00000010
00010300
00000000
,
00001000
00000000
00010000
00001000
01000000
00000000
00100000
00000000
,
02010000
00100000
03010000
00000000
,
00100000
00000000
00001000
00010000
00000010
00000000
00001000
00000000
,
00012000
01000000
00013000
00000000
,
00000100
00000000
00000010
00000001
00000100
00000000
00001100
00000000
,
00011000
00000000
00001000
00010000
00001000
00010000
00001000
00010000
,
00001000
00010000
00001000
00010000
00001000
00010000
00000000
00000000
;

//---------------dance-double - ----------------
#NOTEDATA:;
#CHARTNAME:;
#STEPSTYPE:dance-double;
#DESCRIPTION:;
#CHARTSTYLE:;
#DIFFICULTY:Easy;
#METER:4;
#RADARVALUES:0.273702,0.344183,0.212038,0.053009,0.000000,253.000000,225.000000,28.000000,7.000000,0.000000,0.000000,0.000000,0.000000,0.000000,0.273702,0.344183,0.212038,0.053009,0.000000,253.000000,225.000000,28.000000,7.000000,0.000000,0.000000,0.000000,0.000000,0.000000;
#CREDIT:;
#NOTES:
00000000
00000000
00000000
00000000
,
00000000
00000000
00000000
00000000
,
00000000
00000000
00000000
00000000
,
00000000
00000000
00000000
00000000
,
00000010
00000000
00000000
00000000
,
00000100
00000000
00000001
00000000
,
00001000
00000000
00000100
00010000
,
00001000
00000000
00000000
02000000
,
03100000
00000000
10000000
00000000
,
01000000
00000000
00100000
00001000
,
00010000
00000000
00000010
00000000
,
00000100
00000000
00000000
00000001
,
00000010
00000100
00010000
00000000
,
00001000
01000000
00100000
10000000
,
01000000
00100000
00010000
00000000
,
01000000
00001000
00010000
00000100
,
00000010
00000001
00000010
00000000
,
00000100
00010000
00001000
00000000
,
01000000
00100000
10000000
00000000
,
00100000
01000000
00010000
00000000
,
00200000
00001000
00301000
00000000
,
00010000
00000000
00000010
00000000
,
00000200
00000001
00000301
00000000
,
00000010
00000000
00000010
00000000
,
00000200
00010000
00010300
00000000
,
00001000
00000000
01000000
00000000
,
00100000
10000000
00010000
10000000
,
01000000
00100000
00001000
00010000
,
00011000
00011000
00011000
00000000
,
00000100
00000010
00000001
00000100
,
00000101
00000101
00000101
00000000
,
00000100
00000010
00010000
00001000
,
00011000
00011000
00011000
00000000
,
01000000
00010000
10000000
01000000
,
00100000
00010000
10000000
00100000
,
01000000
00001000
00010000
00000000
,
00000010
00000000
00000010
00000000
,
00000100
00000000
00000001
00000100
,
00000010
00001000
00000000
00000100
,
00010000
00001000
00000000
01000000
,
00100000
10000000
00000000
10000000
,
01000000
00010000
00000000
00001000
,
00000100
00000001
00000000
00000001
,
00000100
00000010
00000000
00010000
,
00001000
01000000
00100000
00000000
,
10000000
01000000
00100000
00001000
,
00010000
00000010
00000100
00000000
,
00000001
00000100
00000010
00010000
,
00001000
01000000
00010000
00000000
,
00100000
10000000
00000000
10000000
,
01000000
00100000
00000000
00001000
,
00010000
00001000
01000000
00000000
,
00200000
01000000
01300000
00000000
,
00010000
00000000
10000000
00000000
,
02000000
00100000
03100000
00000000
,
00001000
00000000
00010000
00000000
,
00000020
00000100
00000130
00000000
,
00000001
00001000
00000010
00000100
,
00000001
00000001
00001000
00001000
,
00000100
00010000
00001000
01000000
,
01010000
01010000
01010000
00000000
,
00100000
10000000
01000000
00100000
,
10010000
10010000
10010000
00000000
,
01000000
00001000
00010000
00000100
,
00000110
00000110
00000110
00000000
,
00000001
00000100
00000010
00001000
,
00000100
00010000
00001000
00010000
,
01000000
00100000
01000000
00000000
,
10100000
10010000
10100000
00000000
,
01000000
00001000
00010000
00000100
,
00001100
00001001
00001100
00000000
,
00000100
00000010
00000001
00000100
,
00000101
00000011
00000101
00000000
,
00000100
00000010
00010000
00001000
,
01000000
00100000
10000000
00010000
,
01000000
00001000
00010000
00011000
;
