#VERSION:0.83;
#TITLE:Low Tide;
#SUBTITLE:;
#ARTIST:Getter feat. Jaden Michaels;
#TITLETRANSLIT:;
#SUBTITLETRANSLIT:;
#ARTISTTRANSLIT:;
#GENRE:Allegiance;
#ORIGIN:;
#CREDIT:;
#BANNER:Low Tide-bn.png;
#BACKGROUND:Low Tide-bg.png;
#PREVIEWVID:;
#JACKET:Low Tide-jacket.png;
#CDIMAGE:;
#DISCIMAGE:;
#LYRICSPATH:;
#CDTITLE:;
#MUSIC:Low Tide.mp3;
#OFFSET:-0.020530;
#SAMPLESTART:42.729343;
#SAMPLELENGTH:17.739132;
#SELECTABLE:YES;
#BPMS:0.000=115.000;
#STOPS:150.000=1.043;
#DELAYS:;
#WARPS:;
#TIMESIGNATURES:0.000=4=4;
#TICKCOUNTS:0.000=4;
#COMBOS:0.000=1;
#SPEEDS:0.000=1.000=0.000=0;
#SCROLLS:0.000=1.000;
#FAKES:;
#LABELS:0.000=Song Start;
#LASTSECONDHINT:147.197174;
#BGCHANGES:;
#KEYSOUNDS:;
#ATTACKS:
;

//---------------dance-single - ----------------
#NOTEDATA:;
#CHARTNAME:;
#STEPSTYPE:dance-single;
#DESCRIPTION:;
#CHARTSTYLE:;
#DIFFICULTY:Hard;
#METER:8;
#RADARVALUES:0.312273,0.445447,0.080960,0.290105,0.040480,324.000000,312.000000,12.000000,43.000000,0.000000,0.000000,0.000000,0.000000,0.000000,0.312273,0.445447,0.080960,0.290105,0.040480,324.000000,312.000000,12.000000,43.000000,0.000000,0.000000,0.000000,0.000000,0.000000;
#CREDIT:;
#NOTES:
// measure 0
0000
0000
0000
0000
,  // measure 1
0000
0000
0000
0000
,  // measure 2
0000
0000
0000
0000
,  // measure 3
0000
0000
0000
0000
,  // measure 4
0000
0000
0000
0000
,  // measure 5
0001
0010
0100
1000
0010
0000
0001
1000
,  // measure 6
0001
0000
0100
1000
0002
0000
0003
0000
,  // measure 7
0100
0010
1000
0001
0010
0000
0100
0001
,  // measure 8
0010
0000
0100
0000
0002
0000
1003
0010
,  // measure 9
0200
0000
0000
0000
,  // measure 10
0300
0000
0000
0000
0000
0000
0001
2000
,  // measure 11
0000
0000
0000
0000
,  // measure 12
3000
0000
0000
0000
,  // measure 13
1001
0001
1000
0001
0100
0000
0010
0100
,  // measure 14
0001
0000
1000
0010
2000
0000
3100
0000
,  // measure 15
0010
0001
1000
0100
0010
0000
1000
0001
,  // measure 16
0100
0000
0010
0000
0002
0000
0103
0010
,  // measure 17
0200
0000
0000
0000
,  // measure 18
0300
0000
0000
0000
0000
0000
1000
0010
,  // measure 19
0200
0000
0000
0000
,  // measure 20
0300
0000
0000
0000
1000
0000
0001
1000
,  // measure 21
2002
0000
0003
0200
0000
0000
3300
0000
,  // measure 22
0010
0000
0001
0000
1000
0010
0100
0000
,  // measure 23
0010
0000
0100
0001
1000
0000
0010
0000
,  // measure 24
0100
0000
0001
0000
1000
0100
0001
0100
,  // measure 25
1000
0000
0010
0100
0001
0000
1000
0000
,  // measure 26
0100
0000
0010
0000
1001
0000
0001
1000
,  // measure 27
0010
0000
1000
0001
0000
0100
0010
0000
,  // measure 28
1000
0100
0110
0010
,  // measure 29
0001
0000
0100
0010
0100
0000
0001
0000
0010
0000
0001
0000
0200
0000
0000
0000
,  // measure 30
0300
0000
0001
0100
0001
0000
0010
0000
,  // measure 31
0001
0000
0100
0010
0100
0000
0010
0000
0001
0000
0010
0000
0200
0000
0000
0000
,  // measure 32
0300
0000
0001
1000
0001
0000
0010
0000
,  // measure 33
0200
0000
1300
0010
0002
0000
0013
1000
,  // measure 34
0020
0000
1030
0100
2000
0000
3001
0010
,  // measure 35
0200
0000
1300
0002
0000
0103
0020
0000
,  // measure 36
1030
0001
0100
0010
,  // measure 37
1000
0000
0010
0100
0010
0000
1000
0000
1100
0000
0000
0000
0010
0000
0100
0000
,  // measure 38
0101
0000
0000
0000
1001
0000
0000
0000
0002
0000
0013
0001
0100
0000
0010
0000
,  // measure 39
1000
0010
0200
0000
0300
0000
0001
1000
,  // measure 40
0101
0000
0010
0000
2000
0000
0000
0002
,  // measure 41
0000
0000
0000
3003
,  // measure 42
1001
0000
0100
0010
2000
0000
0000
3001
,  // measure 43
0000
1000
0200
0000
0310
0000
0001
0000
,  // measure 44
1000
0000
0000
0000
0100
0000
0000
0000
1001
0000
0100
0010
1000
0000
0001
0000
,  // measure 45
0010
0001
2000
0000
3100
0000
0010
0001
,  // measure 46
0100
0000
0010
0000
0100
0000
1000
0000
0010
0000
0100
1000
0001
0000
0100
0000
,  // measure 47
1000
0001
0200
0000
0300
0000
0010
1000
,  // measure 48
0001
0010
0100
0000
1000
0000
0010
1000
,  // measure 49
0000
1000
0100
1000
0000
0100
0001
0100
,  // measure 50
0000
0001
0010
0001
0010
0000
0001
2000
,  // measure 51
0000
3001
0200
0000
0310
0000
1000
0000
,  // measure 52
0001
0100
0010
1000
0101
0000
0010
1000
,  // measure 53
0100
0000
1000
0001
1000
0000
0100
0000
0010
0000
0001
0000
0100
0000
0010
0000
,  // measure 54
1000
0000
0001
0100
0001
0000
0000
0000
0010
0000
1000
0000
0001
0000
0100
0000
,  // measure 55
0010
0000
0100
0001
0100
0000
0010
0000
0001
0000
1000
0000
0010
0000
0100
0000
,  // measure 56
0001
0000
1000
0001
1000
0000
0010
0000
0100
0000
0001
0000
0010
0000
0100
0000
,  // measure 57
0010
0000
0001
0100
0001
0000
1000
0000
0010
0000
1000
0000
0100
0000
1000
0000
,  // measure 58
0001
0000
1000
0100
1000
0000
0010
0000
0100
0000
0000
0000
0001
0000
0020
0000
,  // measure 59
0000
1030
0020
0000
0130
0000
0001
0000
,  // measure 60
1000
0100
0010
0001
2100
0000
0002
0000
,  // measure 61
0000
0000
3003
0000
,  // measure 62
0001
0010
0100
1000
0020
0000
0000
0000
,  // measure 63
0030
1000
0100
0002
0000
0000
0000
0003
,  // measure 64
0000
1000
0020
0000
0200
0000
0000
0000
,  // measure 65
0000
0000
0330
0000
,  // measure 66
0000
0000
0001
1000
0200
0000
0000
2300
,  // measure 67
0000
3002
0200
0303
,  // measure 68
1000
0010
0001
0010
2000
0000
0000
0000
,  // measure 69
0000
0000
3000
0000
;

//---------------dance-single - ----------------
#NOTEDATA:;
#CHARTNAME:;
#STEPSTYPE:dance-single;
#DESCRIPTION:;
#CHARTSTYLE:;
#DIFFICULTY:Medium;
#METER:5;
#RADARVALUES:0.206254,0.299846,0.107946,0.249626,0.000000,214.000000,198.000000,16.000000,37.000000,0.000000,0.000000,0.000000,0.000000,0.000000,0.206254,0.299846,0.107946,0.249626,0.000000,214.000000,198.000000,16.000000,37.000000,0.000000,0.000000,0.000000,0.000000,0.000000;
#CREDIT:;
#NOTES:
// measure 0
0000
0000
0000
0000
,  // measure 1
0000
0000
0000
0000
,  // measure 2
0000
0000
0000
0000
,  // measure 3
0000
0000
0000
0000
,  // measure 4
0000
0000
0000
0000
,  // measure 5
1001
0001
1000
0001
,  // measure 6
0100
0010
0200
0300
,  // measure 7
0010
1000
0010
1000
,  // measure 8
0100
0010
0001
2000
,  // measure 9
0000
3000
0000
0000
,  // measure 10
0000
0000
0000
0010
,  // measure 11
0200
0000
0000
0300
,  // measure 12
0000
0000
0000
0000
,  // measure 13
0001
0010
0100
1000
,  // measure 14
0010
0100
0001
0001
,  // measure 15
1000
0010
0100
0001
,  // measure 16
0010
0100
1000
1000
,  // measure 17
0002
0000
0000
0003
,  // measure 18
0000
0000
0000
0200
,  // measure 19
0000
0000
0000
0300
,  // measure 20
0000
0000
0010
1000
,  // measure 21
2002
3003
1100
0000
,  // measure 22
0010
0000
0000
0000
1000
0001
0100
0000
,  // measure 23
0020
0030
0101
0000
,  // measure 24
0010
0000
0000
0000
0001
1000
0001
1000
,  // measure 25
0100
0000
0101
0000
,  // measure 26
0100
0000
0000
0000
1100
0000
0010
1000
,  // measure 27
0010
0000
0000
1000
0000
0001
2000
0000
,  // measure 28
0000
3000
1001
0000
,  // measure 29
0010
0000
1000
0100
0010
0100
2000
0000
,  // measure 30
3000
0000
0100
0010
0001
0000
0010
0000
,  // measure 31
0001
0000
0100
0010
1000
0010
0200
0000
,  // measure 32
0300
0000
0001
0100
0010
0000
1000
0000
,  // measure 33
2002
3000
0200
0300
,  // measure 34
2000
0000
0000
0000
3003
0000
0001
1000
,  // measure 35
0001
0000
0000
0010
0000
0100
0020
0000
,  // measure 36
0000
0030
0000
0000
,  // measure 37
1001
0000
0100
0010
1000
0000
1000
0010
,  // measure 38
0100
0000
0100
0000
0001
0000
0001
0010
,  // measure 39
0100
0010
0002
0000
0003
0000
0001
0010
,  // measure 40
0100
0100
2000
0000
,  // measure 41
0002
0000
0000
3003
,  // measure 42
1001
0000
0010
0100
0001
0000
0000
0010
,  // measure 43
0000
0100
0020
0000
0000
0000
0000
0000
,  // measure 44
0030
0000
0000
0000
0001
0000
1000
0001
,  // measure 45
0100
0010
2000
0000
3000
0000
0001
1000
,  // measure 46
0100
0000
0100
0000
0001
0000
1000
0001
,  // measure 47
0100
0010
2000
0000
3000
0000
0010
0100
,  // measure 48
0001
0001
2002
0003
,  // measure 49
0020
0030
0002
0000
,  // measure 50
3003
0000
0001
0100
0001
0000
0000
0010
,  // measure 51
0000
0100
0020
0000
0000
0000
0030
0000
,  // measure 52
0001
1000
0001
1000
2002
0000
3003
0000
,  // measure 53
0101
0000
0010
0000
,  // measure 54
0001
1000
0100
0000
0020
0000
0030
0000
,  // measure 55
1100
0000
0010
0000
,  // measure 56
1000
0001
1000
0001
0100
0000
0000
0000
,  // measure 57
1100
0000
0100
0000
,  // measure 58
0101
0000
0010
0001
0010
0000
0000
0001
,  // measure 59
0000
1000
0100
0000
,  // measure 60
1000
0001
1000
0001
0200
0000
0002
0000
,  // measure 61
0000
0000
0303
0000
,  // measure 62
0001
1000
0001
1000
0020
0000
0000
0000
,  // measure 63
0030
0100
0002
0000
,  // measure 64
0003
1000
0020
0000
0200
0000
0000
0000
,  // measure 65
0000
0000
0330
0000
,  // measure 66
0000
0000
0001
1000
0100
0000
0000
1000
,  // measure 67
0000
0001
0200
0300
,  // measure 68
0010
0000
1000
0001
0000
0000
0000
0000
;

//---------------dance-single - ----------------
#NOTEDATA:;
#CHARTNAME:;
#STEPSTYPE:dance-single;
#DESCRIPTION:;
#CHARTSTYLE:;
#DIFFICULTY:Easy;
#METER:3;
#RADARVALUES:0.162883,0.207965,0.006747,0.215892,0.000000,169.000000,168.000000,1.000000,32.000000,0.000000,0.000000,0.000000,0.000000,0.000000,0.162883,0.207965,0.006747,0.215892,0.000000,169.000000,168.000000,1.000000,32.000000,0.000000,0.000000,0.000000,0.000000,0.000000;
#CREDIT:;
#NOTES:
// measure 0
0000
0000
0000
0000
,  // measure 1
0000
0000
0000
0000
,  // measure 2
0000
0000
0000
0000
,  // measure 3
0000
0000
0000
0000
,  // measure 4
0000
0000
0000
0000
,  // measure 5
0010
0010
1000
1000
,  // measure 6
0001
0001
0200
0300
,  // measure 7
0001
0001
1000
1000
,  // measure 8
0001
0001
0100
0002
,  // measure 9
0000
0000
0003
0000
,  // measure 10
0000
0000
0000
1000
,  // measure 11
0200
0000
0300
0000
,  // measure 12
0000
0000
0000
0000
,  // measure 13
0010
0010
0100
0100
,  // measure 14
1000
1000
0001
1000
,  // measure 15
0001
0001
0100
0100
,  // measure 16
0010
0010
1000
0001
,  // measure 17
2000
0000
0000
3000
,  // measure 18
0000
0000
0000
0100
,  // measure 19
0020
0000
0000
0030
,  // measure 20
0000
0000
0001
0100
,  // measure 21
0010
1000
0200
0300
,  // measure 22
0010
0001
2000
3000
,  // measure 23
0001
0100
0002
0003
,  // measure 24
1000
0010
1000
0100
,  // measure 25
0010
0100
0020
0030
,  // measure 26
0001
1000
0002
0003
,  // measure 27
0100
0010
0100
0010
,  // measure 28
2000
3000
0200
0300
,  // measure 29
0010
0001
0100
1000
,  // measure 30
0100
0001
0010
0000
,  // measure 31
0010
0001
0100
1000
,  // measure 32
0100
0001
0010
0000
,  // measure 33
0200
0300
2000
3000
,  // measure 34
0020
0030
0200
0300
,  // measure 35
0001
0000
0010
0000
,  // measure 36
0100
0000
1000
0000
,  // measure 37
0010
1000
0100
1000
,  // measure 38
0100
0000
0010
0001
,  // measure 39
0100
0000
0000
0001
,  // measure 40
0100
0000
0010
0000
,  // measure 41
0100
0000
0010
0000
,  // measure 42
1000
0001
0100
0000
,  // measure 43
0010
0000
1000
0000
,  // measure 44
0001
0000
0010
0001
,  // measure 45
0100
1000
0100
0001
,  // measure 46
0010
0000
0010
0001
,  // measure 47
0100
1000
0100
0001
,  // measure 48
0010
0000
0100
0000
,  // measure 49
1000
0000
0001
0000
,  // measure 50
0010
0100
0010
0000
,  // measure 51
0001
0000
1000
0000
,  // measure 52
0100
0010
2002
3003
,  // measure 53
0200
0300
0010
0001
,  // measure 54
2000
3000
0001
0100
,  // measure 55
0002
0003
1000
0010
,  // measure 56
1000
0100
0010
0100
,  // measure 57
0020
0030
0001
1000
,  // measure 58
0002
0003
0100
0010
,  // measure 59
0100
0010
2000
3000
,  // measure 60
0200
0300
0010
0020
,  // measure 61
0000
0000
0030
0000
,  // measure 62
0001
0001
0002
0000
,  // measure 63
0003
1000
2000
0000
,  // measure 64
3000
0100
0200
0000
,  // measure 65
0000
0000
0300
0000
,  // measure 66
0000
0010
0020
0030
,  // measure 67
0020
0030
0020
0030
,  // measure 68
0001
1000
0001
0000
;

//---------------dance-single - ----------------
#NOTEDATA:;
#CHARTNAME:;
#STEPSTYPE:dance-single;
#DESCRIPTION:;
#CHARTSTYLE:;
#DIFFICULTY:Beginner;
#METER:1;
#RADARVALUES:0.112765,0.138643,0.006747,0.202399,0.000000,117.000000,116.000000,1.000000,30.000000,0.000000,0.000000,0.000000,0.000000,0.000000,0.112765,0.138643,0.006747,0.202399,0.000000,117.000000,116.000000,1.000000,30.000000,0.000000,0.000000,0.000000,0.000000,0.000000;
#CREDIT:;
#NOTES:
// measure 0
0000
0000
0000
0000
,  // measure 1
0000
0000
0000
0000
,  // measure 2
0000
0000
0000
0000
,  // measure 3
0000
0000
0000
0000
,  // measure 4
0000
0000
0000
0000
,  // measure 5
0010
0000
1000
0000
,  // measure 6
0001
0000
0100
0000
,  // measure 7
0001
0000
1000
0000
,  // measure 8
0001
0000
0100
0200
,  // measure 9
0000
0300
0000
0000
,  // measure 10
0000
0000
0000
0020
,  // measure 11
0000
0030
0000
0000
,  // measure 12
0000
0000
0000
0000
,  // measure 13
0010
0000
0100
0000
,  // measure 14
1000
0000
0001
0000
,  // measure 15
1000
0000
0100
0000
,  // measure 16
0010
0000
0001
0000
,  // measure 17
2000
0000
0000
3000
,  // measure 18
0000
0000
0000
0020
,  // measure 19
0000
0000
0000
0030
,  // measure 20
0000
0000
0100
0000
,  // measure 21
0001
0000
0200
0300
,  // measure 22
0010
0000
2000
3000
,  // measure 23
0001
0000
0002
0003
,  // measure 24
1000
0000
0010
0010
,  // measure 25
0010
0000
0200
0300
,  // measure 26
0001
0000
0020
0030
,  // measure 27
0100
0000
0010
0000
,  // measure 28
0002
0003
2000
3000
,  // measure 29
0010
0000
0001
0000
,  // measure 30
0100
0000
1000
0000
,  // measure 31
0100
0000
0001
0000
,  // measure 32
0010
0000
0100
0000
,  // measure 33
0020
0030
0100
0000
,  // measure 34
0020
0030
0100
0000
,  // measure 35
1000
0000
0010
0000
,  // measure 36
0100
0000
0001
0000
,  // measure 37
0010
0000
1000
0000
,  // measure 38
0100
0000
0001
0000
,  // measure 39
0100
0000
1000
0000
,  // measure 40
0010
0000
0200
0300
,  // measure 41
0010
0000
0200
0300
,  // measure 42
0010
0000
1000
0000
,  // measure 43
0001
0000
0100
0000
,  // measure 44
0010
0000
0100
0000
,  // measure 45
0001
0000
0010
0000
,  // measure 46
1000
0000
0010
0000
,  // measure 47
0001
0000
0100
0000
,  // measure 48
1000
0000
0200
0300
,  // measure 49
0010
0000
2000
3000
,  // measure 50
0001
0000
0010
0000
,  // measure 51
0001
0000
1000
0000
,  // measure 52
0100
0000
1001
0000
,  // measure 53
0200
0300
0010
0000
,  // measure 54
2000
3000
0001
0000
,  // measure 55
0002
0003
1000
0000
,  // measure 56
0010
0010
0010
0000
,  // measure 57
0200
0300
0001
0000
,  // measure 58
0020
0030
0100
0000
,  // measure 59
0010
0000
0002
0003
,  // measure 60
2000
3000
0010
0020
,  // measure 61
0000
0000
0030
0000
,  // measure 62
0100
0100
0200
0000
,  // measure 63
0300
0000
0000
0000
,  // measure 64
0000
0001
0002
0000
,  // measure 65
0000
0003
0000
0000
,  // measure 66
0000
0010
0020
0030
,  // measure 67
0020
0030
0020
0030
,  // measure 68
0100
0100
0100
0000
;
