#TITLE:Long Way Down;
#SUBTITLE:;
#ARTIST:Robert Delong;
#TITLETRANSLIT:;
#SUBTITLETRANSLIT:;
#ARTISTTRANSLIT:;
#GENRE:Long Way Down;
#CREDIT:;
#BANNER:Long Way Down-bn.png;
#BACKGROUND:Long Way Down-bg.png;
#LYRICSPATH:;
#CDTITLE:;
#MUSIC:Long Way Down.mp3;
#OFFSET:-0.042000;
#SAMPLESTART:60.033501;
#SAMPLELENGTH:12.750000;
#LASTBEATHINT:288.000000;
#SELECTABLE:YES;
#BPMS:0.000000=160.000000
;
#STOPS:
;
#BGCHANGES:;
#KEYSOUNDS:;
#ATTACKS:;

//---------------dance-single - ----------------
#NOTES:
     dance-single:
     :
     Hard:
     7:
     0.480515,0.518518,0.604186,0.315620,0.004509,271.000000,67.000000,35.000000,0.000000,0.000000,0.000000,0.480515,0.518518,0.604186,0.315620,0.004509,271.000000,67.000000,35.000000,0.000000,0.000000,0.000000:
0000
0000
0000
0000
,
0000
0000
0000
0000
,
0000
0000
0000
0000
,
0000
0000
0000
0000
,
0000
0000
0000
0000
,
0000
0000
0000
0000
,
0000
0000
0000
0000
,
0000
0000
0000
0000
,
0010
1010
0000
0011
0000
1001
0000
0101
,
0000
1010
0000
1000
0100
0000
0110
0000
,
1001
0010
1000
0010
,
0100
0001
0101
0000
,
1000
0001
0000
1001
0000
0110
0000
1010
,
0000
2200
3300
0000
0011
0000
0101
0000
,
1001
0100
1100
1000
,
0010
0100
0110
0000
,
0001
0000
0010
0100
1000
0100
0010
0001
,
0000
1000
0010
0100
0001
0010
0100
1000
,
0000
0000
1100
0000
,
0000
0000
0101
0000
,
0010
0000
0100
0001
1000
0010
0100
0001
,
0000
0000
0000
0010
0000
0100
0000
1000
,
0000
0010
0000
0100
0000
0000
0010
1000
,
0000
0001
0000
0100
0000
0000
0000
0000
,
0001
0000
1000
0100
1000
0010
1000
0100
,
0000
0010
0000
0000
,
0001
0000
1000
0001
0100
0010
0100
0000
,
0001
0000
0000
0010
0000
0000
0100
0000
0000
0000
0000
0000
0000
0000
0000
0000
,
1000
0000
0100
1000
0010
0100
0010
1000
,
0000
0001
0100
0010
1000
0010
0100
0001
,
1000
0000
0000
0000
1001
0000
0010
0100
,
0000
0010
0000
0000
0000
0000
2000
0000
,
0002
0000
3003
0020
,
0200
0000
0330
0000
,
0010
1000
0000
0100
0000
1000
0000
0010
,
0000
0100
0000
0001
0000
0010
0200
0000
,
0020
0000
0330
0002
,
2000
0000
3003
0000
,
0010
1000
0000
0100
0000
1000
0000
0020
,
0000
0000
0100
0000
,
1030
0000
0101
0100
0010
0000
1010
0000
,
0011
0000
0101
0000
1100
0000
0001
1000
,
0100
0000
1000
0001
0100
0000
0010
1000
,
0100
0010
0000
0011
0000
1010
0000
1001
,
0000
0000
0100
0010
1000
0000
1100
0000
,
1010
0000
0011
0000
0101
0000
0001
1000
,
0010
0000
0001
1000
0100
0000
0010
0000
,
0001
0000
1000
0010
0100
0001
0000
1000
,
0100
0000
0010
0001
0100
0000
0001
1000
,
0010
0000
1000
0001
0100
0000
0001
1000
,
0100
0000
1000
0001
0010
0000
0001
0000
,
0100
0010
0200
1000
0300
0010
1000
0001
,
0000
0010
0001
0100
0010
1000
1000
0010
,
0100
0001
0001
0010
0100
1000
1000
0100
,
0010
0001
0100
0000
0010
1000
0100
0000
,
0010
0100
0020
1000
0030
0100
0000
0001
,
2002
0000
0003
0000
3010
1010
0000
1100
,
0000
0101
0000
0011
0000
0100
0000
0010
,
1100
0101
2002
3003
,
2002
3003
2002
3003
,
0220
0000
0030
0000
0301
0101
0000
1010
,
0000
1100
0000
0011
1000
0000
0001
0000
,
1001
0100
0110
0000
,
0100
0010
0200
1000
0300
0010
0000
0100
,
0220
0000
0330
0000
0000
1001
0000
1010
,
0000
1001
0000
0101
0000
1001
0000
0010
,
0001
0011
2002
3003
,
2200
3300
2002
3003
,
0200
0000
0300
0000
0000
0110
0000
1010
,
0000
0110
0000
0011
0000
0110
0000
0100
,
1001
0110
1001
0000
,
0010
1000
0020
0001
0030
0200
0000
1300
;

//---------------dance-single - ----------------
#NOTES:
     dance-single:
     :
     Medium:
     5:
     0.289855,0.323510,0.036071,0.243478,0.000000,194.000000,4.000000,27.000000,0.000000,0.000000,0.000000,0.289855,0.323510,0.036071,0.243478,0.000000,194.000000,4.000000,27.000000,0.000000,0.000000,0.000000:
// measure 0
0000
0000
0000
0000
,  // measure 1
0000
0000
0000
0000
,  // measure 2
0000
0000
0000
0000
,  // measure 3
0000
0000
0000
0000
,  // measure 4
0000
0000
0000
0000
,  // measure 5
0000
0000
0000
0000
,  // measure 6
0000
0000
0000
0000
,  // measure 7
0000
0000
0000
0000
,  // measure 8
0010
1000
0100
0010
,  // measure 9
0100
1000
0010
0100
,  // measure 10
0001
0000
0001
0000
,  // measure 11
0010
0100
1000
0000
,  // measure 12
0100
0010
0100
1000
,  // measure 13
0010
0100
0010
1000
,  // measure 14
0001
0000
0010
0000
,  // measure 15
0100
0000
1000
0000
,  // measure 16
0010
0000
1000
0100
1000
0000
0010
0000
,  // measure 17
0100
0000
0001
0010
0001
0000
0100
0000
,  // measure 18
0010
0000
1000
0000
,  // measure 19
0100
0000
0001
0000
,  // measure 20
0100
0000
0010
0001
0010
0000
0100
0000
,  // measure 21
1000
0000
0010
1000
0010
0000
0100
0000
,  // measure 22
0001
1000
0100
0010
,  // measure 23
0100
1000
0001
0100
,  // measure 24
0010
0000
1000
0001
0100
0000
0010
0000
,  // measure 25
0100
0001
0010
0000
,  // measure 26
0100
0000
1000
0001
0100
0000
0010
0000
,  // measure 27
0100
0001
1000
0000
,  // measure 28
0100
0000
1000
0100
0010
0000
0100
0000
,  // measure 29
0010
0000
0001
0010
0001
0000
0100
0000
,  // measure 30
0010
1000
0100
0000
,  // measure 31
0010
0100
0010
0001
,  // measure 32
2002
3003
0000
0100
,  // measure 33
0220
0330
0000
0000
,  // measure 34
0010
1000
0000
0100
0000
0010
0000
0100
,  // measure 35
0000
0010
0000
0001
0000
1000
0001
0000
,  // measure 36
2002
3003
0000
0010
,  // measure 37
0220
0330
0000
0000
,  // measure 38
0010
1000
0000
0100
0000
0010
0000
0002
,  // measure 39
0000
0000
1003
0000
,  // measure 40
0010
0000
1000
0100
1000
0000
0010
0000
,  // measure 41
0100
0000
0001
0000
0010
0000
0001
0100
,  // measure 42
0000
0000
0000
0000
,  // measure 43
0001
0010
0001
0000
0010
0000
0100
0000
,  // measure 44
0010
0000
0100
1000
,  // measure 45
0010
0000
1000
0000
0100
0000
1000
0010
,  // measure 46
0000
0000
0000
0000
,  // measure 47
0100
0000
0010
1000
0000
0010
0000
0200
,  // measure 48
0000
0000
0000
0300
,  // measure 49
0020
0000
0000
0030
,  // measure 50
2000
0000
0000
3000
,  // measure 51
0001
0000
0010
0100
0000
1000
0000
0200
,  // measure 52
0000
0000
0000
0300
,  // measure 53
0020
0000
0000
0030
,  // measure 54
0002
0000
0000
0003
,  // measure 55
1000
0000
0010
0100
0000
0001
0000
1000
,  // measure 56
0100
0000
0000
0000
0000
0010
0000
0010
,  // measure 57
0000
0100
0000
0100
0000
1000
0000
0000
,  // measure 58
0001
0010
0200
0300
,  // measure 59
0200
0300
0200
0300
,  // measure 60
0000
0000
0000
0000
0000
0010
0000
0001
,  // measure 61
0000
1000
0000
0100
0000
0010
0000
0000
,  // measure 62
0001
0010
0200
0300
,  // measure 63
0200
0300
0200
0300
,  // measure 64
0000
0000
0000
0000
0000
0010
0000
0001
,  // measure 65
0000
1000
0000
0010
0000
0100
0000
0000
,  // measure 66
0001
1000
0200
0300
,  // measure 67
0200
0300
0200
0300
,  // measure 68
0000
0000
0000
0000
0000
0010
0000
0100
,  // measure 69
0000
1000
0000
0010
0000
0100
0000
0000
,  // measure 70
0010
1000
0200
0300
,  // measure 71
0200
0300
0200
0300
;

//---------------dance-single - ----------------
#NOTES:
     dance-single:
     :
     Easy:
     3:
     0.216425,0.258808,0.009018,0.108212,0.000000,155.000000,1.000000,12.000000,0.000000,0.000000,0.000000,0.216425,0.258808,0.009018,0.108212,0.000000,155.000000,1.000000,12.000000,0.000000,0.000000,0.000000:
// measure 0
0000
0000
0000
0000
,  // measure 1
0000
0000
0000
0000
,  // measure 2
0000
0000
0000
0000
,  // measure 3
0000
0000
0000
0000
,  // measure 4
0000
0000
0000
0000
,  // measure 5
0000
0000
0000
0000
,  // measure 6
0000
0000
0000
0000
,  // measure 7
0000
0000
0000
0000
,  // measure 8
1000
0010
0001
0000
,  // measure 9
0001
0010
1000
0000
,  // measure 10
0100
0000
0100
0000
,  // measure 11
0100
0000
0000
0000
,  // measure 12
1000
0100
0001
0000
,  // measure 13
0001
0100
1000
0000
,  // measure 14
0100
0000
0100
0000
,  // measure 15
0100
0000
0100
0000
,  // measure 16
0010
1000
0100
0000
,  // measure 17
0010
0001
0010
0000
,  // measure 18
0100
1000
0001
0000
,  // measure 19
0000
0000
0000
0000
,  // measure 20
0100
0010
1000
0000
,  // measure 21
0010
0100
0001
0000
,  // measure 22
0010
0100
0010
0000
,  // measure 23
0100
0010
0100
0000
,  // measure 24
1000
0010
0100
0000
,  // measure 25
0010
0100
0001
0000
,  // measure 26
0100
0001
1000
0000
,  // measure 27
0001
1000
0001
0000
,  // measure 28
0010
0001
0100
0000
,  // measure 29
0001
0100
0010
0000
,  // measure 30
1000
0010
1000
0000
,  // measure 31
0100
0000
0000
0100
,  // measure 32
0010
0000
0000
0010
,  // measure 33
0100
0000
0000
0000
,  // measure 34
1000
0000
0000
0000
,  // measure 35
0001
0000
0000
0100
,  // measure 36
0010
0000
0000
0010
,  // measure 37
0100
0000
0000
0000
,  // measure 38
0010
0000
0000
0000
,  // measure 39
0100
0000
1001
0000
,  // measure 40
0010
1000
0100
0000
,  // measure 41
0010
0001
0100
0000
,  // measure 42
0001
0000
0001
0000
,  // measure 43
1000
0010
0100
0000
,  // measure 44
0010
1000
0100
0000
,  // measure 45
0010
0001
0100
0000
,  // measure 46
0001
0100
0010
0000
,  // measure 47
1000
0000
1000
0000
,  // measure 48
0100
0000
0000
0000
,  // measure 49
0010
0000
0000
0000
,  // measure 50
0001
0000
0000
0000
,  // measure 51
1000
0010
0100
0001
,  // measure 52
0100
0000
0000
0000
,  // measure 53
0010
0000
0000
0000
,  // measure 54
1000
0000
0000
0000
,  // measure 55
0001
0010
0100
1000
,  // measure 56
0100
0000
0000
1000
,  // measure 57
0010
0100
0001
0010
,  // measure 58
0100
1000
0200
0300
,  // measure 59
0200
0300
0200
0300
,  // measure 60
1000
0000
0000
0001
,  // measure 61
1000
0010
0100
0001
,  // measure 62
0010
0001
0200
0300
,  // measure 63
0200
0300
0200
0300
,  // measure 64
0010
0000
0000
1000
,  // measure 65
0001
0100
0010
1000
,  // measure 66
0100
0010
0200
0300
,  // measure 67
0200
0300
0200
0300
,  // measure 68
0010
0000
0000
0010
,  // measure 69
0001
1000
0010
0100
,  // measure 70
0001
0010
0200
0300
,  // measure 71
0200
0300
0200
0300
;

//---------------dance-single - ----------------
#NOTES:
     dance-single:
     :
     Beginner:
     1:
     0.088889,0.097391,0.000000,0.000000,0.000000,69.000000,0.000000,0.000000,0.000000,0.000000,0.000000,0.088889,0.097391,0.000000,0.000000,0.000000,69.000000,0.000000,0.000000,0.000000,0.000000,0.000000:
// measure 0
0000
0000
0000
0000
,  // measure 1
0000
0000
0000
0000
,  // measure 2
0000
0000
0000
0000
,  // measure 3
0000
0000
0000
0000
,  // measure 4
0000
0000
0000
0000
,  // measure 5
0000
0000
0000
0000
,  // measure 6
0000
0000
0000
0000
,  // measure 7
0000
0000
0000
0000
,  // measure 8
0010
0000
0000
0000
,  // measure 9
1000
0000
0000
0000
,  // measure 10
0100
0000
0000
0000
,  // measure 11
0100
0000
0000
0000
,  // measure 12
0010
0000
0000
0000
,  // measure 13
0100
0000
0000
0000
,  // measure 14
1000
0000
0000
0000
,  // measure 15
1000
0000
0000
0000
,  // measure 16
0001
0000
0000
0000
,  // measure 17
0100
0000
0000
0000
,  // measure 18
0010
0000
0000
0000
,  // measure 19
0000
0000
0000
0000
,  // measure 20
0010
0000
0000
0000
,  // measure 21
1000
0000
0000
0000
,  // measure 22
0100
0000
0000
0000
,  // measure 23
0000
0000
0000
0000
,  // measure 24
0010
0000
0000
0000
,  // measure 25
0001
0000
0000
0000
,  // measure 26
0100
0000
0000
0000
,  // measure 27
0000
0000
0000
0000
,  // measure 28
0010
0000
0000
0000
,  // measure 29
1000
0000
0000
0000
,  // measure 30
0100
0000
0000
0000
,  // measure 31
0000
0000
0000
0010
,  // measure 32
0010
0000
0000
0010
,  // measure 33
0010
0000
0000
0000
,  // measure 34
0100
0000
0000
0000
,  // measure 35
0100
0000
0000
0010
,  // measure 36
0010
0000
0000
0010
,  // measure 37
0010
0000
0000
0000
,  // measure 38
0010
0000
0000
0000
,  // measure 39
0100
0000
0000
0000
,  // measure 40
1000
0000
0000
0000
,  // measure 41
0001
0000
0000
0000
,  // measure 42
0100
0000
0000
0000
,  // measure 43
0010
0000
0100
0000
,  // measure 44
0001
0000
0000
0000
,  // measure 45
0010
0000
0000
0000
,  // measure 46
0100
0000
0000
0000
,  // measure 47
1000
0000
0010
0000
,  // measure 48
0100
0000
0000
0000
,  // measure 49
0010
0000
0000
0000
,  // measure 50
1000
0000
0000
0000
,  // measure 51
0001
0000
1000
0000
,  // measure 52
0100
0000
0000
0000
,  // measure 53
0010
0000
0000
0000
,  // measure 54
0001
0000
0000
0000
,  // measure 55
1000
0000
0001
0000
,  // measure 56
0100
0000
0000
0000
,  // measure 57
0010
0000
0000
0000
,  // measure 58
1000
0000
0000
0000
,  // measure 59
0100
0000
0000
0000
,  // measure 60
0010
0000
0000
0000
,  // measure 61
0001
0000
0000
0000
,  // measure 62
1000
0000
0000
0000
,  // measure 63
0100
0000
0000
0000
,  // measure 64
0100
0000
0000
0000
,  // measure 65
0010
0000
0000
0000
,  // measure 66
0001
0000
0000
0000
,  // measure 67
1000
0000
0000
0000
,  // measure 68
0010
0000
0000
0000
,  // measure 69
0100
0000
0000
0000
,  // measure 70
0001
0000
0000
0000
,  // measure 71
0010
0000
0000
0000
,  // measure 72
0100
0000
0000
0000
;
