#TITLE:Live Well;
#SUBTITLE:;
#ARTIST:Palace;
#TITLETRANSLIT:;
#SUBTITLETRANSLIT:;
#ARTISTTRANSLIT:;
#GENRE:So Long Forever;
#CREDIT:[Ness];
#BANNER:Live Well.png;
#BACKGROUND:Live Well-bg.png;
#LYRICSPATH:;
#CDTITLE:;
#MUSIC:Live Well.mp3;
#OFFSET:-0.027907;
#SAMPLESTART:67.517052;
#SAMPLELENGTH:15.000000;
#LASTBEATHINT:417.055023;
#SELECTABLE:YES;
#DISPLAYBPM:192.000000;
#BPMS:0.000000=192.000000
;
#STOPS:
;
#BGCHANGES:;
#KEYSOUNDS:;
#ATTACKS:;

//---------------dance-single - [Ness]----------------
#NOTES:
     dance-single:
     [Ness]:
     Hard:
     9:
     0.561019,0.663783,0.458041,0.360425,0.000000,523.000000,462.000000,61.000000,48.000000,0.000000,0.000000,0.561019,0.663783,0.458041,0.360425,0.000000,523.000000,462.000000,61.000000,48.000000,0.000000,0.000000:
// measure 0
0000
0000
0000
0000
,  // measure 1
0000
0000
0000
0000
,  // measure 2
0000
0000
0000
0000
,  // measure 3
0000
0000
0000
0000
,  // measure 4
0000
0000
0000
0000
,  // measure 5
0000
0000
0000
0000
,  // measure 6
1001
0000
0010
1000
0100
1000
0002
0000
,  // measure 7
0023
0230
2300
0000
,  // measure 8
0000
3002
0000
0000
,  // measure 9
0103
0000
0001
0100
1000
0100
0001
0000
,  // measure 10
0101
1010
0101
0000
,  // measure 11
0000
2002
0000
3003
,  // measure 12
0010
0000
1000
0001
0100
0010
2000
0000
,  // measure 13
3200
0320
0032
0000
,  // measure 14
0000
2003
0000
0000
,  // measure 15
3100
0000
0010
0001
0010
1000
0010
0000
,  // measure 16
0011
1100
0011
0000
,  // measure 17
0000
2002
0000
3003
,  // measure 18
0101
0001
1000
1100
,  // measure 19
1000
0001
0100
0010
,  // measure 20
1000
0002
0023
0130
,  // measure 21
1100
0001
0100
0101
,  // measure 22
1000
0100
0010
0001
,  // measure 23
1000
0010
0100
0000
0100
0001
0000
0001
,  // measure 24
1000
0100
0010
0011
,  // measure 25
0100
0001
1000
0010
,  // measure 26
0100
0000
0002
2000
0003
0000
3100
0000
,  // measure 27
1010
0100
0001
1001
,  // measure 28
0100
0010
1000
0100
,  // measure 29
0010
0000
0001
0000
0100
0020
0000
0000
,  // measure 30
1030
0000
0100
0010
0100
0010
0002
0000
,  // measure 31
2003
3020
0130
0001
,  // measure 32
1000
0000
0010
0000
1000
0001
0000
0000
,  // measure 33
1001
0000
0100
0010
1000
0100
0010
0000
,  // measure 34
1100
0011
1100
0000
,  // measure 35
0000
0000
0010
0000
1000
0000
0001
0100
,  // measure 36
0010
0000
0100
0001
1000
0010
0200
0000
,  // measure 37
0302
2003
3100
0010
,  // measure 38
0001
1000
0010
0100
,  // measure 39
0101
0000
1000
0010
0100
0001
0010
0000
,  // measure 40
0101
0110
1100
0001
,  // measure 41
0100
0101
1000
0100
,  // measure 42
2000
0100
3010
0002
,  // measure 43
0010
1003
0200
0001
,  // measure 44
0310
2000
0001
3100
,  // measure 45
0020
0001
0130
0002
,  // measure 46
0100
1003
0200
1000
,  // measure 47
0310
2000
0010
3001
,  // measure 48
0200
0001
0310
0002
,  // measure 49
1000
0103
0020
0001
,  // measure 50
1030
0200
0010
0301
,  // measure 51
2000
3020
0230
0302
,  // measure 52
0023
0130
0110
0011
,  // measure 53
1100
1010
0101
1001
,  // measure 54
0110
0000
0001
0100
0010
0000
0101
0000
,  // measure 55
1000
0010
0100
0000
0010
0000
1000
0000
,  // measure 56
0100
0000
0010
0001
0000
1000
0000
0100
,  // measure 57
0010
0000
0001
1000
0000
0001
0010
0000
,  // measure 58
0100
1000
0100
0000
0010
0000
0100
0000
,  // measure 59
0010
2000
0001
3100
,  // measure 60
1100
0001
0100
0010
,  // measure 61
1000
0001
0000
1000
0010
0000
0100
0000
,  // measure 62
0001
1000
0001
0000
0010
0100
0000
0100
,  // measure 63
1000
0010
0000
0100
0000
0100
0001
0000
,  // measure 64
1000
0000
0100
0010
0100
0000
1000
0000
,  // measure 65
0001
0000
0101
0000
0000
1010
0000
0000
,  // measure 66
1001
0000
0100
1000
0001
0000
1100
0000
,  // measure 67
0010
0001
1000
0000
0001
0000
0010
0000
,  // measure 68
0100
0000
1000
0100
0000
0010
0000
1000
,  // measure 69
0001
0000
0100
0010
0000
0100
0001
0000
,  // measure 70
1000
0010
1000
0000
0001
0000
1000
0000
,  // measure 71
0001
0020
0100
1030
,  // measure 72
1010
0001
0100
0001
,  // measure 73
0010
0100
0000
0010
0001
0000
1000
0000
,  // measure 74
0100
0010
0100
0000
1000
0001
0000
0001
,  // measure 75
0100
0010
0000
1000
0000
1000
0100
0000
,  // measure 76
0010
0000
0001
1000
0001
0000
0010
0000
,  // measure 77
0100
0000
1100
0000
0000
0011
0000
0000
,  // measure 78
0001
1000
0100
0010
0001
0000
1100
0000
,  // measure 79
0101
0000
1001
0000
1000
0010
0100
0001
,  // measure 80
1000
0101
1100
1001
,  // measure 81
0010
1000
0100
0010
0001
0010
0100
0000
,  // measure 82
1000
0000
0001
0000
0100
0010
1000
0010
,  // measure 83
0100
0001
1000
0000
0010
0000
0100
0000
,  // measure 84
0001
0100
0001
0010
1000
0010
0001
0100
,  // measure 85
0001
0010
1000
0010
0001
0100
0001
0010
,  // measure 86
1000
0010
0001
0100
0001
1000
0002
0000
,  // measure 87
1003
0100
1000
0001
1000
0010
1000
0100
,  // measure 88
1000
0001
1000
0010
1000
0100
1000
0001
,  // measure 89
1000
0010
1000
0100
0010
0001
1000
0000
,  // measure 90
1001
0001
0100
0010
1000
0000
0101
0000
,  // measure 91
1100
0000
1001
0000
0001
0010
0100
1000
,  // measure 92
0001
1100
0101
1001
,  // measure 93
0010
0001
0100
0010
1000
0010
0100
0000
,  // measure 94
0001
0000
1000
0000
0100
0010
0001
0010
,  // measure 95
0100
1000
0001
0000
0010
0000
0100
0000
,  // measure 96
1000
0100
1000
0010
0001
0010
1000
0100
,  // measure 97
1000
0010
0001
0010
1000
0100
1000
0010
,  // measure 98
0001
0010
1000
0100
1000
0001
2000
0000
,  // measure 99
3001
0100
0001
1000
0001
0010
0001
0100
,  // measure 100
0001
1000
0001
0000
0101
0000
1001
0000
,  // measure 101
1100
0110
0011
1001
,  // measure 102
0220
0000
0000
0000
,  // measure 103
0000
0000
0000
0000
,  // measure 104
0330
0000
0000
0000
;

//---------------dance-single - [Ness]----------------
#NOTES:
     dance-single:
     [Ness]:
     Medium:
     6:
     0.346480,0.624737,0.135159,0.360425,0.000000,323.000000,305.000000,18.000000,48.000000,0.000000,0.000000,0.346480,0.624737,0.135159,0.360425,0.000000,323.000000,305.000000,18.000000,48.000000,0.000000,0.000000:
0000
0000
0000
0000
,
0000
0000
0000
0000
,
0000
0000
0000
0000
,
0000
0000
0000
0000
,
0000
0000
0000
0000
,
0000
0000
0000
0000
,
0001
0010
0100
1000
,
0001
0100
0020
0000
,
0030
2002
0000
3003
,
0010
1000
0100
0010
,
0001
0100
0020
0000
,
0030
2002
0000
3003
,
0001
1000
0001
0100
,
0001
1000
0200
0000
,
0300
2002
0000
3003
,
0010
1000
0100
0010
,
0001
0010
0200
0000
,
0300
2002
0000
3003
,
1000
0010
0100
0001
,
0100
0010
2000
0000
,
0000
3002
0000
0000
,
0013
0001
0010
0100
,
1000
0100
0020
0000
,
0000
0032
0000
0000
,
1003
0010
0100
0001
,
0100
0010
2000
0000
,
0000
3002
0000
0000
,
0013
0100
1000
0001
,
1000
0100
0020
0000
,
0000
0032
0000
0000
,
1003
0001
0100
0010
,
1000
0010
0200
0000
,
0300
2002
0000
3003
,
0001
0010
1000
0010
,
0001
0100
2000
0000
,
3000
2002
0000
3003
,
1000
0100
0010
0001
,
0100
0010
2000
0000
,
3000
2002
0000
3003
,
1000
0010
0001
0010
,
1000
0100
0002
0000
,
0003
2002
0000
3003
,
0100
1000
0010
0100
,
0001
0010
0100
1000
,
0010
0100
0001
0010
,
0200
0000
0000
2300
,
0000
0000
3002
0000
,
0000
0203
0000
0000
,
0310
1000
0100
0010
,
0001
0100
0010
1000
,
0100
0010
0001
0100
,
0010
0100
0010
1000
,
0001
1000
1001
1001
,
1001
0110
0110
0110
,
2002
0000
3003
0010
,
1000
0100
0010
0001
,
0100
0001
1000
0100
,
0010
0000
0000
0001
0000
0000
0100
0000
,
0000
0010
0000
0000
1000
0000
0100
0000
,
0010
0001
1000
0100
,
0020
0000
0000
0031
,
1000
0010
0100
0001
,
0010
0200
0000
0000
,
1300
0000
0000
0100
0000
0000
0010
0000
,
0001
1000
0010
0100
,
0001
0000
1000
0000
0000
0010
0000
0000
,
2002
0000
3003
0010
,
0001
0100
0010
1000
,
0100
1000
0001
0100
,
0010
0000
0000
1000
0000
0000
0100
0000
,
0000
0010
0000
0000
0001
0000
0100
0000
,
0010
1000
0001
0100
,
0020
0000
0000
1030
,
0001
0010
0100
1000
,
0010
0200
0000
0000
,
0301
0000
0000
1000
0000
0000
0100
0000
,
0010
0001
1000
0001
,
1000
0000
0100
0000
0000
0010
0000
0000
,
1001
0001
1000
0001
,
0100
0001
1000
0001
,
1000
0001
0100
0001
,
1000
0010
1000
0001
,
1000
0100
1000
0001
,
1000
0100
0010
0100
,
0010
0001
0100
0001
,
0100
0001
0010
0100
,
0010
0002
0000
0000
,
1003
0100
0010
0100
,
1000
0100
0010
0001
,
1000
0200
0000
0000
,
0310
0100
0010
0100
,
1000
0100
0010
0100
,
0010
0100
1000
0100
,
0010
0001
0010
0100
,
0010
1000
0010
0100
,
0010
1000
0001
1000
,
0001
0100
1000
0100
,
1000
0010
1000
0010
,
0001
0010
0001
0100
,
0001
0100
1000
0100
,
1000
0010
1000
0010
,
0001
0010
0001
0100
,
2002
0000
0000
0000
,
0000
0000
0000
0000
,
3003
0000
0000
0000
;

//---------------dance-single - [Ness]----------------
#NOTES:
     dance-single:
     [Ness]:
     Easy:
     4:
     0.210248,0.312369,0.045053,0.315372,0.000000,196.000000,190.000000,6.000000,42.000000,0.000000,0.000000,0.210248,0.312369,0.045053,0.315372,0.000000,196.000000,190.000000,6.000000,42.000000,0.000000,0.000000:
0000
0000
0000
0000
,
0000
0000
0000
0000
,
0000
0000
0000
0000
,
0000
0000
0000
0000
,
0000
0000
0000
0000
,
0000
0000
0000
0000
,
0001
0000
0000
0010
,
0100
0010
0100
0000
,
0000
2000
0000
0000
,
3001
0000
0000
0100
,
0010
0100
0010
0000
,
0000
2000
0000
0000
,
3100
0000
0000
0010
,
0100
0010
0100
0000
,
0000
0020
0000
0000
,
0031
0000
0000
1000
,
0001
1000
0001
0000
,
0000
0200
0000
0000
,
0320
0000
0000
2030
,
0000
0000
3000
0000
,
0000
0100
0000
0000
,
0020
0000
0000
0032
,
0000
0000
0103
0000
,
0000
0010
0000
0000
,
2000
0000
0000
3200
,
0000
0000
0310
0000
,
0000
0001
0000
0000
,
2000
0000
0000
3002
,
0000
0000
0103
0000
,
0000
0010
0000
0000
,
1000
0000
0000
0100
,
1000
0001
0100
0000
,
0000
0020
0000
0000
,
1030
0000
0000
0001
,
0010
0100
1000
0000
,
0000
0020
0000
0000
,
0130
0000
0000
0001
,
1000
0100
0010
0000
,
0000
0002
0000
0000
,
1003
0000
0000
0010
,
0100
0001
1000
0000
,
0000
0200
0000
0000
,
0310
0000
0000
0001
,
0000
0000
1000
0000
,
0000
1100
0000
0000
,
0010
0000
0000
0100
,
0000
0000
0010
0000
,
0000
0011
0000
0000
,
1000
0000
0000
0001
,
0000
0000
0100
0000
,
0000
0110
0000
0000
,
0010
0000
0000
1000
,
0000
0000
0100
0100
,
0100
0010
0010
0010
,
2002
0000
3003
0020
,
0000
0030
0100
0100
,
0001
1000
0000
0000
,
0010
0000
0000
0100
,
0000
0000
0010
0010
,
1000
0001
0000
0000
,
0010
0000
0000
0100
,
0000
0000
1000
0000
,
0000
0001
0000
0000
,
0010
0000
0000
0100
,
0100
1000
0001
0000
,
0000
0100
0100
0001
,
2002
0000
3003
0020
,
0000
0030
0100
0010
,
1000
1000
0000
0000
,
0001
0000
0000
0010
,
0000
0000
0100
1000
,
0010
0010
0000
0000
,
0100
0000
0000
0001
,
0000
0000
1000
0000
,
0000
0100
0000
0000
,
0010
0000
0000
0001
,
0100
0010
1000
0000
,
0000
1000
0010
0100
,
0001
1000
0001
2000
,
0000
0000
3001
1000
,
0001
2000
0000
0000
,
3200
0000
0000
0320
,
0000
0000
0032
0000
,
0000
2003
0000
0000
,
3010
0100
0010
2000
,
0000
0000
3001
0100
,
0010
2000
0000
0000
,
3100
0010
0100
0020
,
0000
0000
0031
1000
,
0100
1000
0000
0000
,
1000
0001
1000
0002
,
0000
0000
1003
0001
,
1000
0002
0000
0000
,
0023
0000
0000
0230
,
0000
0000
2300
0000
,
0000
3002
0000
0000
,
0103
0010
0100
0002
,
0000
0000
1003
0010
,
0100
0002
0000
0000
,
0013
0100
0010
0200
,
0000
0000
1300
0001
,
0010
0100
1000
0001
,
2002
0000
0000
0000
,
0000
0000
0000
0000
,
3003
0000
0000
0000
;

//---------------dance-single - [Ness]----------------
#NOTES:
     dance-single:
     [Ness]:
     Beginner:
     2:
     0.136232,0.195230,0.030035,0.090106,0.000000,127.000000,123.000000,4.000000,12.000000,0.000000,0.000000,0.136232,0.195230,0.030035,0.090106,0.000000,127.000000,123.000000,4.000000,12.000000,0.000000,0.000000:
0000
0000
0000
0000
,
0000
0000
0000
0000
,
0000
0000
0000
0000
,
0000
0000
0000
0000
,
0000
0000
0000
0000
,
0000
0000
0000
0000
,
0010
0000
0000
1000
,
0000
0000
0100
0000
,
0000
0010
0000
0000
,
0001
0000
0000
1000
,
0000
0000
0010
0000
,
0000
0100
0000
0000
,
0010
0000
0000
1000
,
0000
0000
0100
0000
,
0000
0010
0000
0000
,
0001
0000
0000
1000
,
0000
0000
0010
0000
,
0000
0100
0000
0000
,
0001
0000
0000
0010
,
0000
0000
0000
0000
,
0000
0100
0000
0000
,
1000
0000
0000
0010
,
0000
0000
0000
0000
,
0000
0100
0000
0000
,
0001
0000
0000
1000
,
0000
0000
0000
0000
,
0000
0100
0000
0000
,
1000
0000
0000
0001
,
0000
0000
0000
0000
,
0000
0100
0000
0000
,
0010
0000
0000
1000
,
0000
0000
0100
0000
,
0000
0010
0000
0000
,
0001
0000
0000
0100
,
0000
0000
0010
0000
,
0000
1000
0000
0000
,
0100
0000
0000
0001
,
0000
0000
0100
0000
,
0000
1000
0000
0000
,
0010
0000
0000
0100
,
0000
0000
0001
0000
,
0000
0010
0000
0000
,
0200
0000
0000
0000
,
0300
0000
2000
0000
,
0000
0000
3000
0000
,
0020
0000
0000
0000
,
0030
0000
0200
0000
,
0000
0000
0300
0000
,
0002
0000
0000
0000
,
0003
0000
0020
0000
,
0000
0000
0030
0000
,
0100
0000
0000
1000
,
0000
0000
0001
0000
,
0000
1001
0000
0000
,
0220
0000
0330
0100
,
0000
0000
0100
0000
,
0000
0100
0000
0000
,
0010
0000
0000
1000
,
0000
0000
0100
0000
,
0000
0010
0000
0000
,
0001
0000
0000
1000
,
0000
0000
0010
0000
,
0000
0100
0000
0000
,
0001
0000
0000
0010
,
0000
0000
0100
0000
,
0000
1000
0000
0000
,
2002
0000
3003
1000
,
0000
0000
0001
0000
,
0000
0100
0000
0000
,
0010
0000
0000
1000
,
0000
0000
0100
0000
,
0000
0010
0000
0000
,
0001
0000
0000
1000
,
0000
0000
0010
0000
,
0000
0100
0000
0000
,
0001
0000
0000
0010
,
0000
0000
0100
0000
,
0000
1000
0000
0000
,
0001
0000
0000
0010
,
0010
0000
0100
0000
,
0000
1000
1000
0000
,
0010
0000
0000
0100
,
0000
0000
0001
0000
,
0000
1000
0000
0000
,
0100
0000
0000
0001
,
0000
0000
0100
0000
,
0000
1000
0000
0000
,
0010
0000
0000
0001
,
0000
0000
0010
0000
,
0000
1000
0000
0000
,
0001
0000
0000
0100
,
0100
0000
0010
0000
,
0000
1000
1000
0000
,
0100
0000
0000
0001
,
0000
0000
0100
0000
,
0000
1000
0000
0000
,
0010
0000
0000
0100
,
0000
0000
0001
0000
,
0000
1000
0000
0000
,
0100
0000
0000
0010
,
0000
0000
0001
0000
,
0000
1000
0000
0000
,
2002
0000
0000
0000
,
0000
0000
0000
0000
,
3003
0000
0000
0000
;
