#TITLE:Little Talks;
#SUBTITLE:;
#ARTIST:Of Monsters And Men;
#TITLETRANSLIT:;
#SUBTITLETRANSLIT:;
#ARTISTTRANSLIT:;
#GENRE:My Head Is An Animal;
#CREDIT:;
#BANNER:Little Talks-bn.png;
#BACKGROUND:Little Talks-bg.png;
#LYRICSPATH:;
#CDTITLE:;
#MUSIC:Little Talks.mp3;
#OFFSET:0.638000;
#SAMPLESTART:55.801998;
#SAMPLELENGTH:18.195999;
#LASTBEATHINT:396.034058;
#SELECTABLE:YES;
#DISPLAYBPM:98.000000:212.000000;
#BPMS:0.000000=207.000000
,40.000000=206.500000
,48.000000=205.979996
,56.000000=208.000000
,64.000000=205.000000
,75.500000=195.100006
,77.000000=205.979996
,81.000000=205.000000
,100.000000=212.000000
,112.020836=204.000000
,126.000000=211.000000
,132.000000=210.000000
,135.000000=206.000000
,143.000000=210.000000
,191.000000=196.000000
,194.000000=205.000000
,206.000000=210.000000
,221.000000=206.000000
,249.000000=209.000000
,251.020828=215.000000
,254.000000=213.600006
,259.000000=210.000000
,260.020844=150.000000
,260.500000=130.000000
,261.000000=120.000000
,261.500000=100.000000
,262.000000=88.000000
,262.500000=78.000000
,263.000000=68.000000
,263.500000=63.099998
,266.000000=108.000000
,268.000000=98.000000
,272.000000=104.000000
,277.000000=98.000000
,278.020844=100.000000
,281.000000=103.000000
,294.000000=154.500000
,295.000000=158.000000
,304.000000=150.000000
,306.750000=157.000000
,310.500000=155.000000
,315.750000=210.667007
,317.000000=206.000000
,324.000000=204.000000
,332.000000=208.000000
,342.000000=207.000000
,362.000000=208.000000
,381.000000=185.000000
,382.000000=100.000000
,383.000000=101.000000
,385.500000=96.000000
,386.500000=100.000000
,389.000000=94.000000
,390.000000=100.000000
;
#STOPS:294.000000=2.015000,
315.750000=0.478000
;
#BGCHANGES:2.500=Little Talks.avi=1.000=0=0=0=StretchNoLoop====,
99999=-nosongbg-=1.000=0=0=0 // don't automatically add -songbackground-
;
#KEYSOUNDS:;
#ATTACKS:;

//---------------dance-single - ----------------
#NOTES:
     dance-single:
     :
     Hard:
     8:
     0.410229,0.474473,0.192924,0.022260,0.115012,358.000000,26.000000,3.000000,0.000000,0.000000,0.000000,0.410229,0.474473,0.192924,0.022260,0.115012,358.000000,26.000000,3.000000,0.000000,0.000000,0.000000:
0000
0000
0000
0000
,
0000
0000
0000
0000
,
0000
0000
0000
0000
,
0000
0000
0000
0000
,
0000
0000
0000
0000
,
0000
0000
0000
0000
,
0000
0000
0000
0000
,
0000
0000
0000
0000
,
0000
0000
0000
0000
,
0001
1000
0010
0100
,
0001
0000
1000
0100
0000
0100
0010
0000
,
0001
1000
0001
0100
,
1001
0100
0010
1000
,
0001
0010
0100
1000
,
0001
0000
1000
0001
0000
0001
0100
0000
,
0010
1000
0001
0100
,
0010
0100
0001
1000
,
1001
1000
0002
0000
,
1003
0010
0100
0001
0000
1000
0000
0001
,
0000
0000
0100
0000
0010
0000
1000
0001
,
0000
0000
0000
1000
,
0100
0010
0100
1000
,
0001
0000
1000
0010
0000
0100
0000
0001
,
0000
0000
0000
0000
,
0000
0000
0000
0010
,
0100
0000
0100
0000
,
1000
0000
0001
0100
0000
0001
0000
1000
,
0000
0000
0010
0000
1000
0000
0100
0010
,
0000
0000
0001
1000
,
0001
0000
0000
0000
0100
0010
0000
1000
,
0000
0000
0001
1000
0000
0000
0100
0010
,
0000
0000
0000
0000
,
0000
0000
0000
0000
,
1001
1000
0010
1000
,
0001
0000
0100
0010
0000
0100
0001
0000
,
1000
0000
0100
0000
0000
0010
0000
0000
,
0001
1000
0001
0100
,
0010
1000
0100
0010
,
0001
0000
1000
0100
0000
0100
0010
0000
,
0001
1000
0010
0100
,
0001
1000
0100
0010
,
0001
1000
0001
1000
,
0010
1000
0000
0001
0100
0000
0010
0000
,
1000
0000
0100
0000
0000
0010
0000
0000
,
0001
0000
1000
0100
1000
0000
0001
0000
,
0100
0100
0010
0010
,
1000
0000
0001
1000
0000
0001
1000
0000
,
0010
0100
0001
1000
,
1001
0000
0000
0001
,
0010
1000
0010
0001
,
1000
0000
0001
0100
0000
0000
1001
0000
,
0000
0101
0000
1010
,
0001
1100
0000
0100
,
0010
0001
1000
0010
,
0100
0000
0001
1000
0000
0001
0100
0000
,
0000
0110
0000
1010
,
0001
1100
0100
0010
,
0001
0100
1000
0100
,
0001
0100
0000
0001
1000
0000
0100
0000
,
0010
0000
0011
0000
0000
1001
0000
0000
,
0101
0000
0001
1000
0000
0100
1000
0000
,
0100
0010
0001
1000
,
0010
0000
1000
0100
0000
0001
0100
0000
,
0010
0010
0100
0100
,
1000
1000
0001
0001
,
2002
0000
0000
0000
,
0000
3003
0010
1000
,
0001
0000
1000
0100
0000
0000
1000
0000
0100
0000
1000
0000
0010
1000
0000
0001
,
0000
0000
0000
0000
0100
0010
0100
0000
,
0001
0000
1000
0001
0000
0000
0100
0001
0000
0000
0000
0000
0000
0000
0000
0000
,
0000
0000
1000
0100
0010
0000
0001
0000
,
1000
0000
0001
0100
0000
0000
0001
0000
0100
0000
0001
0000
1000
0010
0000
1000
,
0000
0000
0000
0100
0010
0001
1000
0100
,
0010
0000
0001
1000
0000
0000
0100
0000
0000
0000
0000
0000
0010
0000
0000
0010
,
0000
0000
0000
0000
0001
0000
0000
0000
0000
0000
0001
0000
0000
0000
0000
0000
1000
0000
0000
0000
0000
0000
1000
0000
0000
0001
0000
0000
0000
0000
0000
0001
,
0000
0000
0100
0000
0000
0000
0000
0000
0001
0000
0000
0000
0000
0000
1000
0000
0000
0000
0000
0000
0010
0000
0000
0000
0000
0000
0100
0000
0000
0001
0000
0000
,
0000
0000
0000
0000
0000
0000
0000
0000
1000
0000
0000
0010
0000
0000
0010
0000
,
0000
0000
0100
0000
0000
0000
0000
0000
0100
0000
0000
0000
0000
0000
0001
0000
0000
0000
0000
0000
1000
0000
0000
0010
0000
0000
0000
0000
0000
0010
0000
0000
,
1000
0000
0000
0001
0000
0000
0001
0000
0000
1000
0000
0000
1000
0000
0000
1001
,
0000
1000
0010
0001
,
0010
0000
1000
0000
0001
0000
1000
0100
,
0000
0100
0010
0000
0001
0000
1001
0000
,
0000
0101
1000
0011
,
0000
0110
1000
0100
,
0001
0000
0100
0000
1000
0000
0001
0100
,
0000
0100
0010
0000
1000
0000
0110
0000
,
0000
1010
0001
1100
,
0100
0010
0001
0100
,
1000
0000
0100
0000
0001
1000
0000
0100
,
1000
0001
0010
0011
,
0000
1001
0000
0000
0101
0000
0001
1000
,
0000
1000
0100
0000
1000
0000
0010
0000
,
0001
0000
0010
0000
1000
0000
0100
0010
,
0000
0010
0001
0000
1000
0000
0001
0000
,
0100
0010
1000
0100
,
0010
0001
1000
0001
,
1000
0100
0000
1000
0000
0000
0000
0000
0000
0000
0001
0000
0000
1000
0000
0000
,
0100
0000
1000
0100
0000
0000
0000
0000
1000
0000
0000
0000
0010
0000
0000
0000
,
0100
0000
0000
0001
0000
0000
1000
0000
0000
0000
0000
0000
0000
0000
0000
0000
;

//---------------dance-single - ----------------
#NOTES:
     dance-single:
     :
     Medium:
     6:
     0.270306,0.328481,0.029681,0.014840,0.040811,249.000000,4.000000,2.000000,0.000000,0.000000,0.000000,0.270306,0.328481,0.029681,0.014840,0.040811,249.000000,4.000000,2.000000,0.000000,0.000000,0.000000:
0000
0000
0000
0000
,
0000
0000
0000
0000
,
0000
0000
0000
0000
,
0000
0000
0000
0000
,
0000
0000
0000
0000
,
0000
0000
0000
0000
,
0000
0000
0000
0000
,
0000
0000
0000
0000
,
0000
0000
0000
0000
,
0001
1000
0001
0100
,
0001
0000
0000
0100
0000
0000
0001
0000
,
0000
0000
0000
0000
,
1000
0000
0000
0000
,
0010
1000
0010
1000
,
0001
0000
0000
1000
0000
0000
0100
0000
,
0000
0000
0000
0000
,
0010
0000
0000
0000
,
1001
0000
0100
0000
,
0001
0000
0000
0001
0000
0000
0000
1000
,
0000
0000
0001
0000
0100
0000
0000
0001
,
0000
0000
0000
1000
,
0100
1000
0001
0000
,
0100
0000
0000
0010
0000
0000
0000
0100
,
0000
0000
0000
0000
,
0000
0000
0000
0000
,
1000
0000
0001
0000
,
1000
0000
0000
1000
0000
0000
0000
0001
,
0000
0000
0000
0000
0100
0000
0000
0100
,
0000
0000
0001
1000
,
0001
0000
0000
0000
0010
0000
0000
0010
,
0000
0000
0000
0100
0000
0000
0000
0100
,
0000
0000
0000
0000
,
0000
0000
0000
0000
,
1000
0000
0001
0000
,
0100
0000
0000
0001
0000
0000
1000
0000
,
0100
0000
0010
0000
0000
0001
0000
0000
,
0100
0000
0001
1000
,
0100
1000
0001
0100
,
0010
0000
0000
0100
0000
0000
0001
0000
,
1000
0000
0100
0000
,
0010
0001
0100
0001
,
0010
0000
0100
0000
,
1000
0000
0000
0001
0000
0000
0100
0000
,
0001
0000
1000
0000
0000
0010
0000
0000
,
1000
0000
0000
0100
0000
0000
0000
0000
,
0001
0000
1000
0000
,
0100
0000
0000
0010
0000
0000
0100
0000
,
1000
0000
0001
0000
,
1001
0000
0000
0000
,
1000
0100
0010
0001
,
1000
0000
0000
0001
0000
0000
0100
0000
,
0000
0001
0000
1000
,
0010
0100
0000
0001
,
1000
0001
0100
0010
,
1000
0000
0000
0100
0000
0000
0010
0000
,
0001
1000
0000
0001
,
0100
0010
1000
0001
,
1000
0000
0100
0000
,
0010
0000
0000
0001
0000
0000
0100
0000
,
0010
0000
1000
0000
0000
0001
0000
0000
,
1000
0000
0000
0100
0000
0000
0010
0000
,
0001
0100
0001
1000
,
0010
0000
0000
1000
0000
0000
0001
0000
,
1000
1000
0001
0001
,
0100
0100
0010
0010
,
2002
0000
0000
0000
,
3003
0000
0010
1000
,
0001
0000
0000
0000
0010
0001
0100
0000
,
0001
0000
0000
0000
1000
0010
1000
0000
,
0001
0100
0010
0000
,
0000
0000
0010
1000
0001
0000
1000
0000
,
0001
0000
0100
0000
0010
0000
1000
0100
,
1000
0000
0000
0000
0001
0010
0001
0000
,
1000
0100
0010
0001
,
0000
0001
0000
0000
1000
0000
0000
1000
,
0000
0000
0010
0000
0000
0100
0000
0000
,
0001
0000
0000
0000
0000
0000
1000
0000
0000
0000
0000
0010
0000
0000
0000
0000
,
0000
1000
0000
0000
0000
0000
0000
0001
0000
0000
0000
0000
0000
0100
0000
0000
,
0000
0000
0000
0010
0000
0000
0000
0000
0000
0100
0000
0000
0000
0000
0000
1001
,
0000
0000
1000
0100
,
0010
0000
0001
0000
1000
0000
0000
0001
,
0000
0100
0000
0010
,
0000
1000
0001
1000
,
0000
0100
0010
0001
,
1000
0000
0100
0000
0010
0000
0000
0001
,
0000
0100
0001
1000
,
0000
0100
0010
0001
,
1000
0100
0010
0000
,
0010
0000
0000
0000
0001
0000
0000
1000
,
0000
0010
1000
0100
,
0000
0010
0000
0000
0001
0000
0000
1000
,
0000
0010
1000
0001
,
0100
0000
0001
0000
1000
0000
0000
0001
,
0000
0100
0010
1000
,
0001
1000
0100
0010
,
0001
1000
0001
0100
,
0001
0000
0000
1000
0000
0000
0000
0000
0000
0000
0010
0000
0000
1000
0000
0000
,
0001
0000
0000
1000
0000
0000
0000
0000
0001
0000
0000
0000
0100
0000
0000
0000
,
0010
0000
0000
1000
0000
0000
0001
0000
0000
0000
0000
0000
0000
0000
0000
0000
;

//---------------dance-single - ----------------
#NOTES:
     dance-single:
     :
     Easy:
     3:
     0.154763,0.219266,0.022260,0.014840,0.014840,141.000000,3.000000,2.000000,0.000000,0.000000,0.000000,0.154763,0.219266,0.022260,0.014840,0.014840,141.000000,3.000000,2.000000,0.000000,0.000000,0.000000:
// measure 0
0000
0000
0000
0000
,  // measure 1
0000
0000
0000
0000
,  // measure 2
0000
0000
0000
0000
,  // measure 3
0000
0000
0000
0000
,  // measure 4
0000
0000
0000
0000
,  // measure 5
0000
0000
0000
0000
,  // measure 6
0000
0000
0000
0000
,  // measure 7
0000
0000
0000
0000
,  // measure 8
0000
0000
0000
0000
,  // measure 9
1000
0000
0100
0000
,  // measure 10
0001
0000
0100
0000
,  // measure 11
1000
0000
0000
0000
,  // measure 12
1001
0000
0000
0000
,  // measure 13
0001
0000
0010
0000
,  // measure 14
1000
0000
0010
0000
,  // measure 15
0001
0000
0000
0000
,  // measure 16
1000
0000
0000
0000
,  // measure 17
0100
0000
0000
0000
,  // measure 18
0100
0000
0000
0000
,  // measure 19
0010
0000
0000
0000
,  // measure 20
0000
0000
0000
0000
,  // measure 21
0001
0000
0000
0000
,  // measure 22
1000
0000
0000
0000
,  // measure 23
0100
0000
0000
0000
,  // measure 24
0000
0000
0000
0000
,  // measure 25
0010
0000
0000
0000
,  // measure 26
0001
0000
0000
0000
,  // measure 27
1000
0000
0000
0000
,  // measure 28
0000
0000
0000
0000
,  // measure 29
0010
0000
0000
0000
,  // measure 30
1000
0000
0000
0000
,  // measure 31
0001
0000
0000
0000
,  // measure 32
0000
0000
0000
0000
,  // measure 33
1000
0000
0100
0000
,  // measure 34
0010
0000
0001
0000
,  // measure 35
1000
0000
0100
0000
,  // measure 36
0010
0000
0000
0000
,  // measure 37
0001
0000
0100
0000
,  // measure 38
0010
0000
1000
0000
,  // measure 39
0001
0000
0000
0000
,  // measure 40
0000
0000
0000
0000
,  // measure 41
1000
0000
0010
0000
,  // measure 42
0100
0000
0001
0000
,  // measure 43
1000
0000
0010
0000
,  // measure 44
0100
0000
0001
0000
,  // measure 45
1000
0000
0001
0000
,  // measure 46
0100
0000
0010
0000
,  // measure 47
0100
0000
0001
0000
,  // measure 48
1000
0000
0000
0000
,  // measure 49
0001
0000
0010
0000
,  // measure 50
1000
0000
0010
0000
,  // measure 51
0001
0000
0010
0000
,  // measure 52
1000
0000
0010
0000
,  // measure 53
0001
0000
0100
0000
,  // measure 54
0010
0000
0100
0000
,  // measure 55
0001
0000
0100
0000
,  // measure 56
0010
0000
0100
0000
,  // measure 57
0001
0000
1000
0000
,  // measure 58
0100
0000
0010
0000
,  // measure 59
0001
0000
1000
0000
,  // measure 60
0010
0000
0100
0000
,  // measure 61
0001
0000
0010
0000
,  // measure 62
0100
0000
1000
0000
,  // measure 63
0001
0000
0001
0000
,  // measure 64
1000
0000
1000
0000
,  // measure 65
2002
0000
0000
0000
,  // measure 66
3003
0000
0010
0000
,  // measure 67
1000
0000
0100
0000
,  // measure 68
0000
0000
1000
0000
,  // measure 69
0100
0000
0010
0000
,  // measure 70
0000
0000
0001
0000
,  // measure 71
1000
0000
0010
0000
,  // measure 72
0000
0000
0100
0000
,  // measure 73
0001
0000
1000
0100
,  // measure 74
0000
0000
0010
0000
,  // measure 75
0000
0100
0000
0000
,  // measure 76
0000
0000
0000
0000
0000
0000
0000
0000
0000
0000
0000
1000
0000
0000
0000
0000
,  // measure 77
0000
0000
0000
0000
0000
0000
0000
0001
0000
0000
0000
0000
0000
0000
0000
0000
,  // measure 78
0000
0000
0000
0100
0000
0000
0000
0000
0000
0000
0000
0000
0000
0000
0000
1001
,  // measure 79
0000
0000
1000
0000
,  // measure 80
0100
0000
0001
0000
,  // measure 81
0100
0000
1000
0000
,  // measure 82
0100
0000
0001
0000
,  // measure 83
0100
0000
1000
0000
,  // measure 84
0010
0000
0100
0000
,  // measure 85
0001
0000
1000
0000
,  // measure 86
0010
0000
0100
0000
,  // measure 87
0001
0000
1000
0000
,  // measure 88
0001
0000
1000
0000
,  // measure 89
0001
0000
0010
0000
,  // measure 90
0100
0000
1000
0000
,  // measure 91
0010
0000
0100
0000
,  // measure 92
0001
0000
1000
0000
,  // measure 93
0001
0000
1000
0000
,  // measure 94
0010
0000
0100
0000
,  // measure 95
0001
0000
1000
0000
,  // measure 96
0100
0000
0010
0000
,  // measure 97
0000
0000
0001
0000
,  // measure 98
1000
0000
0100
0000
;

//---------------dance-single - ----------------
#NOTES:
     dance-single:
     :
     Beginner:
     2:
     0.117663,0.182721,0.022260,0.014840,0.011130,106.000000,3.000000,2.000000,0.000000,0.000000,0.000000,0.117663,0.182721,0.022260,0.014840,0.011130,106.000000,3.000000,2.000000,0.000000,0.000000,0.000000:
0000
0000
0000
0000
,
0000
0000
0000
0000
,
0000
0000
0000
0000
,
0000
0000
0000
0000
,
0000
0000
0000
0000
,
0000
0000
0000
0000
,
0000
0000
0000
0000
,
0000
0000
0000
0000
,
0000
0000
0000
0000
,
1000
0000
0000
0000
,
0001
0000
0000
0000
,
0100
0000
0000
0000
,
0010
0000
0000
0000
,
1000
0000
0000
0000
,
0010
0000
0000
0000
,
0100
0000
0000
0000
,
0001
0000
0000
0000
,
1001
0000
0000
0000
,
0000
0000
0000
0000
,
0100
0000
0000
0000
,
0000
0000
0000
0000
,
1000
0000
0000
0000
,
1000
0000
0000
0000
,
1000
0000
0000
0000
,
0000
0000
0000
0000
,
0001
0000
0000
0000
,
0100
0000
0000
0000
,
0001
0000
0000
0000
,
0000
0000
0000
0000
,
0010
0000
0000
0000
,
0010
0000
0000
0000
,
0010
0000
0000
0000
,
0000
0000
0000
0000
,
0100
0000
0000
0000
,
1000
0000
0000
0000
,
0001
0000
0000
0000
,
0100
0000
0000
0000
,
0010
0000
0000
0000
,
1000
0000
0000
0000
,
0100
0000
0000
0000
,
0000
0000
0000
0000
,
0010
0000
0000
0000
,
0001
0000
0000
0000
,
1000
0000
0000
0000
,
0010
0000
0000
0000
,
0100
0000
0000
0000
,
0001
0000
0000
0000
,
1000
0000
0000
0000
,
1001
0000
0000
0000
,
0100
0000
0100
0000
,
0100
0000
0100
0000
,
0100
0000
0000
0000
,
0010
0000
0000
0000
,
1000
0000
1000
0000
,
1000
0000
1000
0000
,
1000
0000
0000
0000
,
0001
0000
0000
0000
,
0010
0000
0000
0000
,
0100
0000
0000
0000
,
1000
0000
0000
0000
,
0001
0000
0000
0000
,
0100
0000
0100
0000
,
0100
0000
0100
0000
,
0100
0000
0000
0000
,
0010
0000
0000
0000
,
2002
0000
0000
3003
,
0000
0000
0010
0000
,
0010
0000
0010
0000
,
0000
0000
0100
0000
,
0100
0000
0100
0000
,
0000
0000
1000
0000
,
1000
0000
1000
0000
,
0000
0000
0001
0000
,
0001
0000
0001
0001
,
0000
0000
0100
0000
,
0000
1000
0000
0000
,
0000
0000
0000
0000
0000
0000
0000
0000
0000
0000
0000
0010
0000
0000
0000
0000
,
0000
0000
0000
0000
0000
0000
0000
0010
0000
0000
0000
0000
0000
0000
0000
0000
,
0000
0000
0000
0100
0000
0000
0000
0000
0000
0000
0000
0000
0000
0000
0000
0000
,
0000
0000
1000
0000
,
1000
0000
1000
0000
,
1000
0000
1000
0000
,
0000
0000
0001
0000
,
0000
0000
0100
0000
,
0100
0000
0100
0000
,
0100
0000
0100
0000
,
0000
0000
0010
0000
,
0000
0000
1000
0000
,
1000
0000
1000
0000
,
0000
0000
0001
0000
,
0001
0000
0001
0000
,
0000
0000
0010
0000
,
0010
0000
0010
0000
,
0000
0000
0100
0000
,
0100
0000
0100
0000
,
0100
0000
0100
0000
,
1000
0000
0001
0000
,
0000
0000
0100
0000
,
0001
0000
1000
0000
;
