#VERSION:0.83;
#TITLE:Lights;
#SUBTITLE:;
#ARTIST:Ellie Goulding;
#TITLETRANSLIT:;
#SUBTITLETRANSLIT:;
#ARTISTTRANSLIT:;
#GENRE:Lights;
#ORIGIN:;
#CREDIT:;
#BANNER:Lights-bn.png;
#BACKGROUND:Black.png;
#PREVIEWVID:Lights-preview.avi;
#JACKET:Lights-jacket.png;
#CDIMAGE:;
#DISCIMAGE:Lights-bg.png;
#LYRICSPATH:;
#CDTITLE:;
#MUSIC:Lights.mp3;
#OFFSET:0.006000;
#SAMPLESTART:87.235947;
#SAMPLELENGTH:24.000000;
#SELECTABLE:YES;
#DISPLAYBPM:120.000000;
#BPMS:0.000=120.000,
171.500=70.000,
171.667=35.000,
172.000=120.000;
#STOPS:172.000=1.033;
#DELAYS:;
#WARPS:;
#TIMESIGNATURES:0.000=4=4;
#TICKCOUNTS:0.000=2;
#COMBOS:0.000=1;
#SPEEDS:0.000=1.000=0.000=0;
#SCROLLS:0.000=1.000;
#FAKES:;
#LABELS:0.000=Song Start;
#LASTSECONDHINT:143.522964;
#BGCHANGES:0.000=Lights-vid.avi=1.000=1=0=0=StretchNoLoop====,
99999=-nosongbg-=1.000=0=0=0 // don't automatically add -songbackground-
;
#KEYSOUNDS:;
#ATTACKS:
;

//---------------dance-single - ----------------
#NOTEDATA:;
#CHARTNAME:;
#STEPSTYPE:dance-single;
#DESCRIPTION:;
#CHARTSTYLE:;
#DIFFICULTY:Hard;
#METER:8;
#RADARVALUES:0.462859,0.509958,0.213703,0.351576,0.286087,470.000000,439.000000,31.000000,51.000000,0.000000,0.000000,0.000000,0.000000,0.000000,0.462859,0.509958,0.213703,0.351576,0.286087,470.000000,439.000000,31.000000,51.000000,0.000000,0.000000,0.000000,0.000000,0.000000;
#CREDIT:;
#DISPLAYBPM:120.000000;
#NOTES:
0000
0000
0000
0000
,
0000
0000
0000
0000
,
0000
0000
0000
0000
,
0000
0000
0000
0000
0000
0001
1000
0001
,
0100
0000
0001
2000
0100
0000
3100
0020
,
0100
0000
0130
2000
0000
3001
0100
0001
,
1000
0000
0000
0010
0000
0000
0100
0000
0001
0000
0000
0010
0000
0000
0001
0000
,
1000
0010
0000
0010
0100
0000
0100
0000
0001
0010
0000
0010
0100
0000
0100
0000
,
1000
0000
0001
0200
0010
0000
0310
0000
,
0010
1000
0001
0020
0000
0130
1000
0000
,
0001
0000
0000
1000
0000
0000
0100
0000
1000
0000
0000
0010
0000
0000
0100
0000
,
0001
1000
0000
1000
0100
0000
0100
0000
1000
0001
0000
0001
0100
0000
0010
0000
,
1000
0000
0000
0010
0000
0000
0100
0000
0010
0000
0000
1001
0000
0000
0100
0000
,
1000
0100
0000
0010
0000
0000
0001
0000
1000
0001
0000
0001
0100
0000
0010
0000
,
1000
0000
0000
0010
0000
0000
1001
0000
0010
0000
0000
1000
0000
0000
0100
0000
,
0010
0001
0000
0001
1000
0000
0100
0000
0010
0001
0000
0001
1000
0000
0001
0000
,
0100
0000
0000
0010
0000
0000
1000
0000
0010
0000
0000
1001
0000
0000
0100
0000
,
0010
1000
0000
0010
0000
0000
1000
0000
0001
0010
0000
0010
0100
0000
1000
0000
,
0001
0000
0000
0010
0000
0000
0100
0000
0010
0000
0000
1001
0000
0000
0100
0000
,
1000
0010
0000
0100
0001
0000
0001
0000
0001
0010
0000
0100
1000
0000
0001
0000
,
1002
0000
0103
0000
0010
1000
0100
0002
,
0000
0103
0000
0010
1000
0100
0001
0000
,
2010
0000
0001
0000
3100
1000
0001
0200
,
0000
0000
0310
0000
0100
0000
0001
0000
0000
0000
1000
0000
0010
0100
0010
0000
,
2001
0000
3100
0000
0010
0001
0100
2000
,
0000
3100
0000
0010
0001
0100
1000
0000
,
0012
0000
1000
0000
0103
0001
1000
0200
,
0000
0000
0310
0000
0100
0000
1000
0100
0000
0000
0010
0001
0010
0000
0100
0000
,
2000
0010
3000
0010
0002
0010
0003
0010
,
2000
0010
3000
0110
0000
1001
0000
0010
,
0002
0100
0003
0100
2000
0100
3000
0100
,
0002
0100
0003
1001
0000
0010
1000
0100
,
0001
0000
0101
0000
1000
0010
0100
0002
,
0000
1003
0000
0010
0001
0100
1000
0100
,
2001
0000
3100
0000
0010
1000
0100
0002
,
0000
0000
0000
0000
0000
0000
1000
0000
1003
0000
0001
1000
0001
0000
0100
0000
,
1001
0000
0100
0010
2010
0000
3100
0010
,
0012
0000
0000
0000
1003
0000
0010
0000
0100
0000
0100
0000
0100
0001
0000
1000
,
0200
0000
0310
0001
2001
0000
3010
0100
,
0102
0000
0000
0000
0103
0010
0100
0000
0001
1000
0001
0000
0100
0000
0010
1000
,
0020
0000
0000
0000
0130
0000
0001
0100
0002
0000
0000
0000
1003
0000
0100
1000
,
0200
0000
0000
0000
0310
0000
0001
0000
1000
0000
1000
0000
0010
0100
0000
0100
,
0002
0000
0000
0000
1003
0000
0010
1000
0020
0000
0000
0000
0130
0000
0001
0000
,
0000
0000
2010
0000
0001
0000
3100
0010
,
0000
0012
0000
0100
0000
0013
0001
0100
,
1000
0000
0210
0000
0310
0000
1000
0001
,
1000
0201
0000
0310
1000
0200
0000
0310
,
0001
1000
0001
0000
0102
0000
0000
0000
1003
0000
0000
0000
0001
0000
1000
0000
,
0100
2001
0000
3100
0000
0010
0001
0100
,
1000
0000
0102
0000
1003
0000
0001
0100
,
0001
0000
2000
0000
0000
0000
3010
0000
0100
0000
0001
0100
0001
0000
1000
0010
,
1000
0000
0100
0000
1000
0100
1000
0000
0001
0000
0010
0000
0001
0100
0001
0000
,
1000
0000
0010
0000
1000
0100
1000
0000
0001
0000
0020
0000
0000
0000
0230
0000
,
0000
0000
1300
0000
0001
0100
0001
0000
1000
0000
0010
0000
1000
0100
1000
0000
,
0001
0000
0010
0000
0001
0100
0001
0000
1000
0000
0020
0000
0000
0000
0130
0000
,
0001
0010
2000
0000
0001
0000
3100
0010
,
0000
0012
0000
1000
0000
0013
0001
0100
,
1000
0000
0201
0000
0310
0000
1000
0001
,
0100
0000
0010
0000
0100
0000
0000
0000
0100
0000
0001
1000
0100
0000
1000
0001
,
0100
0000
0002
0000
1000
0000
0000
0010
0000
0000
1003
0000
0010
0000
0000
1001
,
0000
0000
0200
0000
0001
0000
0000
0010
0000
0000
0301
0000
1000
0000
0010
0000
,
0100
0001
0000
1000
0100
0000
0000
0010
0000
0000
0001
0000
0010
0000
0000
1001
,
0000
0000
0100
0000
0010
0001
0000
1000
0010
0000
0100
0000
0010
1000
0000
0001
,
0010
0000
0200
0000
1000
0000
0000
0010
0000
0000
1300
0000
0010
0000
0000
1001
,
0000
0000
0002
0000
1000
0000
0000
0010
0000
0000
1003
0000
0001
0000
0010
0000
,
0100
1000
0000
0001
0100
0000
0000
0010
0000
0000
1000
0000
0010
0000
0000
1001
,
0000
0000
0100
0000
0010
1000
0000
1000
0001
0000
0010
0000
0001
1000
0000
0010
,
0100
0001
1000
0000
0000
0000
0000
0000
;

//---------------dance-single - ----------------
#NOTEDATA:;
#CHARTNAME:;
#STEPSTYPE:dance-single;
#DESCRIPTION:;
#CHARTSTYLE:;
#DIFFICULTY:Medium;
#METER:6;
#RADARVALUES:0.292488,0.323312,0.261959,0.365364,0.000000,297.000000,259.000000,38.000000,53.000000,0.000000,0.000000,0.000000,0.000000,0.000000,0.292488,0.323312,0.261959,0.365364,0.000000,297.000000,259.000000,38.000000,53.000000,0.000000,0.000000,0.000000,0.000000,0.000000;
#CREDIT:;
#DISPLAYBPM:120.000000;
#NOTES:
0000
0000
0000
0000
,
0000
0000
0000
0000
,
0000
0000
0000
0000
,
0000
0000
0000
0000
,
1000
0010
0100
0001
,
0010
0100
0000
1000
0000
0001
0000
0100
,
0010
1000
0001
0010
,
0100
1000
0000
0001
0000
1000
0000
0010
,
0100
0001
0010
0100
,
1000
0001
0000
0100
0000
0001
0000
1000
,
0010
0100
0010
1000
,
0100
0010
0000
0001
0000
1000
0000
0010
,
0100
1001
0010
1001
,
1000
0010
0000
1000
0000
0001
0000
0010
,
0100
0110
1000
1001
,
0001
0100
0000
1000
0000
0100
0000
0001
,
0010
0110
0001
1001
,
0010
0100
0000
0001
0000
0010
0000
0100
,
1000
0110
0100
1001
,
0100
0010
0000
1000
0000
0000
0010
0000
,
0120
0000
1000
0000
0130
0000
0000
1002
,
0000
0010
0000
0103
0000
0000
0000
0000
,
2100
0000
0001
0000
3100
0000
0000
0020
,
0000
0100
0000
0130
0000
0001
1000
0000
,
1002
0000
0010
0000
1003
0000
0000
0120
,
0000
0100
0000
1030
0000
0000
0001
0000
,
2001
0000
0010
0000
3001
0000
0000
0210
,
0000
0001
0000
0310
0000
1000
0001
2000
,
0000
3100
0000
0002
0000
0103
0000
2000
,
0000
3100
0000
0010
0000
0100
0000
0002
,
0000
0103
0000
2000
0000
3100
0000
0002
,
0000
0103
0000
0010
0000
1000
0001
0000
,
1002
0000
0010
0000
1003
0000
0000
2100
,
0000
0010
0000
3100
0000
0000
0010
0000
,
0210
0000
0001
0000
0310
0000
1000
0002
,
0000
0000
0000
0003
,
0012
1003
2010
3001
,
0012
1003
0010
0100
,
2010
3001
0012
1003
,
2010
0000
3001
0000
0010
0100
0010
0000
,
2100
0010
0200
3300
,
0012
0100
0020
0033
,
0200
0300
0020
0030
,
0000
1002
0100
1003
,
0000
2010
0000
0100
0000
3010
0000
0000
,
0000
2001
0100
3010
,
0000
0012
0000
1000
0000
0013
0000
0100
,
1000
2010
0100
3010
,
0000
0210
0000
0001
0000
0310
0000
0000
,
1000
2001
0100
3001
,
0000
0210
0000
0310
0000
1000
0000
0001
,
0000
2000
0000
3100
0000
0020
0000
0130
,
0000
0002
0000
0103
0000
1000
0010
0100
,
0000
0002
0000
0013
0000
2000
0000
3001
,
0000
0200
0000
1300
0000
0020
0000
0130
,
0001
1002
0010
1003
,
0000
2010
0000
0100
0000
3010
0100
0000
,
0010
0210
1000
0301
,
0010
0200
0000
0000
0000
0000
0310
0000
,
0110
0000
1000
0001
0200
0000
0001
0000
,
0301
0000
1000
0010
0100
0000
0010
1000
,
0100
0000
0001
1000
0200
0000
1000
0000
,
1300
0000
0010
1000
0001
0000
0010
0001
,
0100
0000
1000
0010
0200
0000
0010
0000
,
0310
0000
0001
1000
0100
0000
0010
0001
,
0010
0000
0100
1000
0020
0000
0100
0000
,
0130
0000
0001
1000
0100
0000
1000
0001
,
0100
0000
0000
0000
;

//---------------dance-single - ----------------
#NOTEDATA:;
#CHARTNAME:;
#STEPSTYPE:dance-single;
#DESCRIPTION:;
#CHARTSTYLE:;
#DIFFICULTY:Easy;
#METER:4;
#RADARVALUES:0.232415,0.254031,0.172341,0.475662,0.000000,236.000000,211.000000,25.000000,69.000000,0.000000,0.000000,0.000000,0.000000,0.000000,0.232415,0.254031,0.172341,0.475662,0.000000,236.000000,211.000000,25.000000,69.000000,0.000000,0.000000,0.000000,0.000000,0.000000;
#CREDIT:;
#DISPLAYBPM:120.000000;
#NOTES:
// measure 0
0000
0000
0000
0000
,  // measure 1
0000
0000
0000
0000
,  // measure 2
0000
0000
0000
0000
,  // measure 3
0000
0000
0000
0000
,  // measure 4
1000
1000
1000
0100
,  // measure 5
0001
0100
1000
0100
,  // measure 6
0001
0001
0001
0010
,  // measure 7
1000
0010
0001
0010
,  // measure 8
0100
0100
0100
1000
,  // measure 9
0010
1000
0100
1000
,  // measure 10
0010
0010
0010
0100
,  // measure 11
0001
0100
0010
0100
,  // measure 12
0001
1000
0100
0010
,  // measure 13
0100
1000
0100
0010
,  // measure 14
0001
1000
0001
0100
,  // measure 15
0001
1000
0001
0100
,  // measure 16
0010
0100
0001
0100
,  // measure 17
0010
0100
0001
0100
,  // measure 18
0010
1000
0100
1000
,  // measure 19
0010
1000
0100
0000
,  // measure 20
2002
3003
0100
0010
,  // measure 21
1000
0100
0002
0003
,  // measure 22
2002
3003
0100
0010
,  // measure 23
0001
0010
0100
1000
,  // measure 24
2002
3003
0100
0010
,  // measure 25
0001
0100
2000
3000
,  // measure 26
2002
3003
0100
1000
,  // measure 27
0001
0100
0010
0100
,  // measure 28
0202
0303
2200
3300
,  // measure 29
0202
0303
0010
0100
,  // measure 30
2020
3030
0022
0033
,  // measure 31
2020
3030
1000
0001
,  // measure 32
2002
3003
0100
0010
,  // measure 33
1000
0100
0002
0003
,  // measure 34
1001
0100
1000
0100
,  // measure 35
0010
0001
0100
1000
,  // measure 36
2002
3003
0220
0330
,  // measure 37
2002
3003
0010
1000
,  // measure 38
2002
3003
0220
0330
,  // measure 39
2002
3003
0010
0100
,  // measure 40
0002
0010
1003
0000
,  // measure 41
2000
0010
3001
0000
,  // measure 42
0020
0030
0200
0300
,  // measure 43
0000
2002
3003
0100
,  // measure 44
0010
1000
0100
0002
,  // measure 45
0003
0220
0330
0001
,  // measure 46
0100
1000
0100
0001
,  // measure 47
0100
2002
3003
0100
,  // measure 48
0010
0001
0100
2000
,  // measure 49
3000
0220
0330
1000
,  // measure 50
0010
0001
0100
1000
,  // measure 51
0010
0020
0130
0200
,  // measure 52
0310
0020
0130
0001
,  // measure 53
1000
0200
0310
0200
,  // measure 54
0310
0200
0310
0001
,  // measure 55
1000
2002
3003
0100
,  // measure 56
0010
1000
0100
0002
,  // measure 57
0003
0220
0330
0001
,  // measure 58
0010
0100
0100
0100
,  // measure 59
0000
2002
3003
0020
,  // measure 60
0030
2000
3000
0001
,  // measure 61
1000
0001
0010
0100
,  // measure 62
1000
0001
0010
0100
,  // measure 63
1000
0002
0003
2000
,  // measure 64
3000
0020
0030
1000
,  // measure 65
0001
1000
0100
0001
,  // measure 66
0100
1000
0100
0001
,  // measure 67
0100
0000
0000
0000
;

//---------------dance-single - ----------------
#NOTEDATA:;
#CHARTNAME:;
#STEPSTYPE:dance-single;
#DESCRIPTION:;
#CHARTSTYLE:;
#DIFFICULTY:Beginner;
#METER:1;
#RADARVALUES:0.131964,0.184060,0.082724,0.130979,0.000000,134.000000,122.000000,12.000000,19.000000,0.000000,0.000000,0.000000,0.000000,0.000000,0.131964,0.184060,0.082724,0.130979,0.000000,134.000000,122.000000,12.000000,19.000000,0.000000,0.000000,0.000000,0.000000,0.000000;
#CREDIT:;
#DISPLAYBPM:120.000000;
#NOTES:
// measure 0
0000
0000
0000
0000
,  // measure 1
0000
0000
0000
0000
,  // measure 2
0000
0000
0000
0000
,  // measure 3
0000
0000
0000
0000
,  // measure 4
0010
0000
1000
0000
,  // measure 5
0010
0000
0100
0000
,  // measure 6
0001
0000
0100
0000
,  // measure 7
0001
0000
1000
0000
,  // measure 8
0100
0000
1000
0000
,  // measure 9
0001
0000
1000
0000
,  // measure 10
0100
0000
0010
0000
,  // measure 11
0001
0000
1000
0000
,  // measure 12
0001
0000
0010
0000
,  // measure 13
1000
0000
0010
0000
,  // measure 14
0100
0000
1000
0000
,  // measure 15
0001
0000
1000
0000
,  // measure 16
0001
0000
0100
0000
,  // measure 17
1000
0000
0100
0000
,  // measure 18
0001
0000
0010
0000
,  // measure 19
0100
0000
1000
0000
,  // measure 20
2002
0000
3003
0000
,  // measure 21
0020
0000
0030
0000
,  // measure 22
2002
0000
3003
0000
,  // measure 23
0100
0000
1000
0000
,  // measure 24
0001
0001
0001
0000
,  // measure 25
1000
1000
1000
0000
,  // measure 26
0010
0010
0010
0000
,  // measure 27
0100
0100
0100
0000
,  // measure 28
1001
0000
0100
0000
,  // measure 29
0100
0000
0100
0000
,  // measure 30
1001
0000
0100
0000
,  // measure 31
0100
0000
0100
0000
,  // measure 32
2002
0000
3003
0000
,  // measure 33
0020
0000
0030
0000
,  // measure 34
0002
0000
0003
0000
,  // measure 35
0020
0000
0030
0000
,  // measure 36
1001
0000
1000
0000
,  // measure 37
0001
0000
1000
0000
,  // measure 38
1001
0000
0001
0000
,  // measure 39
1000
0000
0001
0000
,  // measure 40
1001
0000
1000
0000
,  // measure 41
0001
0000
1000
0000
,  // measure 42
1001
0000
0001
0000
,  // measure 43
0000
0010
0010
0010
,  // measure 44
0000
0100
0100
0100
,  // measure 45
0000
1000
1000
1000
,  // measure 46
0000
0001
0001
0001
,  // measure 47
0000
0100
0100
0100
,  // measure 48
0000
0010
0010
0010
,  // measure 49
0000
1000
1000
1000
,  // measure 50
0000
0001
0001
0001
,  // measure 51
0000
1001
0000
0100
,  // measure 52
0000
1000
0000
0100
,  // measure 53
0000
1001
0000
0010
,  // measure 54
0000
0001
0000
0010
,  // measure 55
0000
0110
0000
1000
,  // measure 56
0000
0100
0000
0010
,  // measure 57
0000
0100
0000
1000
,  // measure 58
0000
0002
0000
0003
,  // measure 59
0000
2000
0000
3000
,  // measure 60
0000
0020
0000
0030
,  // measure 61
0000
0200
0000
0300
,  // measure 62
0000
0200
0000
0300
,  // measure 63
0000
0002
0000
0003
,  // measure 64
0000
0020
0000
0030
,  // measure 65
0000
0200
0000
0300
,  // measure 66
0000
2000
0000
3000
;
