#TITLE:Light of Nibel;
#SUBTITLE:;
#ARTIST:Gareth Coker feat. Aeralie Brighton;
#TITLETRANSLIT:;
#SUBTITLETRANSLIT:;
#ARTISTTRANSLIT:;
#GENRE:Ori and the Blind Forest;
#CREDIT:;
#BANNER:Light of Nibel-bn.png;
#BACKGROUND:Black.png;
#LYRICSPATH:;
#CDTITLE:;
#MUSIC:Light of Nibel.mp3;
#OFFSET:-0.028005;
#SAMPLESTART:102.028397;
#SAMPLELENGTH:24.000000;
#SELECTABLE:YES;
#BPMS:0.000000=160.000000
;
#STOPS:
;
#BGCHANGES:0.000=Light of Nibel-video.avi=1.000=0=0=1=====,
99999=-nosongbg-=1.000=0=0=0 // don't automatically add -songbackground-
;
#KEYSOUNDS:;
#ATTACKS:;

//---------------dance-single - ----------------
#NOTES:
     dance-single:
     :
     Beginner:
     2:
     0.189362,0.225341,0.015149,0.045447,0.000000,175.000000,173.000000,2.000000,6.000000,0.000000,0.000000,0.189362,0.225341,0.015149,0.045447,0.000000,175.000000,173.000000,2.000000,6.000000,0.000000,0.000000:
0000
0000
0000
0000
,
0000
0000
0000
0000
,
0000
0000
0000
0000
,
0000
0000
0000
0000
,
0000
0000
0000
0000
,
0000
0000
0000
0000
,
0000
0000
0000
0000
,
0000
0000
0000
0000
,
0000
0000
0000
0000
,
0000
0000
0000
0000
,
0000
0000
0000
0000
,
1000
0000
1000
0000
,
0100
0000
0100
0000
,
0010
0000
0100
0000
,
1000
0000
0001
0000
,
0100
0000
0010
0000
,
1000
0000
0001
0001
,
0001
0000
0010
0000
,
0100
0000
1000
1000
,
1000
0000
0000
0000
,
0001
0000
0010
0010
,
0010
0000
0100
0000
,
1000
0000
0000
1000
,
1000
0000
0001
0000
,
0100
0000
0010
0010
,
0010
0000
0100
0000
,
0001
0000
1000
1000
,
1000
0000
0010
0010
,
0010
0000
0100
0000
,
0001
0001
0001
0001
,
0001
0000
0000
0000
,
1000
0000
0000
0000
,
1001
0000
0000
0000
,
0010
0000
1000
0000
,
0100
0000
0100
0000
,
0001
0000
0000
0000
,
1000
0000
0001
0000
,
0010
0000
0010
0000
,
1000
0000
0001
0000
,
1000
0000
1000
0000
,
0010
0010
0010
0000
,
0100
0100
0100
0000
,
0001
0001
0001
0000
,
1000
1000
1000
0000
,
0010
0010
0010
0000
,
1000
1000
1000
0000
,
0100
0100
0100
0000
,
0001
0001
0001
0000
,
1000
1000
1000
0000
,
0001
0001
0001
0000
,
0010
0010
0010
0000
,
0100
0100
0100
0000
,
1000
0000
0100
0100
,
0100
0000
0010
0000
,
0001
0000
0100
0100
,
0200
0000
0300
0000
,
0010
0000
1000
1000
,
1000
0000
0001
0000
,
0010
0000
0000
0100
,
0100
0000
1000
0000
,
0001
0000
0100
0100
,
0100
0000
0010
0000
,
1000
0000
0001
0001
,
0001
0000
0010
0010
,
0010
0000
0010
0000
,
0100
0100
0100
0100
,
0100
0000
0000
0000
,
1000
0000
0001
0000
,
1000
0000
0010
0010
,
0010
0000
0100
0000
,
0001
0000
0010
0010
,
0020
0000
0030
0000
,
0100
0000
1000
1000
,
1000
0000
0001
0000
,
0100
0000
0000
0010
,
0010
0000
0100
0000
,
0001
0000
0010
0010
,
0010
0000
0100
0000
,
1000
0000
0001
0001
,
0001
0000
0100
0100
,
0100
0000
0010
0000
,
1000
1000
1000
1000
,
2000
0000
3000
0000
,
0002
0000
0003
0000
,
2002
0000
0000
0000
,
3003
0000
0000
0000
;

//---------------dance-single - ----------------
#NOTES:
     dance-single:
     :
     Easy:
     4:
     0.240220,0.321916,0.075745,0.507491,0.000000,222.000000,212.000000,10.000000,67.000000,0.000000,0.000000,0.240220,0.321916,0.075745,0.507491,0.000000,222.000000,212.000000,10.000000,67.000000,0.000000,0.000000:
0000
0000
0000
0000
,
0000
0000
0000
0000
,
0000
0000
0000
0000
,
0000
0000
0000
0000
,
0000
0000
0000
0000
,
0000
0000
0000
0000
,
0000
0000
0000
0000
,
0000
0000
0000
0000
,
0000
0000
0000
0000
,
0000
0000
0000
0000
,
0000
0000
0000
0000
,
1000
0001
0100
0010
,
2000
3000
0002
0003
,
0010
0100
0010
0001
,
0200
0300
0001
1000
,
0020
0030
0200
0300
,
2002
3003
0100
0010
,
2000
3000
0200
0300
,
2002
3003
0100
0010
,
0002
0000
0000
0003
,
2002
3003
1000
0010
,
0200
0300
0002
0003
,
2000
0000
3000
0100
,
0002
0003
0020
0030
,
2002
3003
0001
1000
,
0200
0300
0020
0030
,
0002
0003
1000
0010
,
2000
3000
0001
0100
,
0020
0030
2000
3000
,
0100
0010
0001
1000
,
0200
0000
0300
0010
,
0002
0003
2000
3000
,
1001
0000
0010
0000
,
0001
1000
0100
0010
,
0001
0000
1000
0000
,
0010
1000
0001
0100
,
0010
0000
1000
0000
,
0100
1000
0010
0100
,
0001
0000
0010
0000
,
0100
1000
0001
0000
,
0100
0001
1000
0010
,
1000
0100
0010
0001
,
1000
0010
0100
0001
,
1000
0100
0010
0001
,
0001
0100
0010
1000
,
0001
0010
0100
1000
,
0010
1000
0001
0010
,
0100
1000
0001
0100
,
0010
1000
0001
0100
,
0010
1000
0001
0010
,
0100
1000
0001
0010
,
0100
1000
0010
0100
,
2002
3003
0001
1000
,
0200
0300
0020
0030
,
0002
0003
1000
0001
,
2000
0000
3000
0000
,
0020
0030
1000
0001
,
0200
0300
0020
0030
,
2000
0000
3000
0100
,
0002
0003
0200
0300
,
0020
0030
1000
0001
,
2000
3000
0200
0300
,
0020
0030
0001
1000
,
0002
0003
0010
0100
,
0020
0030
0002
0003
,
1000
0100
0010
0001
,
2000
0000
3000
0010
,
0200
0000
0301
0000
,
2000
0000
3100
0010
,
0200
0000
1300
0001
,
2000
0000
3010
1000
,
0020
0000
0130
0001
,
0200
0000
0310
1000
,
0002
0000
0013
0001
,
0020
0000
0130
1000
,
0200
0000
0310
0001
,
1000
0001
1000
0001
,
0100
0001
1000
0000
,
0010
1000
0010
1000
,
0001
1000
0010
0100
,
0001
0000
2002
3003
,
0010
0000
0220
0330
,
1000
0000
2002
3003
,
0100
0000
0010
0000
,
2002
0000
0000
0000
,
3003
0000
0000
0000
;

//---------------dance-single - ----------------
#NOTES:
     dance-single:
     :
     Medium:
     6:
     0.311636,0.450682,0.045447,0.499917,0.000000,288.000000,282.000000,6.000000,66.000000,0.000000,0.000000,0.311636,0.450682,0.045447,0.499917,0.000000,288.000000,282.000000,6.000000,66.000000,0.000000,0.000000:
0000
0000
0000
0000
,
0000
0000
0000
0000
,
0000
0000
0000
0000
,
0000
0000
0000
0000
,
0000
0000
0000
0000
,
0000
0000
0000
0000
,
0000
0000
0000
0000
,
0000
0000
0000
0000
,
0000
0000
0000
0000
,
0000
0000
0000
0000
,
0000
0000
0000
0000
,
1000
0001
0100
0010
,
2000
3000
0002
0003
,
0010
0100
0010
0001
,
0200
0000
0300
0000
0001
1000
0100
0000
,
0020
0030
0200
0300
,
2002
3003
0100
0010
,
2000
3000
0200
0300
,
2002
3003
0100
0010
,
0002
0000
0000
0003
,
2002
3003
1000
0010
,
0200
0300
0002
0003
,
2000
0000
3000
0100
,
0002
0003
0020
0030
,
2002
3003
0001
1000
,
0200
0300
0020
0030
,
0002
0003
1000
0010
,
2000
3000
0001
0100
,
0020
0030
2000
3000
,
0100
0010
0001
1000
,
0200
0000
0000
0000
0300
0000
0010
0100
,
2000
3000
0002
0003
,
1001
0000
0000
0010
0000
0000
1000
0000
,
0001
0000
0010
0001
0010
0000
0100
0000
,
1000
0000
0000
0001
0000
0000
0100
0000
,
0010
0000
1000
0001
0100
0000
0010
0000
,
0100
0000
0000
0001
0000
0000
1000
0000
,
0010
0000
1000
0001
0100
0000
0010
0000
,
1000
0000
0000
0100
0000
0000
0010
0000
,
0001
0000
0010
0100
1000
0000
0001
0000
,
0100
0000
0001
0100
0001
0000
1000
0000
,
0010
0000
1000
0001
1000
0000
0010
0000
,
1000
0000
0100
1000
0100
0000
0010
0000
,
0001
0000
1000
0001
1000
0000
0010
0000
,
1000
0000
0001
0100
0001
0000
1000
0000
,
0100
0000
0010
0100
0010
0000
0001
0000
,
1000
0000
0010
1000
0010
0000
0100
0000
,
0001
0000
0100
0001
0100
0000
0010
0000
,
1000
0000
0001
0010
0001
0000
0010
0100
,
0010
0000
0100
1000
0100
0000
1000
0001
,
1000
0000
0010
1000
0010
0000
0100
0010
,
0100
0000
0001
0100
0001
0100
0001
0100
,
0020
0000
1030
0001
,
2000
0000
0200
3300
,
0020
0000
0031
1000
,
0002
0000
0000
0003
,
0020
0000
0031
1000
,
0002
0000
0200
0303
,
2000
0000
0000
3100
,
0002
0000
2000
3003
,
0020
0130
0001
1000
,
0002
0103
2000
3001
,
0020
0000
0130
0000
2000
0000
3001
1000
,
0002
0103
0010
1000
,
0200
0310
0002
1003
,
0010
0100
0010
1000
,
0002
0000
0010
0000
0103
0000
1000
0001
,
2000
0100
3001
0100
,
0010
0001
0010
0001
0020
0000
0030
0000
,
0100
1000
0100
1000
0200
0000
0300
0000
,
1000
0001
1000
0001
2000
0000
3000
0000
,
0010
0100
0010
0100
0020
0000
0030
0000
,
1000
0010
1000
0010
2000
0000
3000
0000
,
0001
0100
0001
0100
0002
0000
0003
0000
,
1000
0100
1000
0100
1000
0000
0001
0000
,
0010
0001
0010
0001
0020
0000
0030
0000
,
0100
1000
0100
1000
0100
0000
0010
0000
,
0001
1000
0001
1000
0002
0000
0003
0000
,
0100
0010
0100
0010
0100
0000
0001
0010
,
0100
0010
0100
0010
0100
0000
1000
0000
,
0002
0000
0000
0000
1003
0001
0000
0000
,
0020
0000
0000
0000
0130
0010
0000
0000
,
2000
0000
0000
0000
3001
1000
0000
0000
,
0200
0300
0020
0030
,
2002
0000
0000
0000
,
3003
0000
0000
0000
;

//---------------dance-single - ----------------
#NOTES:
     dance-single:
     :
     Hard:
     8:
     0.450141,0.579449,0.204511,0.462044,0.000000,416.000000,389.000000,27.000000,61.000000,0.000000,0.000000,0.450141,0.579449,0.204511,0.462044,0.000000,416.000000,389.000000,27.000000,61.000000,0.000000,0.000000:
// measure 0
0000
0000
0000
0000
,  // measure 1
0000
0000
0000
0000
,  // measure 2
0000
0000
0000
0000
,  // measure 3
0000
0000
0000
0000
,  // measure 4
0000
0000
0000
0000
,  // measure 5
0000
0000
0000
0000
,  // measure 6
0000
0000
0000
0000
,  // measure 7
0000
0000
0000
0000
,  // measure 8
0000
0000
0000
0000
,  // measure 9
0000
0000
0000
0000
,  // measure 10
0000
0000
0000
0000
,  // measure 11
1000
0001
0100
0010
,  // measure 12
2000
0000
3002
0000
,  // measure 13
0013
0100
0010
0001
,  // measure 14
0200
0000
0000
0000
0301
1000
0100
0000
,  // measure 15
0020
0000
0200
0330
,  // measure 16
2002
3003
0200
0320
,  // measure 17
2030
0000
0200
3300
,  // measure 18
2002
3003
0200
0320
,  // measure 19
0032
0000
0000
0003
,  // measure 20
2002
3003
2000
3020
,  // measure 21
0230
0000
0002
0300
,  // measure 22
2000
0000
0003
0100
,  // measure 23
0002
3000
0020
0033
,  // measure 24
2002
3003
0002
2003
,  // measure 25
3200
0000
0320
0000
,  // measure 26
0032
0000
2003
3020
,  // measure 27
2030
0000
3002
0203
,  // measure 28
0320
0000
2000
0030
,  // measure 29
3200
0320
0032
2003
,  // measure 30
3200
0000
0000
0000
0000
0000
0310
0100
,  // measure 31
2000
0000
0002
3003
,  // measure 32
1001
0100
0010
0100
0000
0100
0001
0000
,  // measure 33
1000
0010
1000
0100
0010
0100
0010
0000
,  // measure 34
0001
1000
0001
0100
0000
0010
0100
0000
,  // measure 35
0010
1000
0100
1000
0001
0010
0100
0000
,  // measure 36
0010
0001
1000
0001
0000
1000
0100
0000
,  // measure 37
1000
0010
1000
0001
0100
0010
0100
0000
,  // measure 38
0001
0010
0100
1000
0000
0001
0100
0000
,  // measure 39
0010
0100
0001
1000
0100
0010
0100
0000
,  // measure 40
0110
0100
0010
0001
1000
0010
0100
0001
,  // measure 41
1000
0100
1000
0001
0010
1000
0010
0100
,  // measure 42
1000
0001
0010
0100
0001
0100
0010
0001
,  // measure 43
1000
0010
0100
1000
0100
0001
0001
1000
,  // measure 44
0010
1000
0100
0010
0100
1000
0001
0100
,  // measure 45
0010
0100
0001
1000
1000
0010
0100
0010
,  // measure 46
0001
1000
0100
0001
1000
0010
0100
0010
,  // measure 47
1000
0100
0001
1000
0010
0001
0010
0010
,  // measure 48
0001
0100
0010
0001
1000
0100
0010
0100
,  // measure 49
0010
1000
0001
1000
0010
0100
0001
0100
,  // measure 50
0010
1000
0100
0010
0010
0001
1000
0010
,  // measure 51
0100
0001
1000
0001
0010
0100
1000
0001
,  // measure 52
1000
0100
0010
0001
0101
0000
0100
0000
,  // measure 53
0010
1000
0001
0100
1001
0000
0000
0000
,  // measure 54
0001
0010
0100
1000
1100
0000
0010
0000
,  // measure 55
0100
0001
0010
0100
0110
0000
0000
0000
,  // measure 56
1000
0100
0010
0001
1001
0000
0100
0000
,  // measure 57
0010
1000
0100
0010
0110
0000
0000
0000
,  // measure 58
0001
0100
0010
1000
1100
0000
0010
0000
,  // measure 59
0100
0001
1000
0100
0110
0000
0000
0000
,  // measure 60
0010
0001
0100
0010
1010
0000
0100
0000
,  // measure 61
0001
1000
0010
0100
0101
0000
0000
0000
,  // measure 62
1000
0100
0010
0100
1100
0000
0010
0000
,  // measure 63
0100
0001
0010
0100
0110
0000
0001
0000
,  // measure 64
0010
0001
0100
0010
1001
0000
0100
0000
,  // measure 65
0010
1000
0010
0100
1001
0000
0100
0000
,  // measure 66
0001
0100
0010
1000
0110
0000
1000
0100
,  // measure 67
1000
0001
0100
0001
1001
0000
0100
0010
,  // measure 68
0100
0001
1000
0001
0100
0000
0010
0000
,  // measure 69
1000
0010
0100
0001
1000
0000
0100
0000
,  // measure 70
0010
0100
1000
0010
0100
0000
0010
0000
,  // measure 71
1000
0100
0010
0100
2000
0000
3000
0000
,  // measure 72
0001
0010
0100
1000
0001
0000
1000
0000
,  // measure 73
0010
1000
0001
0100
0020
0000
0030
0000
,  // measure 74
1000
0100
0010
0100
2000
0000
3001
0000
,  // measure 75
0100
0001
1000
0001
0200
0000
0310
0000
,  // measure 76
1000
0010
1000
0100
0020
0000
0130
0000
,  // measure 77
1000
0100
1000
0001
0020
0000
0130
0000
,  // measure 78
1000
0010
1000
0001
0200
0000
0310
0100
,  // measure 79
0001
0000
1000
0010
0100
0001
0100
0010
,  // measure 80
2000
3001
1200
0310
,  // measure 81
0012
1003
0201
0310
,  // measure 82
2010
0000
3001
0000
0100
0000
0010
0100
,  // measure 83
0002
0000
1003
0000
0100
0010
0001
1000
,  // measure 84
2002
0000
0000
0000
,  // measure 85
3003
0000
0000
0000
;

//---------------dance-single - ----------------
#NOTES:
     dance-single:
     :
     Challenge:
     10:
     0.650324,0.772599,0.401448,0.605960,0.499917,601.000000,548.000000,53.000000,80.000000,0.000000,0.000000,0.650324,0.772599,0.401448,0.605960,0.499917,601.000000,548.000000,53.000000,80.000000,0.000000,0.000000:
0000
0000
0000
0000
,
0000
0000
0000
0000
,
0000
0000
0000
0000
,
0000
0000
0000
0000
,
0000
0000
0000
0000
,
0000
0000
0000
0000
,
0000
0000
0000
0000
,
0000
0000
0000
0000
,
0000
0000
0000
0000
,
0000
0000
0000
0000
,
0000
0000
0000
0000
,
1001
0001
0100
0010
,
2020
3030
0022
0033
,
1001
0100
0010
0001
,
0200
0000
0000
0000
0301
0010
1000
0000
,
0020
0000
0200
0330
,
2001
0001
3200
0320
,
0032
1000
0203
0010
,
0302
0100
0023
0100
,
0002
0030
2000
3003
,
1002
1000
0203
0010
,
0302
0100
2003
0010
,
3002
0100
0013
0101
,
2010
0100
3002
0103
,
1002
1000
0023
0032
,
2003
0100
3002
1000
,
0023
0001
0230
1000
,
0320
0031
2000
3010
,
0210
0310
2001
3001
,
0101
1010
1001
1100
,
0020
0000
0001
0000
1000
0000
0031
0100
,
0020
1030
0200
0301
,
1000
0010
1000
0000
0100
0000
0010
0000
0000
0000
0001
0000
1000
0000
0001
0000
,
0010
0001
1000
0000
0001
0000
0100
0000
0000
0000
0010
0000
1000
0000
0100
0000
,
0010
0100
1000
0000
0001
0000
0100
0000
0000
0000
0001
0000
1000
0000
0001
0000
,
0010
0001
1000
0000
0010
0000
0100
0000
0100
0000
0001
0000
1000
0000
0100
0000
,
0010
0100
1000
0000
0001
0000
0100
0000
0000
0000
0010
0000
0100
0000
0001
0000
,
1000
0010
0100
0000
0010
0000
1000
0000
0000
0000
0001
0000
0010
0000
1000
0000
,
0010
0100
0010
0000
0001
0000
1000
0000
0000
0000
0001
0000
0100
0000
0010
0000
,
1000
0100
0010
0000
0001
0000
1000
0000
0010
0000
0100
0000
0100
0000
0001
0000
,
1001
0100
0010
1001
1000
0010
0100
0001
,
1010
0100
1000
1100
0001
0100
0010
1000
,
1100
0001
0010
0011
0001
0100
0010
0100
,
1010
0010
0100
1100
0100
0001
1000
0010
,
0110
0001
0100
0101
1000
0010
0100
0001
,
1001
0001
0010
1010
0010
1000
0010
0001
,
1001
1000
0100
0101
1000
0010
0100
0010
,
1100
0100
0001
0101
0001
0010
1000
0010
,
1010
0001
0010
1001
1000
0100
0001
0100
,
0110
1000
0001
1010
0001
0100
1000
0100
,
0110
0010
1000
0011
0010
0100
1000
0001
,
0101
1000
0001
0101
0001
0010
0100
1000
,
0001
0010
0100
1000
0001
0010
0100
1000
0002
0000
0000
0000
2003
0000
0000
0000
,
3001
0100
0010
1000
0001
0100
0010
1000
0002
0000
0000
0000
0000
0000
0000
0000
,
1003
0010
0100
0010
1000
0100
0010
0100
2000
0000
0000
0000
3002
0000
0000
0000
,
0103
0010
1000
0001
0100
0010
1000
0001
0200
0000
0000
0000
0000
0000
0000
0000
,
0310
1000
0001
0100
0010
1000
0001
0100
0020
0000
0000
0000
2030
0000
0000
0000
,
3001
0010
0100
0010
0001
0100
0010
0100
0002
0000
0000
0000
0000
0000
0000
0000
,
1003
0010
0100
0010
1000
0001
0100
0001
2000
0000
0000
0000
3002
0000
0000
0000
,
1003
0100
0010
0001
1000
0100
0010
0001
0200
0000
0000
0000
0000
0000
0000
0000
,
0310
1000
0100
0010
0001
1000
0010
0100
0002
0000
0000
0000
2003
0000
0000
0000
,
3001
0010
0100
1000
0001
0100
0010
1000
0200
0000
0000
0000
0000
0000
0000
0000
,
0310
0001
1000
0001
0100
0010
0100
0001
2000
0000
0000
0000
0000
0000
3020
0000
,
0130
0001
1000
0100
0010
0001
1000
0010
0200
0000
0000
0000
0302
0000
0000
0000
,
1003
0010
0100
0001
0010
0100
1000
0001
0200
0000
0000
0000
0000
0000
0000
0000
,
0310
1000
0001
0010
0100
1000
0001
0100
0020
0000
0000
0000
2030
0000
0000
0000
,
3100
1000
0001
0100
0010
1000
0100
0010
0200
0000
0000
0000
2300
0000
3002
0000
,
0103
0001
1000
0010
0100
0001
0010
0100
2000
0000
0000
0000
0000
0000
0000
0000
,
3010
1000
0010
0100
0010
0001
0010
0100
0010
0000
0000
0000
1001
0000
0000
0000
,
0100
0001
0100
0010
0100
1000
0100
0010
0200
0000
0000
0000
0000
0000
0000
0000
,
0301
0010
0100
0010
1000
0010
0100
0010
0001
0000
0000
0000
1001
0000
0000
0000
,
1000
0100
0010
0100
0001
0100
0010
0100
2000
0000
0000
0000
0000
0000
0000
0000
,
3001
0100
0010
0100
1000
0100
0010
0100
0001
0000
0000
0000
1001
0000
0000
0000
,
0100
1000
0100
0010
0100
0001
0100
0010
2000
0000
0000
0000
0000
0000
0000
0000
,
3001
0010
0100
0010
1000
0010
0100
0010
0001
0000
0000
0000
1001
0000
0000
0000
,
0001
0100
1000
0100
0001
0010
0100
1000
0020
0000
0000
0000
0000
0000
0000
0000
,
0130
1000
0100
0001
0100
0010
0100
0001
1000
0000
0000
0000
1001
0000
0000
0000
,
0010
1000
0100
1000
0010
0001
0010
1000
0020
0000
0000
0000
0000
0000
0000
0000
,
0130
0001
0100
0010
1000
0100
0010
0100
1000
0000
0000
0000
0001
0000
1000
0000
,
0100
1000
0001
1000
0100
0010
0100
0001
0200
0000
0000
0000
0320
0000
0000
0000
,
0031
0100
0010
0100
0001
0100
0010
0000
0101
0000
0202
0000
0000
0000
0303
0000
,
1000
0010
0100
0010
1000
0010
0100
0000
1010
0000
2020
0000
0000
0000
3030
0000
,
1000
0100
0010
0001
1000
0100
0010
0000
1001
0000
2002
0000
0000
0000
3003
0000
,
0001
0010
0100
1000
0010
0100
0001
0000
0110
0000
0220
0000
0000
0000
0330
0000
,
2002
0000
0000
0000
,
3003
0000
0000
0000
;
