#TITLE:Leaving Earth;
#SUBTITLE:;
#ARTIST:Seven Lions;
#TITLETRANSLIT:;
#SUBTITLETRANSLIT:;
#ARTISTTRANSLIT:;
#GENRE:Creation;
#CREDIT:;
#BANNER:Leaving Earth-bn.png;
#BACKGROUND:Leaving Earth-bg.png;
#LYRICSPATH:;
#CDTITLE:;
#MUSIC:Leaving Earth.mp3;
#OFFSET:-0.027530;
#SAMPLESTART:38.709869;
#SAMPLELENGTH:15.483871;
#LASTBEATHINT:231.972000;
#SELECTABLE:YES;
#BPMS:0.000000=124.000000
;
#STOPS:
;
#BGCHANGES:;
#KEYSOUNDS:;
#ATTACKS:;

//---------------dance-single - ----------------
#NOTES:
     dance-single:
     :
     Challenge:
     9:
     0.530226,0.514719,0.271366,0.175075,0.849112,424.000000,393.000000,31.000000,20.000000,0.000000,0.000000,0.530226,0.514719,0.271366,0.175075,0.849112,424.000000,393.000000,31.000000,20.000000,0.000000,0.000000:
0000
0000
0000
0000
,
0000
0000
0000
0000
,
0000
0000
0000
0000
,
1010
0000
0000
0000
1000
0000
0100
0000
0100
0010
0000
0000
,
0110
0000
0000
0001
0100
0010
1000
0100
0000
0010
0000
0010
,
0001
0000
0000
1000
0010
0100
0001
1000
0000
0100
0000
0010
,
0100
0000
0000
0010
0001
1000
0010
0100
0000
0001
0000
1000
,
0100
0000
0000
0010
0001
1000
0010
0000
0010
0100
0000
0100
,
0010
0000
0000
0010
1000
0100
1000
0001
0000
0100
0000
0100
,
0010
0000
0000
1000
0100
0010
0001
0100
0000
0010
0000
0010
,
1000
0000
0000
0001
0010
0100
1000
0001
0000
0100
0000
0100
,
0010
0000
0000
1000
0001
0000
0101
0000
0100
0010
1000
0100
,
1000
0000
0000
0010
1000
0001
0010
0100
0000
0010
0000
0001
,
1000
0000
0000
0001
0100
0010
1000
0100
0000
0010
0000
0001
,
1000
0000
0000
0001
0100
0010
1000
0100
0000
0010
0000
0001
,
1000
0000
0000
0100
1000
0001
0100
0000
0100
0010
0000
0010
,
0100
0000
0000
0100
0001
0010
0100
1000
0000
0010
0000
0010
,
0100
0000
0000
0010
1000
0001
0010
0100
0000
0010
0000
0010
,
0001
0000
0000
0001
0100
0010
1000
0100
0000
0010
0000
0001
,
1000
1100
1001
1010
,
0200
0000
0000
0301
1000
0001
0100
0010
1000
0100
0000
0010
,
0100
0000
0000
0010
0001
1000
0020
0000
0000
0230
0000
0000
,
0302
0000
0000
0013
0001
1000
0010
0100
0010
1000
0000
1000
,
0100
0000
0100
0010
0001
0100
0010
0000
0010
1000
0000
1000
,
0001
0000
1000
0100
0010
0001
0100
0010
1000
0100
0000
0010
,
0100
0000
0010
0001
1000
0010
0100
0001
1000
0100
0000
0100
,
0010
0000
0001
1000
0001
0100
0010
1000
0100
0010
0000
0001
,
0100
0000
0000
0000
0101
0000
1001
0000
1000
0010
0000
0000
,
0110
0000
0000
1000
0001
0100
0010
1000
0100
1000
0000
1000
,
0001
0000
0001
0100
0010
1000
0200
0000
0000
0320
0000
0000
,
0032
0000
0000
1003
0100
1000
0010
0100
0000
0010
0000
1000
,
0001
0000
1000
0100
0010
0001
1000
0000
1000
0001
0000
0001
,
0100
0000
0000
0001
1000
0001
0010
0100
0010
0001
0000
0001
,
0100
0000
0100
0010
1000
0100
1000
0001
0100
0010
0000
0010
,
1000
0000
1000
0100
0010
0100
1000
0001
0100
0010
0000
0010
,
1000
0000
0000
0000
1100
0000
1001
0000
0001
0010
0100
1000
,
0010
0000
0010
0100
0000
0100
0001
0000
0001
1000
0000
1000
,
0100
0000
0100
0010
0000
0010
0001
0000
0001
0100
0010
1000
,
0100
0000
0100
0010
0000
0010
0001
0000
0001
1000
0000
1000
,
0010
0000
0010
1000
0000
1000
0001
0000
1000
0001
0100
0001
,
1000
0000
1000
0010
0000
0010
0100
0000
0100
0001
0000
0001
,
0010
0000
0010
0100
0000
0100
1000
0000
1000
0010
0100
0001
,
0010
0000
0010
0100
0000
0100
0010
0000
0010
0100
0000
0100
,
2000
0000
0000
3000
1010
0000
1001
0000
1000
0001
0100
0100
,
0100
0000
0001
1000
0000
0000
0100
0000
1000
0001
0000
0000
,
0101
0000
0001
1000
0000
0000
1010
0000
1000
0001
0000
0000
,
0012
0000
0000
0103
0000
0010
1000
0100
0010
0000
0001
0000
,
2001
3100
1200
0310
,
0100
0000
1000
0001
0000
0000
0100
0000
0001
1000
0000
0000
,
1100
0000
1000
0001
0000
0000
0011
0000
0001
1000
0000
0000
,
2010
0000
0000
3100
0000
0010
0001
0100
0010
0000
1000
0000
,
1002
0103
0201
0310
,
1010
0000
0000
0101
0000
0000
1100
0000
0110
0000
0011
0000
,
2002
0000
0000
0000
0003
0000
0100
0000
0000
3000
0010
0100
,
1002
0000
0000
1000
0000
0000
0200
0000
0000
0303
0100
0001
,
0202
0000
0000
0000
,
0303
0000
0000
0000
;

//---------------dance-single - ----------------
#NOTES:
     dance-single:
     :
     Hard:
     7:
     0.342646,0.441188,0.262612,0.323888,0.275743,274.000000,244.000000,30.000000,37.000000,0.000000,0.000000,0.342646,0.441188,0.262612,0.323888,0.275743,274.000000,244.000000,30.000000,37.000000,0.000000,0.000000:
0000
0000
0000
0000
,
0000
0000
0000
0000
,
0000
0000
0000
0000
,
1010
0000
0000
0000
1000
0000
0100
0000
0100
0010
0000
0000
,
0220
0000
0000
0330
,
0001
0000
0000
1000
0000
0000
0100
0000
0100
0010
0000
0010
,
0001
1000
0010
0100
,
0001
0000
0000
1000
0000
0000
0010
0000
1000
0001
0000
1000
,
0002
0000
0000
0003
,
0010
0100
0210
1300
,
2001
0010
0100
3100
,
0010
0000
0000
0000
0001
0000
0100
0000
0100
0010
0000
0000
,
0220
0000
0000
0330
,
0010
0000
0000
1000
0000
0000
0100
0000
1000
0001
0000
1000
,
0100
0010
1001
0100
,
0010
0000
0000
1000
0000
0000
0001
0000
0100
0010
0000
1000
,
0200
0000
0000
0300
,
0010
0000
0000
0001
0000
0000
1000
0000
0100
0010
0000
0100
,
1000
0010
0110
0100
,
0001
0101
1001
0011
,
2002
0003
0020
0030
,
0002
3003
0020
0032
,
0203
0000
0310
1000
,
0100
0000
0000
0010
0000
0001
1000
0000
0001
0100
0000
0001
,
1000
0100
1100
0100
,
0010
0001
0101
1000
,
2010
0001
0100
3100
,
0010
0000
0000
0000
0001
0000
1000
0000
1000
0010
0000
0000
,
0120
1000
0100
1000
,
0230
0001
0320
2030
,
3200
0001
0010
0001
,
0320
0001
0230
1000
,
0310
0001
1000
0010
,
0100
0000
0000
0001
0000
0000
0010
0000
0010
0100
0000
0100
,
1000
0010
0100
0001
,
0010
0000
0000
0000
0001
0000
1000
0000
1000
0010
0000
0000
,
1001
0000
0001
1000
0000
1000
0001
0000
0001
1000
0000
1000
,
0100
0000
0100
0010
0000
0010
0001
0000
0001
0100
0000
0100
,
0010
0000
0010
1000
0000
1000
0001
0000
0001
1000
0000
1000
,
0100
0000
0100
0010
0000
0010
0001
0000
0001
1000
0000
1000
,
0100
0010
0001
1000
,
0010
0100
0001
1000
,
0100
0000
0100
0010
0000
0010
0001
0000
0001
1000
0000
1000
,
0010
0000
0000
0000
1000
0000
0100
0000
0100
0010
0001
1000
,
0001
0000
0001
1000
0000
0000
0010
0000
0100
0001
0000
0000
,
0011
0000
0001
1000
0000
0000
1010
0000
1000
0001
0000
0000
,
0200
0000
0000
0301
0000
1000
0001
0000
0010
0000
0100
0000
,
2000
3001
0120
0130
,
0010
0000
0001
0100
0000
0000
0010
0000
1000
0100
0000
0000
,
1100
0000
0001
0100
0000
0000
0101
0000
1000
0100
0000
0000
,
0020
0000
0000
0031
0000
1000
0001
0000
0100
0000
0010
0000
,
2000
3100
0120
0130
,
0011
0000
0000
1100
0000
0000
1001
0000
0011
0000
0110
0000
,
2002
0000
0000
0000
0003
0000
0200
0000
0000
3300
0000
0000
,
2002
3000
0200
0303
,
0202
0000
0000
0000
,
0303
0000
0000
0000
;

//---------------dance-single - ----------------
#NOTES:
     dance-single:
     :
     Medium:
     5:
     0.262612,0.343146,0.166321,0.350149,0.100668,210.000000,191.000000,19.000000,40.000000,0.000000,0.000000,0.262612,0.343146,0.166321,0.350149,0.100668,210.000000,191.000000,19.000000,40.000000,0.000000,0.000000:
0000
0000
0000
0000
,
0000
0000
0000
0000
,
0000
0000
0000
0000
,
0010
0000
0000
0000
1000
0000
0100
0000
0000
0010
0000
0000
,
0220
0000
0000
0330
,
0001
1000
0100
0010
,
2002
0000
0000
3003
,
0001
1000
0010
0100
,
0202
0000
0000
0303
,
0010
0100
1000
0001
,
2002
0000
0000
3003
,
0010
0000
0000
0000
0001
0000
0100
0000
0100
0010
0000
0000
,
0220
0000
0000
0330
,
0010
0000
0000
1000
0000
0000
0100
0000
1000
0001
0000
0000
,
0100
0010
1000
0001
,
0010
0000
0000
0100
0000
0000
1000
0000
0001
1000
0000
0000
,
2200
0000
0000
3300
,
0010
0001
1000
0100
,
0220
0000
0000
0330
,
0010
0001
0011
1001
,
2200
0300
0020
0030
,
0002
3003
0020
0032
,
0203
0000
0310
1000
,
0100
0000
0000
0010
0000
0000
0001
0000
0000
1000
0000
0100
,
1000
0010
0100
0001
,
0010
0100
1000
0001
,
0020
0100
0001
0130
,
0010
0000
0000
0000
0001
0000
1000
0000
1000
0010
0000
0000
,
0202
0300
0020
0030
,
2000
3003
0020
2030
,
3200
0000
0310
0001
,
0100
0000
0000
0010
0000
0000
1000
0000
0000
0001
0000
0100
,
0001
0010
0100
1000
,
0010
0100
0001
1000
,
0020
0100
1000
0130
,
0010
0000
0000
0000
1000
0000
0001
0000
0001
0010
0000
0000
,
1001
1000
0001
1000
,
0100
0010
0001
0100
,
0010
1000
0001
1000
,
0100
0010
0001
1000
,
0100
0010
0001
1000
,
0010
0100
0001
1000
,
0100
0010
0001
1000
,
0010
0000
0000
0000
1000
0000
0100
0000
0100
0010
0000
0000
,
0001
0000
0000
1000
0000
0000
0010
0000
0100
0010
0000
0000
,
0110
0100
0101
0100
,
1001
0000
0000
0001
0000
1000
0001
0000
0010
0000
0100
0000
,
2000
3001
0200
0310
,
1000
0000
0000
0001
0000
0000
0100
0000
0001
1000
0000
0000
,
1001
1000
1010
1000
,
1100
0000
0000
0010
0000
0100
0001
0000
1000
0000
0001
0000
,
0020
0130
2000
3001
,
0010
0000
0000
0100
0000
0000
1000
0000
0010
0000
0100
0000
,
0002
0000
0200
0303
,
2000
0000
0200
3300
,
2200
0000
0000
0000
,
3300
0000
0000
0000
;

//---------------dance-single - ----------------
#NOTES:
     dance-single:
     :
     Easy:
     3:
     0.158818,0.220594,0.113799,0.490209,0.008754,127.000000,114.000000,13.000000,56.000000,0.000000,0.000000,0.158818,0.220594,0.113799,0.490209,0.008754,127.000000,114.000000,13.000000,56.000000,0.000000,0.000000:
// measure 0
0000
0000
0000
0000
,  // measure 1
0000
0000
0000
0000
,  // measure 2
0000
0000
0000
0000
,  // measure 3
0010
0000
1000
0001
,  // measure 4
2002
0000
0000
3003
,  // measure 5
0001
0000
1000
0010
,  // measure 6
0220
0000
0000
0330
,  // measure 7
0010
0000
1000
0100
,  // measure 8
2200
0000
0000
3300
,  // measure 9
0000
0000
0002
0003
,  // measure 10
0202
0000
0000
0303
,  // measure 11
0010
0000
1000
0001
,  // measure 12
0220
0000
0000
0330
,  // measure 13
0010
1000
0100
0000
,  // measure 14
0010
0000
0001
0000
,  // measure 15
0100
0010
1000
0001
,  // measure 16
0022
0000
0000
0033
,  // measure 17
0010
0000
0200
0300
,  // measure 18
0220
0000
0000
0330
,  // measure 19
0010
0001
1000
0010
,  // measure 20
2002
0000
0000
0000
,  // measure 21
0000
3003
0010
0001
,  // measure 22
0200
0000
0000
0000
,  // measure 23
0310
0000
2000
3000
,  // measure 24
0002
0000
0013
0000
,  // measure 25
0100
0000
2000
3000
,  // measure 26
0002
0000
0100
0003
,  // measure 27
0010
0000
1000
0001
,  // measure 28
2002
0000
0000
0000
,  // measure 29
0000
3003
0010
1000
,  // measure 30
0200
0000
0000
0000
,  // measure 31
0310
0000
0002
0003
,  // measure 32
2000
0000
3010
0000
,  // measure 33
0100
0000
0002
0003
,  // measure 34
2000
0000
0100
3000
,  // measure 35
0010
0000
0001
1000
,  // measure 36
2002
3003
0020
0030
,  // measure 37
2000
3000
0200
0300
,  // measure 38
0020
0030
0002
0003
,  // measure 39
2000
3000
0200
0300
,  // measure 40
0020
0000
0001
0030
,  // measure 41
0200
0000
0010
0300
,  // measure 42
2000
0000
0001
3000
,  // measure 43
0010
0000
0100
0010
,  // measure 44
0001
0001
0001
0001
,  // measure 45
0200
0300
0020
0030
,  // measure 46
1000
0100
1000
0100
,  // measure 47
2000
3000
0020
0030
,  // measure 48
0100
0100
0100
0100
,  // measure 49
0202
0303
2020
3030
,  // measure 50
1000
0010
0100
0001
,  // measure 51
0020
0030
0200
0300
,  // measure 52
1000
0000
0000
0001
0000
0000
1000
0000
0001
0000
1000
0000
,  // measure 53
0002
0000
0000
0003
,  // measure 54
2000
0000
0000
3000
,  // measure 55
2002
0000
0000
0000
,  // measure 56
3003
0000
0000
0000
;

//---------------dance-single - ----------------
#NOTES:
     dance-single:
     :
     Beginner:
     1:
     0.120051,0.171573,0.008754,0.393918,0.000000,96.000000,95.000000,1.000000,45.000000,0.000000,0.000000,0.120051,0.171573,0.008754,0.393918,0.000000,96.000000,95.000000,1.000000,45.000000,0.000000,0.000000:
// measure 0
0000
0000
0000
0000
,  // measure 1
0000
0000
0000
0000
,  // measure 2
0000
0000
0000
0000
,  // measure 3
0010
0000
0100
0100
,  // measure 4
0200
0000
0000
0300
,  // measure 5
0001
0000
1000
0000
,  // measure 6
0020
0000
0000
0030
,  // measure 7
0100
0000
0001
0001
,  // measure 8
0002
0000
0000
0000
,  // measure 9
0003
0000
2000
3000
,  // measure 10
0200
0000
0000
0300
,  // measure 11
0100
0000
0010
0010
,  // measure 12
0020
0000
0000
0030
,  // measure 13
0010
0000
0001
0000
,  // measure 14
0200
0000
0000
0300
,  // measure 15
0100
0000
0010
0010
,  // measure 16
0020
0000
0000
0030
,  // measure 17
1000
0000
0002
0003
,  // measure 18
0200
0000
0000
0300
,  // measure 19
0001
0001
0001
0001
,  // measure 20
0002
0000
0000
0000
,  // measure 21
0000
0003
1000
1000
,  // measure 22
2000
0000
0000
0000
,  // measure 23
3000
0000
0200
0300
,  // measure 24
0020
0000
0030
0000
,  // measure 25
0001
0000
2000
3000
,  // measure 26
0002
0000
0000
0003
,  // measure 27
0010
0000
0100
0100
,  // measure 28
0200
0000
0000
0000
,  // measure 29
0300
0000
0010
0010
,  // measure 30
0020
0000
0000
0000
,  // measure 31
0030
0000
0002
0003
,  // measure 32
0200
0000
0300
0000
,  // measure 33
0010
0000
0200
0300
,  // measure 34
0002
0000
0000
0003
,  // measure 35
0010
0000
0100
0100
,  // measure 36
0200
0300
0020
0030
,  // measure 37
0002
0003
0200
0300
,  // measure 38
0020
0030
2000
3000
,  // measure 39
0002
0003
0200
0300
,  // measure 40
0020
0000
0000
0030
,  // measure 41
2000
0000
0000
3000
,  // measure 42
0002
0000
0000
0003
,  // measure 43
0010
0000
0100
0100
,  // measure 44
0100
0000
0010
0000
,  // measure 45
0002
0003
2000
3000
,  // measure 46
0010
0010
0010
0010
,  // measure 47
0020
0030
0200
0300
,  // measure 48
0001
0000
0100
0000
,  // measure 49
0020
0030
2000
3000
,  // measure 50
0010
0010
0010
0010
,  // measure 51
0020
0030
0200
0300
,  // measure 52
0001
0001
0001
0000
,  // measure 53
2000
0000
0000
3000
,  // measure 54
0002
0000
0000
0003
,  // measure 55
2002
0000
0000
0000
,  // measure 56
3003
0000
0000
0000
;
