#TITLE:Laser Gun;
#SUBTITLE:;
#ARTIST:M83 featuring Mai Lan;
#TITLETRANSLIT:;
#SUBTITLETRANSLIT:;
#ARTISTTRANSLIT:;
#GENRE:Junk;
#CREDIT:;
#BANNER:Laser Gun-bn.png;
#BACKGROUND:Laser Gun-bg.png;
#LYRICSPATH:;
#CDTITLE:;
#MUSIC:Laser Gun.mp3;
#OFFSET:-0.020530;
#SAMPLESTART:51.175842;
#SAMPLELENGTH:21.521744;
#LASTBEATHINT:178.000000;
#SELECTABLE:YES;
#BPMS:0.000000=92.000000
;
#STOPS:
;
#BGCHANGES:;
#KEYSOUNDS:;
#ATTACKS:;

//---------------dance-single - ----------------
#NOTES:
     dance-single:
     :
     Challenge:
     9:
     0.549966,0.574417,0.443559,0.192488,0.464482,460.000000,407.000000,53.000000,23.000000,0.000000,0.000000,0.549966,0.574417,0.443559,0.192488,0.464482,460.000000,407.000000,53.000000,23.000000,0.000000,0.000000:
0000
0000
0000
0000
,
0000
0000
0000
0000
,
0000
0000
0000
0000
,
0000
0000
1001
0000
0000
0000
1001
0010
,
0100
0100
0010
0010
1000
0000
0100
0000
0010
0000
0000
0000
0110
0000
0001
0000
,
0100
0001
0010
0100
1000
0000
1001
0010
,
0100
0100
0010
0010
1000
0000
0100
0000
0010
0000
0000
0000
0110
0000
0001
0000
,
1000
0000
0001
0000
0110
0000
0100
0000
1000
0000
0000
0000
0010
0100
0001
0000
,
0101
0100
0010
0010
1000
0000
0100
0000
0010
0000
0000
0000
1001
0000
0100
0000
,
0010
0000
1000
0000
0110
0000
1000
0000
0002
0000
0000
0000
0013
0100
1000
0000
,
1100
0100
0010
0010
0001
0000
1000
0000
0010
0000
0000
0000
0110
0000
0001
0000
,
1000
0000
0001
0000
0100
0000
0010
0000
1000
0000
0000
1000
0100
0000
0010
0001
,
0100
0100
0010
0010
1000
0000
0100
0000
0010
0000
0001
0010
0100
1000
0010
0200
,
0000
0000
0310
0000
1000
0000
0100
0000
0010
0000
0001
1000
0001
0000
0100
0010
,
1000
1000
0001
0001
0100
0000
0010
0000
1000
0000
0100
0010
0001
0100
0010
1000
,
0000
0000
0001
0000
0100
0000
0001
0000
1000
0000
0010
0100
0001
0000
1000
0100
,
0010
0010
0100
0100
1000
0000
0001
0000
0100
0000
0010
1000
0001
0100
0010
1000
,
0000
0000
0100
0000
0010
0000
0001
0000
1000
0000
0010
1000
0001
0000
1000
0100
,
0010
0010
0100
0100
1000
0000
0010
0000
0100
0000
0001
0100
0010
1000
0100
0010
,
0001
0000
0100
0000
1001
0000
0100
0000
1001
0000
0100
0010
1000
0001
0100
0010
,
1000
1000
0001
0001
0220
0000
0330
0000
0001
0000
1000
0000
0100
0000
0010
0001
,
0100
0000
0010
0000
1000
0000
0001
0000
0100
0000
0001
1000
0001
0100
0010
1000
,
0100
0100
0010
0010
2002
0000
3003
0000
0010
0000
1000
0000
0100
0000
0010
0001
,
0100
0000
0010
0000
1000
0000
0001
0100
0010
0000
0100
0001
0010
0100
1000
0010
,
0100
0100
0010
0010
2002
0000
3003
0000
0010
0000
1000
0100
1000
0000
0001
0010
,
0100
0000
1000
0001
0100
0000
0000
0000
0010
0000
0100
0001
1000
0010
0100
0001
,
1000
1000
0001
0001
0220
0000
0330
0000
1000
0000
0100
0010
0001
0000
1000
0001
,
0100
0000
0010
0000
0110
0000
0001
1000
0001
0000
0100
0000
0100
0000
0010
1000
,
0100
0000
0000
0000
1001
0000
1000
0010
1000
0100
0000
0020
0000
0030
0001
0100
,
0001
0010
0000
0000
0200
0000
0310
0001
0010
0100
0000
0000
1000
0000
0001
0100
,
0001
0000
0010
0000
0100
0000
1000
0001
0100
0010
0000
2000
0000
3000
0001
1000
,
0010
0100
0000
0000
0001
0000
0001
0000
1000
0001
0100
0000
0110
0000
1000
0010
,
1000
0000
0100
0000
2002
0000
3003
1000
0010
0000
0110
0000
0101
0000
1000
0010
,
0100
0000
0110
0000
0101
0000
0001
0010
0100
0000
0110
0000
1100
0000
1000
0001
,
0100
0100
0010
0010
1001
0000
0100
0010
1000
0000
1010
0000
1001
0000
0001
0010
,
0100
0000
1100
0000
1001
0000
0001
0100
0010
0000
1010
0000
1001
0000
0001
0100
,
0020
0000
1030
0000
2020
0000
3030
0000
0001
0001
0100
0010
1000
0000
0100
0000
,
0010
0010
0200
0000
0310
0010
0200
0000
,
2300
0000
0000
0000
3001
0000
0100
0000
0001
0001
0010
0100
0010
0000
1000
0001
,
1100
0000
1100
0000
0101
0000
0000
1000
1100
0000
1100
0000
0101
0000
1000
0001
,
0100
0000
0010
0000
1001
0000
0100
0000
0010
0010
1000
0100
1100
0000
1000
0001
,
1000
0000
1010
0000
1001
0000
0001
1000
0100
0000
1100
0000
1001
0000
0100
0010
,
1000
0000
0100
0000
0110
0000
0010
0001
1000
1000
0100
1000
0001
0000
0100
0001
,
0100
0000
0110
0000
0101
0000
0010
1000
0010
0000
0101
0000
1010
0000
0001
0100
,
0010
0000
0000
0000
1000
0000
0000
0000
0202
0303
0000
0000
0000
0000
0000
0000
0000
0000
0000
0000
0000
0000
0000
0000
0000
0000
0000
0000
0000
0000
0000
0000
;

//---------------dance-single - ----------------
#NOTES:
     dance-single:
     :
     Hard:
     7:
     0.414865,0.389121,0.058583,0.142274,0.280363,347.000000,340.000000,7.000000,17.000000,0.000000,0.000000,0.414865,0.389121,0.058583,0.142274,0.280363,347.000000,340.000000,7.000000,17.000000,0.000000,0.000000:
0000
0000
0000
0000
,
0000
0000
0000
0000
,
0000
0000
0000
0000
,
0000
0000
1000
0000
0000
0000
1000
0010
,
0100
0100
0010
0010
1000
0000
0100
0000
0010
0000
0000
0000
0001
0000
1000
0000
,
0001
0100
0001
0010
0100
0000
1000
0010
,
0100
0100
0010
0010
1000
0000
0100
0000
0010
0000
0000
0000
0001
0000
0100
0000
,
0010
0000
1000
0000
0100
0000
0010
0000
0001
0000
0000
0000
0010
0100
1000
0000
,
0100
0100
0010
0010
0001
0000
0100
0000
0010
0000
0000
0000
1000
0000
0100
0000
,
0010
0000
0001
0000
0100
0000
0010
0000
2000
0000
0000
0000
3010
0100
0001
0000
,
0100
0100
0010
0010
1000
0000
0001
0000
0010
0000
0000
0000
0100
0000
1000
0000
,
0010
1000
0100
0010
0001
0000
0100
0001
,
0100
0100
0010
0010
1000
0000
0100
0000
0010
0000
0001
0000
0100
0000
0010
2000
,
0000
3010
0100
0000
0001
0000
0010
0100
,
1000
1000
0001
0001
0100
0000
0010
0000
1000
0000
0100
0000
0010
0000
0001
2000
,
0000
3001
0100
0000
0010
0000
1000
0001
,
0010
0010
0100
0100
0001
0000
1000
0000
0100
0000
0010
0000
0001
0000
1000
0020
,
0000
0130
0001
0000
0010
0000
0100
1000
,
0010
0010
0100
0100
0001
0000
0010
0000
0100
0000
1000
0000
0010
0000
0100
0002
,
0000
0000
0013
0000
0100
0000
0000
0000
0100
0000
1000
0001
1000
0001
1000
0001
,
1000
0000
0000
0000
0220
0000
0330
0000
0001
0000
1000
0000
0100
0000
0010
0001
,
0100
0000
0010
0000
1000
0000
0000
0000
0100
0000
1000
0001
1000
0000
0100
0000
,
0010
0010
0100
0100
2000
0000
3000
0000
0010
0000
0100
0000
0001
0000
0010
0100
,
0010
0000
0001
0000
1000
0000
0000
0000
0001
0000
1000
0001
1000
0001
1000
0001
,
1000
0000
0000
0000
2002
0000
3003
0000
0010
0000
1000
0000
0100
0000
1000
0001
,
1000
0100
0010
0000
0001
0100
0010
1000
,
0001
0001
0100
0100
0020
0000
0030
0000
1000
0000
0100
0000
0010
0000
0001
1000
,
0001
0000
0100
0000
0010
0000
1000
0001
1000
0000
0100
0000
0010
0000
0001
1000
,
0001
0000
0000
0000
1001
0000
0000
0100
0010
0000
1000
0000
0100
0000
0000
0010
,
0001
0000
1000
0000
0010
0000
0000
0100
0001
0000
1000
0000
0100
0000
0010
0100
,
0010
0000
0001
0000
0100
0000
0000
0010
0100
0000
0010
0000
1000
0000
0000
0001
,
0100
0000
0001
0000
1000
0000
0000
0010
1000
0000
0010
0000
0100
0000
0001
1000
,
0001
0000
0000
0000
1001
0000
0000
0001
0010
0000
0100
0000
0010
0000
0000
0100
,
1000
0000
0001
0000
0100
0000
0000
0010
1000
0000
0100
0000
0010
0000
0001
1000
,
0001
0000
0010
0000
0110
0000
0000
0100
1000
0000
0001
0000
0100
0000
0000
0010
,
1000
0000
0100
0000
0010
0000
0000
0001
1000
0000
0001
0000
0100
0000
0010
1000
,
0020
0000
0000
0000
0130
0000
0000
0000
0001
1000
0001
1000
0001
0000
0100
0000
,
0010
1000
0100
0000
0010
0001
0100
0000
,
2002
0000
0000
0000
3003
0000
0000
0000
0010
0100
0010
0100
0010
0000
1000
0000
,
0100
0000
0010
0000
0001
0000
0000
0000
0100
0000
0010
0000
1000
0000
0100
1000
,
0100
0000
1000
0000
0001
0000
0000
0000
0100
0001
0100
0001
0100
0000
0010
0000
,
1000
0000
0001
0000
0100
0000
0001
0010
0001
0000
0100
0000
0010
0000
1000
0100
,
2000
0000
0000
0000
3010
0000
0000
0000
0100
0001
0100
0001
0100
0000
0010
0000
,
1000
0000
0100
0000
0010
0000
0001
1000
0001
0000
0100
0000
0001
0000
1000
0000
,
0010
0000
0000
0000
1000
0000
0000
0000
0202
0303
0000
0000
0000
0000
0000
0000
0000
0000
0000
0000
0000
0000
0000
0000
0000
0000
0000
0000
0000
0000
0000
0000
;

//---------------dance-single - ----------------
#NOTES:
     dance-single:
     :
     Medium:
     6:
     0.280961,0.259231,0.108798,0.217595,0.000000,235.000000,222.000000,13.000000,26.000000,0.000000,0.000000,0.280961,0.259231,0.108798,0.217595,0.000000,235.000000,222.000000,13.000000,26.000000,0.000000,0.000000:
// measure 0
0000
0000
0000
0000
,  // measure 1
0000
0000
0000
0000
,  // measure 2
0000
0000
0000
0000
,  // measure 3
0000
0000
1000
0000
0000
0000
1000
0001
,  // measure 4
0100
0000
0010
1000
0100
0000
0010
0100
,  // measure 5
0010
0100
1000
0001
1000
0000
0010
0100
,  // measure 6
0010
0000
1000
0001
0100
0000
0010
0100
,  // measure 7
0010
0100
0001
0100
0001
0000
0010
0100
,  // measure 8
0010
0000
0001
1000
0001
0000
1000
0100
,  // measure 9
1000
0100
0010
0100
0010
0000
0001
1000
,  // measure 10
0001
0000
0100
0010
1000
0000
0001
1000
,  // measure 11
0100
0010
0100
0010
0001
0000
1000
0000
,  // measure 12
0100
0000
0010
0000
0001
0100
0010
1000
,  // measure 13
0010
0000
0100
0000
0001
0000
0010
0100
,  // measure 14
1000
0000
0010
0000
1000
0100
0010
0001
,  // measure 15
0100
0000
0010
0000
1000
0000
0001
0100
,  // measure 16
0001
0000
0010
0000
0100
1000
0001
0100
,  // measure 17
0010
0000
1000
0000
0100
0000
0010
0100
,  // measure 18
1000
0000
0010
0000
0100
0001
1000
0010
,  // measure 19
0100
0000
0100
0000
0100
0001
0100
0010
,  // measure 20
1000
2002
3003
0010
,  // measure 21
1000
0000
0100
0000
0010
0001
0100
0010
,  // measure 22
1000
2002
3003
0010
,  // measure 23
0100
0000
0010
0000
0001
1000
0100
0010
,  // measure 24
0100
0000
2002
0000
3003
0000
0010
1000
,  // measure 25
0100
0000
0010
0000
0100
1000
0001
0100
,  // measure 26
0010
0000
2002
0000
3003
0000
0100
0010
,  // measure 27
1000
1000
0100
0000
0001
0001
0100
0000
,  // measure 28
2002
0000
3003
0000
0100
0010
0100
0000
,  // measure 29
0010
1000
0100
0000
0010
0100
1000
0000
,  // measure 30
2002
0000
3003
0000
0010
1000
0001
0000
,  // measure 31
0010
0001
1000
0000
0010
1000
0100
0000
,  // measure 32
2200
0000
3300
0000
0010
0100
0001
0000
,  // measure 33
0010
0100
1000
0000
0010
0100
0001
0000
,  // measure 34
2002
0000
3003
0000
0010
0001
1000
0000
,  // measure 35
0010
1000
0001
0000
0010
0001
1000
0000
,  // measure 36
2200
0000
3300
0000
0010
0100
0001
1000
,  // measure 37
0100
0100
0100
0000
0010
0010
0010
0000
,  // measure 38
0220
0000
0330
0000
0001
0100
0010
1000
,  // measure 39
0100
0100
0100
0000
0010
0010
0010
0000
,  // measure 40
2002
0000
3003
0000
1000
0001
1000
0100
,  // measure 41
0010
0001
0100
0000
0010
1000
0100
0000
,  // measure 42
2002
0000
3003
0000
1000
0001
1000
0100
,  // measure 43
0010
0100
0010
0000
0001
1000
0001
0000
,  // measure 44
2002
3003
0000
0000
;

//---------------dance-single - ----------------
#NOTES:
     dance-single:
     :
     Easy:
     3:
     0.179337,0.222198,0.108798,0.267809,0.000000,150.000000,137.000000,13.000000,32.000000,0.000000,0.000000,0.179337,0.222198,0.108798,0.267809,0.000000,150.000000,137.000000,13.000000,32.000000,0.000000,0.000000:
0000
0000
0000
0000
,
0000
0000
0000
0000
,
0000
0000
0000
0000
,
0000
1000
0000
1000
,
0200
0300
0020
0030
,
0001
0100
0010
0000
,
2000
3000
0200
0300
,
0010
0001
0100
0000
,
0020
0030
2000
3000
,
0001
1000
0100
0000
,
0020
0030
0002
0003
,
0100
0010
1000
0000
,
0001
0100
0010
1000
,
0200
0010
0000
0310
,
0001
1000
0010
0100
,
0002
1000
0000
1003
,
0010
1000
0100
0010
,
0002
0100
0000
0103
,
0010
1000
0100
0010
,
0200
0000
0000
1300
,
0001
2002
3003
0100
,
0010
0000
1000
0000
0001
0000
0100
0100
,
0100
0220
0330
0010
,
1000
0000
0100
0000
0010
0000
0001
0001
,
0001
2002
3003
0010
,
0001
0000
0100
0000
0010
0000
1000
1000
,
1000
2002
3003
0100
,
0010
0010
0010
0000
0010
0010
0010
0000
,
2002
3003
0010
1000
,
0100
0000
0010
0000
,
0220
0330
0001
0000
,
1000
0001
0100
0010
,
2002
3003
1000
0100
,
0001
0000
0100
0000
1000
0000
0010
0010
,
0010
0110
0100
0000
,
0001
0001
1000
0000
,
2002
3003
0001
0010
,
0100
0000
1000
0000
0010
0000
0100
0100
,
0100
0110
0010
0000
,
1000
1000
0001
0000
,
2002
3003
0010
1000
,
0100
0000
0010
0000
0100
0000
0010
0010
,
0010
0110
0100
0000
,
1000
0001
0100
0010
,
2002
3003
0000
0000
;

//---------------dance-single - ----------------
#NOTES:
     dance-single:
     :
     Beginner:
     1:
     0.114775,0.129616,0.108798,0.217595,0.000000,96.000000,83.000000,13.000000,26.000000,0.000000,0.000000,0.114775,0.129616,0.108798,0.217595,0.000000,96.000000,83.000000,13.000000,26.000000,0.000000,0.000000:
0000
0000
0000
0000
,
0000
0000
0000
0000
,
0000
0000
0000
0000
,
0000
0100
0000
0100
,
0100
0000
0010
0000
,
0001
0000
0010
0000
,
1000
0000
0100
0000
,
0010
0000
0100
0000
,
0010
0000
1000
0000
,
0001
0000
0100
0000
,
0010
0000
0001
0000
,
0100
0000
1000
0000
,
0001
0000
0100
0000
,
0010
0000
1000
0000
,
0001
0000
1000
0000
,
0010
0000
0100
0000
,
0010
0000
1000
0000
,
0100
0000
0010
0000
,
0001
0000
1000
0000
,
0100
0000
0000
0010
,
0000
2002
3003
0100
,
0100
0000
0010
0000
,
0000
0220
0330
0010
,
0010
0000
1000
0000
,
0000
2002
3003
0001
,
0001
0000
0100
0000
,
0000
2002
3003
0100
,
0100
0000
0010
0000
,
2002
3003
0010
0000
,
0100
0000
0010
0000
,
0220
0330
0001
0000
,
1000
0000
0001
0000
,
2002
3003
1000
0000
,
0001
0000
1000
0000
,
0220
0330
0100
0000
,
0001
0000
1000
0000
,
2002
3003
0001
0000
,
0010
0000
0100
0000
,
0220
0330
0010
0000
,
0001
0000
0100
0000
,
2002
3003
1000
0000
,
0010
0000
0100
0000
,
0220
0330
0100
0000
,
0001
0000
1000
0000
,
2002
3003
0000
0000
;
